  0
SECTION
  2
HEADER
  9
$ACADVER
  1
AC1018
  9
$ACADMAINTVER
 70
   104
  9
$DWGCODEPAGE
  3
ANSI_1252
  9
$LASTSAVEDBY
  1
V498957
  9
$INSBASE
 10
0.0
 20
0.0
 30
0.0
  9
$EXTMIN
 10
8390.148967965213
 20
-3188.7341992027
 30
0.0
  9
$EXTMAX
 10
15107.20451438471
 20
428.8418846372218
 30
0.0
  9
$LIMMIN
 10
-1091.180495341761
 20
-619.6501650024412
  9
$LIMMAX
 10
1056.97244419739
 20
951.0353648293053
  9
$ORTHOMODE
 70
     0
  9
$REGENMODE
 70
     1
  9
$FILLMODE
 70
     1
  9
$QTEXTMODE
 70
     0
  9
$MIRRTEXT
 70
     1
  9
$LTSCALE
 40
1.0
  9
$ATTMODE
 70
     1
  9
$TEXTSIZE
 40
4.0
  9
$TRACEWID
 40
0.05
  9
$TEXTSTYLE
  7
AN150
  9
$CLAYER
  8
FENSTER
  9
$CELTYPE
  6
BYLAYER
  9
$CECOLOR
 62
   256
  9
$CELTSCALE
 40
1.0
  9
$DISPSILH
 70
     0
  9
$DIMSCALE
 40
100.0
  9
$DIMASZ
 40
0.25
  9
$DIMEXO
 40
0.5
  9
$DIMDLI
 40
0.5
  9
$DIMRND
 40
0.0
  9
$DIMDLE
 40
0.0
  9
$DIMEXE
 40
0.25
  9
$DIMTP
 40
0.0
  9
$DIMTM
 40
0.0
  9
$DIMTXT
 40
0.25
  9
$DIMCEN
 40
0.09
  9
$DIMTSZ
 40
0.0
  9
$DIMTOL
 70
     0
  9
$DIMLIM
 70
     0
  9
$DIMTIH
 70
     0
  9
$DIMTOH
 70
     0
  9
$DIMSE1
 70
     0
  9
$DIMSE2
 70
     0
  9
$DIMTAD
 70
     1
  9
$DIMZIN
 70
     0
  9
$DIMBLK
  1

  9
$DIMASO
 70
     1
  9
$DIMSHO
 70
     1
  9
$DIMPOST
  1

  9
$DIMAPOST
  1

  9
$DIMALT
 70
     0
  9
$DIMALTD
 70
     2
  9
$DIMALTF
 40
25.4
  9
$DIMLFAC
 40
1.0
  9
$DIMTOFL
 70
     0
  9
$DIMTVP
 40
0.0
  9
$DIMTIX
 70
     0
  9
$DIMSOXD
 70
     0
  9
$DIMSAH
 70
     0
  9
$DIMBLK1
  1

  9
$DIMBLK2
  1

  9
$DIMSTYLE
  2
TYPENBLATT_M10
  9
$DIMCLRD
 70
     0
  9
$DIMCLRE
 70
     0
  9
$DIMCLRT
 70
     0
  9
$DIMTFAC
 40
1.0
  9
$DIMGAP
 40
0.075
  9
$DIMJUST
 70
     0
  9
$DIMSD1
 70
     0
  9
$DIMSD2
 70
     0
  9
$DIMTOLJ
 70
     1
  9
$DIMTZIN
 70
     0
  9
$DIMALTZ
 70
     0
  9
$DIMALTTZ
 70
     0
  9
$DIMUPT
 70
     0
  9
$DIMDEC
 70
     0
  9
$DIMTDEC
 70
     4
  9
$DIMALTU
 70
     2
  9
$DIMALTTD
 70
     2
  9
$DIMTXSTY
  7
VOEST
  9
$DIMAUNIT
 70
     0
  9
$DIMADEC
 70
     0
  9
$DIMALTRND
 40
0.0
  9
$DIMAZIN
 70
     0
  9
$DIMDSEP
 70
    46
  9
$DIMATFIT
 70
     3
  9
$DIMFRAC
 70
     0
  9
$DIMLDRBLK
  1

  9
$DIMLUNIT
 70
     2
  9
$DIMLWD
 70
    -2
  9
$DIMLWE
 70
    -2
  9
$DIMTMOVE
 70
     0
  9
$LUNITS
 70
     2
  9
$LUPREC
 70
     4
  9
$SKETCHINC
 40
0.1
  9
$FILLETRAD
 40
10.0
  9
$AUNITS
 70
     0
  9
$AUPREC
 70
     4
  9
$MENU
  1
acad
  9
$ELEVATION
 40
0.0
  9
$PELEVATION
 40
0.0
  9
$THICKNESS
 40
0.0
  9
$LIMCHECK
 70
     0
  9
$CHAMFERA
 40
0.0
  9
$CHAMFERB
 40
0.0
  9
$CHAMFERC
 40
1.0
  9
$CHAMFERD
 40
0.0
  9
$SKPOLY
 70
     0
  9
$TDCREATE
 40
2451353.418328530
  9
$TDUCREATE
 40
2451353.376661864
  9
$TDUPDATE
 40
2455223.610915845
  9
$TDUUPDATE
 40
2455223.569249178
  9
$TDINDWG
 40
3.5927409722
  9
$TDUSRTIMER
 40
3.5927409722
  9
$USRTIMER
 70
     1
  9
$ANGBASE
 50
0.0
  9
$ANGDIR
 70
     0
  9
$PDMODE
 70
     0
  9
$PDSIZE
 40
0.0
  9
$PLINEWID
 40
0.0
  9
$SPLFRAME
 70
     0
  9
$SPLINETYPE
 70
     6
  9
$SPLINESEGS
 70
    50
  9
$HANDSEED
  5
B566
  9
$SURFTAB1
 70
     6
  9
$SURFTAB2
 70
     6
  9
$SURFTYPE
 70
     6
  9
$SURFU
 70
     6
  9
$SURFV
 70
     6
  9
$UCSBASE
  2

  9
$UCSNAME
  2

  9
$UCSORG
 10
0.0
 20
0.0
 30
0.0
  9
$UCSXDIR
 10
1.0
 20
0.0
 30
0.0
  9
$UCSYDIR
 10
0.0
 20
1.0
 30
0.0
  9
$UCSORTHOREF
  2

  9
$UCSORTHOVIEW
 70
     0
  9
$UCSORGTOP
 10
0.0
 20
0.0
 30
0.0
  9
$UCSORGBOTTOM
 10
0.0
 20
0.0
 30
0.0
  9
$UCSORGLEFT
 10
0.0
 20
0.0
 30
0.0
  9
$UCSORGRIGHT
 10
0.0
 20
0.0
 30
0.0
  9
$UCSORGFRONT
 10
0.0
 20
0.0
 30
0.0
  9
$UCSORGBACK
 10
0.0
 20
0.0
 30
0.0
  9
$PUCSBASE
  2

  9
$PUCSNAME
  2

  9
$PUCSORG
 10
0.0
 20
0.0
 30
0.0
  9
$PUCSXDIR
 10
1.0
 20
0.0
 30
0.0
  9
$PUCSYDIR
 10
0.0
 20
1.0
 30
0.0
  9
$PUCSORTHOREF
  2

  9
$PUCSORTHOVIEW
 70
     0
  9
$PUCSORGTOP
 10
0.0
 20
0.0
 30
0.0
  9
$PUCSORGBOTTOM
 10
0.0
 20
0.0
 30
0.0
  9
$PUCSORGLEFT
 10
0.0
 20
0.0
 30
0.0
  9
$PUCSORGRIGHT
 10
0.0
 20
0.0
 30
0.0
  9
$PUCSORGFRONT
 10
0.0
 20
0.0
 30
0.0
  9
$PUCSORGBACK
 10
0.0
 20
0.0
 30
0.0
  9
$USERI1
 70
     0
  9
$USERI2
 70
     0
  9
$USERI3
 70
     0
  9
$USERI4
 70
     0
  9
$USERI5
 70
     0
  9
$USERR1
 40
0.0
  9
$USERR2
 40
0.0
  9
$USERR3
 40
0.0
  9
$USERR4
 40
0.0
  9
$USERR5
 40
0.0
  9
$WORLDVIEW
 70
     1
  9
$SHADEDGE
 70
     3
  9
$SHADEDIF
 70
    70
  9
$TILEMODE
 70
     1
  9
$MAXACTVP
 70
    48
  9
$PINSBASE
 10
0.0
 20
0.0
 30
0.0
  9
$PLIMCHECK
 70
     0
  9
$PEXTMIN
 10
1.000000000000000E+20
 20
1.000000000000000E+20
 30
1.000000000000000E+20
  9
$PEXTMAX
 10
-1.000000000000000E+20
 20
-1.000000000000000E+20
 30
-1.000000000000000E+20
  9
$PLIMMIN
 10
-0.1979161059762549
 20
-0.2679166643638311
  9
$PLIMMAX
 10
11.4920836921752
 20
7.99874977802667
  9
$UNITMODE
 70
     0
  9
$VISRETAIN
 70
     1
  9
$PLINEGEN
 70
     0
  9
$PSLTSCALE
 70
     1
  9
$TREEDEPTH
 70
  3020
  9
$CMLSTYLE
  2
STANDARD
  9
$CMLJUST
 70
     0
  9
$CMLSCALE
 40
1.0
  9
$PROXYGRAPHICS
 70
     1
  9
$MEASUREMENT
 70
     0
  9
$CELWEIGHT
370
    -1
  9
$ENDCAPS
280
     0
  9
$JOINSTYLE
280
     0
  9
$LWDISPLAY
290
     0
  9
$INSUNITS
 70
     0
  9
$HYPERLINKBASE
  1

  9
$STYLESHEET
  1

  9
$XEDIT
290
     1
  9
$CEPSNTYPE
380
     0
  9
$PSTYLEMODE
290
     1
  9
$FINGERPRINTGUID
  2
{9534987B-55C5-11D5-8B32-0050046A49B2}
  9
$VERSIONGUID
  2
{DC2475FB-C0C8-463D-AD6E-BA9BA4001EF3}
  9
$EXTNAMES
290
     1
  9
$PSVPSCALE
 40
0.0
  9
$OLESTARTUP
290
     0
  9
$SORTENTS
280
    96
  9
$INDEXCTL
280
     0
  9
$HIDETEXT
280
     0
  9
$XCLIPFRAME
290
     0
  9
$HALOGAP
280
     0
  9
$OBSCOLOR
 70
   257
  9
$OBSLTYPE
280
     0
  9
$INTERSECTIONDISPLAY
280
     0
  9
$INTERSECTIONCOLOR
 70
   257
  9
$DIMASSOC
280
     1
  9
$PROJECTNAME
  1

  0
ENDSEC
  0
SECTION
  2
CLASSES
  0
CLASS
  1
DICTIONARYVAR
  2
AcDbDictionaryVar
  3
ObjectDBX Classes
 90
        0
 91
        8
280
     0
281
     0
  0
CLASS
  1
ACDBDICTIONARYWDFLT
  2
AcDbDictionaryWithDefault
  3
ObjectDBX Classes
 90
        0
 91
        1
280
     0
281
     0
  0
CLASS
  1
RASTERVARIABLES
  2
AcDbRasterVariables
  3
ISM
 90
        0
 91
        1
280
     0
281
     0
  0
CLASS
  1
IMAGEDEF
  2
AcDbRasterImageDef
  3
ISM
 90
        0
 91
        2
280
     0
281
     0
  0
CLASS
  1
IMAGEDEF_REACTOR
  2
AcDbRasterImageDefReactor
  3
ISM
 90
        1
 91
        0
280
     0
281
     0
  0
CLASS
  1
IMAGE
  2
AcDbRasterImage
  3
ISM
 90
     2175
 91
        0
280
     0
281
     1
  0
CLASS
  1
TABLESTYLE
  2
AcDbTableStyle
  3
ObjectDBX Classes
 90
     4095
 91
        1
280
     0
281
     0
  0
CLASS
  1
MATERIAL
  2
AcDbMaterial
  3
ObjectDBX Classes
 90
     1153
 91
        3
280
     0
281
     0
  0
CLASS
  1
VISUALSTYLE
  2
AcDbVisualStyle
  3
ObjectDBX Classes
 90
     4095
 91
       16
280
     0
281
     0
  0
CLASS
  1
EXACXREFPANELOBJECT
  2
ExAcXREFPanelObject
  3
EXAC_ESW
 90
     1025
 91
        0
280
     0
281
     0
  0
CLASS
  1
NPOCOLLECTION
  2
AcDbImpNonPersistentObjectsCollection
  3
ObjectDBX Classes
 90
     1153
 91
        0
280
     0
281
     0
  0
CLASS
  1
SCALE
  2
AcDbScale
  3
ObjectDBX Classes
 90
     1153
 91
       33
280
     0
281
     0
  0
CLASS
  1
MLEADERSTYLE
  2
AcDbMLeaderStyle
  3
ACDB_MLEADERSTYLE_CLASS
 90
     4095
 91
        1
280
     0
281
     0
  0
CLASS
  1
CELLSTYLEMAP
  2
AcDbCellStyleMap
  3
ObjectDBX Classes
 90
     1152
 91
        3
280
     0
281
     0
  0
CLASS
  1
SORTENTSTABLE
  2
AcDbSortentsTable
  3
ObjectDBX Classes
 90
        0
 91
        2
280
     0
281
     0
  0
CLASS
  1
DIMASSOC
  2
AcDbDimAssoc
  3
"AcDbDimAssoc|Product Desc:     AcDim ARX App For Dimension|Company:          Autodesk, Inc.|WEB Address:      www.autodesk.com"
 90
        0
 91
        3
280
     0
281
     0
  0
ENDSEC
  0
SECTION
  2
TABLES
  0
TABLE
  2
VPORT
  5
8
102
{ACAD_XDICTIONARY
360
2D31
102
}
330
0
100
AcDbSymbolTable
 70
     1
  0
VPORT
  5
2A99
330
8
100
AcDbSymbolTableRecord
100
AcDbViewportTableRecord
  2
*Active
 70
     0
 10
0.0
 20
0.0
 11
1.0
 21
1.0
 12
12673.51848411456
 22
-1629.361908852344
 13
0.0
 23
0.0
 14
0.5
 24
0.5
 15
0.5
 25
0.5
 16
0.0
 26
0.0
 36
1.0
 17
0.0
 27
0.0
 37
0.0
 40
6978.273028510769
 41
1.788313120176405
 42
50.0
 43
0.0
 44
0.0
 50
0.0
 51
0.0
 71
     0
 72
   100
 73
     1
 74
     1
 75
     0
 76
     0
 77
     0
 78
     0
281
     0
 65
     1
110
0.0
120
0.0
130
0.0
111
1.0
121
0.0
131
0.0
112
0.0
122
1.0
132
0.0
 79
     0
146
0.0
  0
ENDTAB
  0
TABLE
  2
LTYPE
  5
5
330
0
100
AcDbSymbolTable
 70
     5
  0
LTYPE
  5
12
330
5
100
AcDbSymbolTableRecord
100
AcDbLinetypeTableRecord
  2
BYBLOCK
 70
     0
  3

 72
    65
 73
     0
 40
0.0
  0
LTYPE
  5
13
330
5
100
AcDbSymbolTableRecord
100
AcDbLinetypeTableRecord
  2
BYLAYER
 70
     0
  3

 72
    65
 73
     0
 40
0.0
  0
LTYPE
  5
14
330
5
100
AcDbSymbolTableRecord
100
AcDbLinetypeTableRecord
  2
CONTINUOUS
 70
     0
  3
Solid line
 72
    65
 73
     0
 40
0.0
  0
LTYPE
  5
222
330
5
100
AcDbSymbolTableRecord
100
AcDbLinetypeTableRecord
  2
STRICHPUNKT
 70
     0
  3
Strichpunkt __ . __ . __ . __ . __ . __ . __ . 
 72
    65
 73
     4
 40
25.4
 49
12.7
 74
     0
 49
-6.349999999999999
 74
     0
 49
0.0
 74
     0
 49
-6.349999999999999
 74
     0
  0
LTYPE
  5
223
330
5
100
AcDbSymbolTableRecord
100
AcDbLinetypeTableRecord
  2
STRICHLINIE
 70
     0
  3
Strichlinie __ __ __ __ __ __ __ __ __ __ __ __
 72
    65
 73
     2
 40
19.05
 49
12.7
 74
     0
 49
-6.349999999999999
 74
     0
  0
LTYPE
  5
4887
330
5
100
AcDbSymbolTableRecord
100
AcDbLinetypeTableRecord
  2
ACAD_ISO02W100
 70
     0
  3
ISO Strichlinie __ __ __ __ __ __ __ __ __ __ __ __ __
 72
    65
 73
     2
 40
15.0
 49
12.0
 74
     0
 49
-3.0
 74
     0
  0
LTYPE
  5
4888
330
5
100
AcDbSymbolTableRecord
100
AcDbLinetypeTableRecord
  2
ACAD_ISO10W100
 70
     0
  3
ISO Strichpunktlinie __ . __ . __ . __ . __ . _
 72
    65
 73
     4
 40
18.0
 49
12.0
 74
     0
 49
-3.0
 74
     0
 49
0.0
 74
     0
 49
-3.0
 74
     0
  0
ENDTAB
  0
TABLE
  2
LAYER
  5
2
102
{ACAD_XDICTIONARY
360
209B
102
}
330
0
100
AcDbSymbolTable
 70
    18
  0
LAYER
  5
E
102
{ACAD_XDICTIONARY
360
32B8
102
}
330
2
100
AcDbSymbolTableRecord
100
AcDbLayerTableRecord
  2
0
 70
     0
 62
     7
  6
CONTINUOUS
370
    -3
390
16EB
  0
LAYER
  5
4A
102
{ACAD_XDICTIONARY
360
32BA
102
}
330
2
100
AcDbSymbolTableRecord
100
AcDbLayerTableRecord
  2
HILFSLINIEN
 70
     0
 62
     3
  6
CONTINUOUS
290
     0
370
    -3
390
16EB
  0
LAYER
  5
12F
102
{ACAD_XDICTIONARY
360
32BC
102
}
330
2
100
AcDbSymbolTableRecord
100
AcDbLayerTableRecord
  2
25
 70
     0
 62
     7
  6
CONTINUOUS
370
    -3
390
16EB
  0
LAYER
  5
1DA
102
{ACAD_XDICTIONARY
360
32BE
102
}
330
2
100
AcDbSymbolTableRecord
100
AcDbLayerTableRecord
  2
35
 70
     0
 62
     2
  6
CONTINUOUS
370
    -3
390
16EB
  0
LAYER
  5
224
102
{ACAD_XDICTIONARY
360
32C0
102
}
330
2
100
AcDbSymbolTableRecord
100
AcDbLayerTableRecord
  2
KOTIERUNG
 70
     0
 62
     7
  6
CONTINUOUS
370
    -3
390
16EB
  0
LAYER
  5
225
330
2
100
AcDbSymbolTableRecord
100
AcDbLayerTableRecord
  2
DEFPOINTS
 70
     0
 62
     7
  6
CONTINUOUS
290
     0
370
    -3
390
16EB
  0
LAYER
  5
226
102
{ACAD_XDICTIONARY
360
32C2
102
}
330
2
100
AcDbSymbolTableRecord
100
AcDbLayerTableRecord
  2
18
 70
     0
 62
     1
  6
CONTINUOUS
370
    -3
390
16EB
  0
LAYER
  5
425
102
{ACAD_XDICTIONARY
360
32C4
102
}
330
2
100
AcDbSymbolTableRecord
100
AcDbLayerTableRecord
  2
50
 70
     0
 62
    33
  6
CONTINUOUS
370
    -3
390
16EB
  0
LAYER
  5
471
102
{ACAD_XDICTIONARY
360
32C6
102
}
330
2
100
AcDbSymbolTableRecord
100
AcDbLayerTableRecord
  2
FENSTER
 70
     0
 62
     4
  6
CONTINUOUS
290
     0
370
    -3
390
16EB
  0
LAYER
  5
474
102
{ACAD_XDICTIONARY
360
32C8
102
}
330
2
100
AcDbSymbolTableRecord
100
AcDbLayerTableRecord
  2
A4-BLATT
 70
     0
 62
     6
  6
CONTINUOUS
290
     0
370
    -3
390
16EB
  0
LAYER
  5
12F9
102
{ACAD_XDICTIONARY
360
32CA
102
}
330
2
100
AcDbSymbolTableRecord
100
AcDbLayerTableRecord
  2
BLATTHILFSLINIEN
 70
     0
 62
   252
  6
CONTINUOUS
290
     0
370
    -3
390
16EB
  0
LAYER
  5
14E1
102
{ACAD_XDICTIONARY
360
32CC
102
}
330
2
100
AcDbSymbolTableRecord
100
AcDbLayerTableRecord
  2
BESCHRIFTUNGM
 70
     0
 62
     7
  6
CONTINUOUS
290
     0
370
    -3
390
16EB
  0
LAYER
  5
14EF
102
{ACAD_XDICTIONARY
360
32CE
102
}
330
2
100
AcDbSymbolTableRecord
100
AcDbLayerTableRecord
  2
BLATTTEXT
 70
     0
 62
     7
  6
CONTINUOUS
370
    -3
390
16EB
  0
LAYER
  5
18AE
102
{ACAD_XDICTIONARY
360
32D0
102
}
330
2
100
AcDbSymbolTableRecord
100
AcDbLayerTableRecord
  2
LOGO
 70
     0
 62
     7
  6
CONTINUOUS
370
    -3
390
16EB
  0
LAYER
  5
1A60
102
{ACAD_XDICTIONARY
360
32D2
102
}
330
2
100
AcDbSymbolTableRecord
100
AcDbLayerTableRecord
  2
70
 70
     0
 62
     5
  6
CONTINUOUS
370
    -3
390
16EB
  0
LAYER
  5
1A61
102
{ACAD_XDICTIONARY
360
32D4
102
}
330
2
100
AcDbSymbolTableRecord
100
AcDbLayerTableRecord
  2
PLANKOPF
 70
     0
 62
     7
  6
CONTINUOUS
370
    -3
390
16EB
  0
LAYER
  5
4889
102
{ACAD_XDICTIONARY
360
488A
102
}
330
2
100
AcDbSymbolTableRecord
100
AcDbLayerTableRecord
  2
Hilfslinie
 70
     0
 62
     3
  6
CONTINUOUS
290
     0
370
    -3
390
16EB
  0
LAYER
  5
488B
330
2
100
AcDbSymbolTableRecord
100
AcDbLayerTableRecord
  2
Signierung NEU
 70
     0
 62
     7
  6
CONTINUOUS
370
    -3
390
16EB
  0
ENDTAB
  0
TABLE
  2
STYLE
  5
3
330
0
100
AcDbSymbolTable
 70
    11
  0
STYLE
  5
F
330
3
100
AcDbSymbolTableRecord
100
AcDbTextStyleTableRecord
  2
STANDARD
 70
     0
 40
0.0
 41
1.0
 50
0.0
 71
     0
 42
25.0
  3
ARIALN.TTF
  4

1001
ACAD
1000
Arial Narrow
1071
       34
  0
STYLE
  5
428
330
3
100
AcDbSymbolTableRecord
100
AcDbTextStyleTableRecord
  2
VOEST
 70
     0
 40
0.0
 41
1.0
 50
0.0
 71
     0
 42
4.0
  3
ARIALN.TTF
  4

1001
ACAD
1000
Arial Narrow
1071
       34
  0
STYLE
  5
14E5
330
3
100
AcDbSymbolTableRecord
100
AcDbTextStyleTableRecord
  2
ARIALFETT
 70
     0
 40
0.0
 41
1.0
 50
0.0
 71
     0
 42
4.0
  3
ARIALN.TTF
  4

1001
ACAD
1000
Arial Narrow
1071
       34
  0
STYLE
  5
16D3
330
3
100
AcDbSymbolTableRecord
100
AcDbTextStyleTableRecord
  2
VOESTB
 70
     0
 40
0.0
 41
1.0
 50
0.0
 71
     0
 42
4.0
  3
ARIALNB.TTF
  4

1001
ACAD
1000
Arial Narrow
1071
 33554466
  0
STYLE
  5
18AF
330
3
100
AcDbSymbolTableRecord
100
AcDbTextStyleTableRecord
  2
LOGO
 70
     0
 40
0.0
 41
1.0
 50
0.0
 71
     0
 42
3.0
  3

  4

1001
ACAD
1000
Arial Black
1071
       34
  0
STYLE
  5
1A62
330
3
100
AcDbSymbolTableRecord
100
AcDbTextStyleTableRecord
  2
Stil1
 70
     0
 40
0.0
 41
1.175
 50
0.0
 71
     0
 42
6.158564712355089
  3
swissb.ttf
  4

1001
ACAD
1000
Swis721 BT
1071
 33554466
  0
STYLE
  5
1A63
330
3
100
AcDbSymbolTableRecord
100
AcDbTextStyleTableRecord
  2
Stil2
 70
     0
 40
0.0
 41
1.175
 50
0.0
 71
     0
 42
6.158564712355089
  3
swissel.ttf
  4

1001
ACAD
1000
Swis721 LtEx BT
1071
       34
  0
STYLE
  5
1A75
330
3
100
AcDbSymbolTableRecord
100
AcDbTextStyleTableRecord
  2
AN150
 70
     0
 40
0.0
 41
1.5
 50
0.0
 71
     0
 42
4.0
  3
ARIALN.TTF
  4

1001
ACAD
1000
Arial Narrow
1071
       34
  0
STYLE
  5
1CFA
330
3
100
AcDbSymbolTableRecord
100
AcDbTextStyleTableRecord
  2
LOGO1
 70
     0
 40
0.0
 41
1.175
 50
0.0
 71
     0
 42
6.158564712355089
  3
swissb.ttf
  4

1001
ACAD
1000
Swis721 BT
1071
 33554466
  0
STYLE
  5
1CFB
330
3
100
AcDbSymbolTableRecord
100
AcDbTextStyleTableRecord
  2
LOGO3
 70
     0
 40
0.0
 41
1.175
 50
0.0
 71
     0
 42
6.158564712355089
  3
swissel.ttf
  4

1001
ACAD
1000
Swis721 LtEx BT
1071
       34
  0
STYLE
  5
1CFC
330
3
100
AcDbSymbolTableRecord
100
AcDbTextStyleTableRecord
  2
LOGO2
 70
     0
 40
0.0
 41
1.175
 50
0.0
 71
     0
 42
6.158564712355089
  3
swiss.ttf
  4

1001
ACAD
1000
Swis721 BT
1071
       34
  0
ENDTAB
  0
TABLE
  2
VIEW
  5
6
330
0
100
AcDbSymbolTable
 70
     4
  0
ENDTAB
  0
TABLE
  2
UCS
  5
7
330
0
100
AcDbSymbolTable
 70
     0
  0
ENDTAB
  0
TABLE
  2
APPID
  5
9
330
0
100
AcDbSymbolTable
 70
    14
  0
APPID
  5
10
330
9
100
AcDbSymbolTableRecord
100
AcDbRegAppTableRecord
  2
ACAD
 70
     0
  0
APPID
  5
24
330
9
100
AcDbSymbolTableRecord
100
AcDbRegAppTableRecord
  2
CONTENTTABDATA
 70
     0
  0
APPID
  5
25
330
9
100
AcDbSymbolTableRecord
100
AcDbRegAppTableRecord
  2
CONTENTCURRENTTAB
 70
     0
  0
APPID
  5
116
330
9
100
AcDbSymbolTableRecord
100
AcDbRegAppTableRecord
  2
CONTENTBLOCKICON
 70
     0
  0
APPID
  5
117
330
9
100
AcDbSymbolTableRecord
100
AcDbRegAppTableRecord
  2
CONTENTBLOCKDESCRIPTION
 70
     0
  0
APPID
  5
222F
330
9
100
AcDbSymbolTableRecord
100
AcDbRegAppTableRecord
  2
ACAD_PSEXT
 70
     0
  0
APPID
  5
23F5
330
9
100
AcDbSymbolTableRecord
100
AcDbRegAppTableRecord
  2
ACAD_EXEMPT_FROM_CAD_STANDARDS
 70
     0
  0
APPID
  5
3202
330
9
100
AcDbSymbolTableRecord
100
AcDbRegAppTableRecord
  2
ACAD_MLEADERVER
 70
     0
  0
APPID
  5
44A1
330
9
100
AcDbSymbolTableRecord
100
AcDbRegAppTableRecord
  2
AcAecLayerStandard
 70
     0
  0
APPID
  5
44A2
330
9
100
AcDbSymbolTableRecord
100
AcDbRegAppTableRecord
  2
ACAD_DSTYLE_DIMJOGGED_JOGANGLE_SYMBOL
 70
     0
  0
APPID
  5
44A3
330
9
100
AcDbSymbolTableRecord
100
AcDbRegAppTableRecord
  2
ACAD_DSTYLE_DIMJAG
 70
     0
  0
APPID
  5
44A4
330
9
100
AcDbSymbolTableRecord
100
AcDbRegAppTableRecord
  2
ACAD_DSTYLE_DIMTALN
 70
     0
  0
APPID
  5
488C
330
9
100
AcDbSymbolTableRecord
100
AcDbRegAppTableRecord
  2
ACAD_DSTYLE_DIMRADIAL_EXTENSION
 70
     0
  0
APPID
  5
ADD4
330
9
100
AcDbSymbolTableRecord
100
AcDbRegAppTableRecord
  2
ACAD_DSTYLE_DIMEXT_LENGTH
 70
     0
  0
ENDTAB
  0
TABLE
  2
DIMSTYLE
  5
A
330
0
100
AcDbSymbolTable
 70
    12
100
AcDbDimStyleTable
 71
     3
340
EF9
340
B80
340
EFA
  0
DIMSTYLE
105
1D
330
A
100
AcDbSymbolTableRecord
100
AcDbDimStyleTableRecord
  2
STANDARD
 70
     0
340
F
  0
DIMSTYLE
105
B80
102
{ACAD_REACTORS
330
4D13
330
4CEA
330
5088
330
4CC1
330
4D51
330
4D20
330
8D55
330
8D74
102
}
330
A
100
AcDbSymbolTableRecord
100
AcDbDimStyleTableRecord
  2
TYPENBLATT
 70
     0
 40
100.0
 41
0.25
 42
0.5
 43
0.5
 44
0.25
 73
     0
 74
     0
140
0.25
147
0.125
271
     0
340
428
  0
DIMSTYLE
105
EF9
330
A
100
AcDbSymbolTableRecord
100
AcDbDimStyleTableRecord
  2
TYPENBLATT_M10
 70
     0
 40
100.0
 41
0.25
 42
0.5
 43
0.5
 44
0.25
 73
     0
 74
     0
 77
     1
140
0.25
147
0.075
271
     0
340
428
  0
DIMSTYLE
105
EFA
102
{ACAD_REACTORS
330
4ECB
330
4EC7
330
4ECE
102
}
330
A
100
AcDbSymbolTableRecord
100
AcDbDimStyleTableRecord
  2
TYPENBLATT_M50
 70
     0
 40
500.0
 41
0.25
 42
0.1
 43
0.5
 44
0.25
 73
     0
 74
     0
 77
     1
140
0.25
147
0.075
271
     0
340
428
  0
DIMSTYLE
105
10C6
330
A
100
AcDbSymbolTableRecord
100
AcDbDimStyleTableRecord
  2
TYPENBLATT_BESCHR
 70
     0
 40
100.0
 41
0.25
 42
0.5
 43
0.25
 44
0.25
 73
     0
 74
     0
140
0.25
141
0.0
147
0.075
271
     0
340
428
  0
DIMSTYLE
105
1A64
330
A
100
AcDbSymbolTableRecord
100
AcDbDimStyleTableRecord
  2
STIL10
 70
     0
 41
25.0
 42
25.0
 43
100.0
 44
20.0
 73
     0
 74
     0
140
25.0
147
5.0
271
     0
340
428
  0
DIMSTYLE
105
1A65
330
A
100
AcDbSymbolTableRecord
100
AcDbDimStyleTableRecord
  2
STIL5
 70
     0
 40
0.35
 41
25.0
 42
25.0
 43
100.0
 44
20.0
 47
2.0
 48
2.0
 73
     0
 74
     0
140
25.0
147
5.0
271
     0
272
     0
340
428
  0
DIMSTYLE
105
1A66
330
A
100
AcDbSymbolTableRecord
100
AcDbDimStyleTableRecord
  2
STIL5Tol
 70
     0
 40
0.5
 41
25.0
 42
25.0
 43
100.0
 44
20.0
 47
2.0
 48
2.0
 71
     1
 73
     0
 74
     0
140
25.0
147
5.0
271
     0
272
     0
340
428
  0
DIMSTYLE
105
1A67
330
A
100
AcDbSymbolTableRecord
100
AcDbDimStyleTableRecord
  2
STIL2
 70
     0
 40
0.2
 41
35.0
 42
35.0
 43
75.0
 44
17.5
 47
2.0
 48
1.0
 73
     0
 74
     0
140
35.0
146
0.75
147
5.0
271
     0
272
     0
340
428
  0
DIMSTYLE
105
1CFD
330
A
100
AcDbSymbolTableRecord
100
AcDbDimStyleTableRecord
  2
STIL2.5
 70
     0
 40
2.5
 41
5.0
 42
1.0
 43
1.0
 44
1.0
 73
     0
 74
     0
140
3.5
147
1.0
271
     0
272
     0
340
428
341
1CEC
  0
DIMSTYLE
105
449F
330
A
100
AcDbSymbolTableRecord
100
AcDbDimStyleTableRecord
  2
ISO-25
 70
     0
 40
2.5
 41
2.5
 42
2.0
 43
3.75
 44
1.25
 73
     0
 74
     0
 77
     1
 78
     8
140
2.5
141
2.5
143
0.03937007874016
147
0.625
171
     3
172
     1
271
     0
272
     0
274
     3
278
    44
283
     0
284
     8
340
F
1001
ACAD_DSTYLE_DIMJAG
1070
   388
1040
1.5
1001
ACAD_DSTYLE_DIMTALN
1070
   392
1070
     0
  0
DIMSTYLE
105
44A0
330
A
100
AcDbSymbolTableRecord
100
AcDbDimStyleTableRecord
  2
VAKF
 70
     0
 40
0.7
 41
20.0
 42
20.0
 43
60.0
 44
10.0
 73
     0
 74
     0
140
25.0
147
2.0
271
     0
272
     0
340
428
1001
ACAD_DSTYLE_DIMEXT_LENGTH
1070
   378
1040
10.0
1001
ACAD_DSTYLE_DIMJOGGED_JOGANGLE_SYMBOL
1070
   384
1040
1.570796326794896
  0
ENDTAB
  0
TABLE
  2
BLOCK_RECORD
  5
1
330
0
100
AcDbSymbolTable
 70
   174
  0
BLOCK_RECORD
  5
18
102
{ACAD_XDICTIONARY
360
57FF
102
}
330
1
100
AcDbSymbolTableRecord
100
AcDbBlockTableRecord
  2
*MODEL_SPACE
340
16EE
  0
BLOCK_RECORD
  5
B3EA
330
1
100
AcDbSymbolTableRecord
100
AcDbBlockTableRecord
  2
*Paper_Space
340
B3EB
  0
BLOCK_RECORD
  5
1CEC
330
1
100
AcDbSymbolTableRecord
100
AcDbBlockTableRecord
  2
_DotSmall
340
0
  0
BLOCK_RECORD
  5
1CF0
330
1
100
AcDbSymbolTableRecord
100
AcDbBlockTableRecord
  2
VOESTALPINE LOGO
340
0
310
2800000020000000200000000100080000000000000400000000000000000000000000000000000000000000000080000080000000808000800000008000800080800000C0C0C000C0DCC000F0CAA6000020400000206000002080000020A0000020C0000020E00000400000004020000040400000406000004080000040A0
310
000040C0000040E00000600000006020000060400000606000006080000060A0000060C0000060E00000800000008020000080400000806000008080000080A0000080C0000080E00000A0000000A0200000A0400000A0600000A0800000A0A00000A0C00000A0E00000C0000000C0200000C0400000C0600000C0800000C0
310
A00000C0C00000C0E00000E0000000E0200000E0400000E0600000E0800000E0A00000E0C00000E0E00040000000400020004000400040006000400080004000A0004000C0004000E00040200000402020004020400040206000402080004020A0004020C0004020E000404000004040200040404000404060004040800040
310
40A0004040C0004040E00040600000406020004060400040606000406080004060A0004060C0004060E00040800000408020004080400040806000408080004080A0004080C0004080E00040A0000040A0200040A0400040A0600040A0800040A0A00040A0C00040A0E00040C0000040C0200040C0400040C0600040C08000
310
40C0A00040C0C00040C0E00040E0000040E0200040E0400040E0600040E0800040E0A00040E0C00040E0E00080000000800020008000400080006000800080008000A0008000C0008000E00080200000802020008020400080206000802080008020A0008020C0008020E00080400000804020008040400080406000804080
310
008040A0008040C0008040E00080600000806020008060400080606000806080008060A0008060C0008060E00080800000808020008080400080806000808080008080A0008080C0008080E00080A0000080A0200080A0400080A0600080A0800080A0A00080A0C00080A0E00080C0000080C0200080C0400080C0600080C0
310
800080C0A00080C0C00080C0E00080E0000080E0200080E0400080E0600080E0800080E0A00080E0C00080E0E000C0000000C0002000C0004000C0006000C0008000C000A000C000C000C000E000C0200000C0202000C0204000C0206000C0208000C020A000C020C000C020E000C0400000C0402000C0404000C0406000C0
310
408000C040A000C040C000C040E000C0600000C0602000C0604000C0606000C0608000C060A000C060C000C060E000C0800000C0802000C0804000C0806000C0808000C080A000C080C000C080E000C0A00000C0A02000C0A04000C0A06000C0A08000C0A0A000C0A0C000C0A0E000C0C00000C0C02000C0C04000C0C06000
310
C0C08000C0C0A000F0FBFF00A4A0A000808080000000FF0000FF000000FFFF00FF000000FF00FF00FFFF0000FFFFFF0000000000000000000000000000000000000000000000000000000000000000000000000000000000000000000000000000000000000000000000000000000000000000000000000000000000000000
310
00000000000000000000000000000000000000000000000000000000000000000000000000000000000000000000000000000000000000000000000000000000000000000000000000000000000000000000000000000000000000000000000000000000000000000000000000000000000000000000000000000000000000
310
00000000000000000000000000000000000000000000000000000000000000000000000000000000000000000000000000000000000000000000000000000000000000000000000000000000000000000000000000000000000000000000000000000000000000000000000000000000000000000000000000000000000000
310
000000000000000000000000000000000000000000000000000000000000000000000000000000000000000000000000000000000000000000000000000000000000000000000000000000000000000000000000000000000000000000000000000000000000000000000000000000000000000000FFFFFFFFFFFFFFFFFFFF
310
FFFFFFFFFFFFFFFFFFFFFFFFFF000000000000000000FFFF00FF00FF00FF00FFA2A2A2A2A2A2A2A2A200000000000000000000000000FFFFFFFFFFFFFFFFFFFFA2A2A2A2A2A2A2A2A2A20000000000000000000000FFFFFFFFFFFFFFFFFFFFFFA2A2A2A2A2A2A2A2A2A2000000000000000000000000000000000000000000
310
00000000000000000000000000000000000000000000000000000000000000000000000000000000000000000000000000000000000000000000000000000000000000000000000000000000000000000000000000000000000000000000000000000000000000000000000000000000000000000000000000000000000000
310
00000000000000000000000000000000000000000000000000000000000000000000000000000000000000000000000000000000000000000000000000000000000000000000000000000000000000000000000000000000000000000000000000000000000000000000000000000000000000000000000000000000000000
310
00000000000000000000000000000000000000000000000000000000000000000000000000000000000000000000000000000000000000000000000000000000000000000000000000000000000000000000000000000000000000000000000000000000000000000000000000000000000000000000000000000000000000
310
0000000000000000000000000000000000000000000000000000000000000000000000000000000000000000000000000000000000000000
102
{BLKREFS
331
1CF8
102
}
1001
ACAD
1000
DesignCenter Data
1002
{
1070
     1
1070
     4
1002
}
  0
BLOCK_RECORD
  5
1CF6
330
1
100
AcDbSymbolTableRecord
100
AcDbBlockTableRecord
  2
LOGO ACAD
340
0
1001
ACAD
1000
DesignCenter Data
1002
{
1070
     1
1070
     4
1002
}
  0
BLOCK_RECORD
  5
1FA6
330
1
100
AcDbSymbolTableRecord
100
AcDbBlockTableRecord
  2
A$C29A12482
340
0
  0
BLOCK_RECORD
  5
22AE
330
1
100
AcDbSymbolTableRecord
100
AcDbBlockTableRecord
  2
A$C382A6B8C
340
0
  0
BLOCK_RECORD
  5
508B
330
1
100
AcDbSymbolTableRecord
100
AcDbBlockTableRecord
  2
*D96
340
0
  0
BLOCK_RECORD
  5
50EF
330
1
100
AcDbSymbolTableRecord
100
AcDbBlockTableRecord
  2
*D105
340
0
  0
BLOCK_RECORD
  5
5112
330
1
100
AcDbSymbolTableRecord
100
AcDbBlockTableRecord
  2
*D107
340
0
  0
BLOCK_RECORD
  5
5143
330
1
100
AcDbSymbolTableRecord
100
AcDbBlockTableRecord
  2
*D111
340
0
  0
BLOCK_RECORD
  5
5155
330
1
100
AcDbSymbolTableRecord
100
AcDbBlockTableRecord
  2
*D112
340
0
  0
BLOCK_RECORD
  5
5381
330
1
100
AcDbSymbolTableRecord
100
AcDbBlockTableRecord
  2
*D153
340
0
  0
BLOCK_RECORD
  5
538D
330
1
100
AcDbSymbolTableRecord
100
AcDbBlockTableRecord
  2
*D154
340
0
  0
BLOCK_RECORD
  5
5399
330
1
100
AcDbSymbolTableRecord
100
AcDbBlockTableRecord
  2
*D155
340
0
  0
BLOCK_RECORD
  5
5429
330
1
100
AcDbSymbolTableRecord
100
AcDbBlockTableRecord
  2
*D167
340
0
  0
BLOCK_RECORD
  5
6992
102
{ACAD_XDICTIONARY
360
6995
102
}
330
1
100
AcDbSymbolTableRecord
100
AcDbBlockTableRecord
  2
A$C76FC1872
340
0
1001
ACAD
1000
DesignCenter Data
1002
{
1070
     1
1070
     4
1002
}
  0
BLOCK_RECORD
  5
8D56
330
1
100
AcDbSymbolTableRecord
100
AcDbBlockTableRecord
  2
*D171
340
0
  0
BLOCK_RECORD
  5
8D75
330
1
100
AcDbSymbolTableRecord
100
AcDbBlockTableRecord
  2
*D172
340
0
  0
ENDTAB
  0
ENDSEC
  0
SECTION
  2
BLOCKS
  0
BLOCK
  5
19
330
18
100
AcDbEntity
  8
0
100
AcDbBlockBegin
  2
*MODEL_SPACE
 70
     0
 10
0.0
 20
0.0
 30
0.0
  3
*MODEL_SPACE
  1

  0
ENDBLK
  5
1A
330
18
100
AcDbEntity
  8
0
100
AcDbBlockEnd
  0
BLOCK
  5
B3EC
330
B3EA
100
AcDbEntity
 67
     1
  8
0
100
AcDbBlockBegin
  2
*Paper_Space
 70
     0
 10
0.0
 20
0.0
 30
0.0
  3
*Paper_Space
  1

  0
ENDBLK
  5
B3ED
330
B3EA
100
AcDbEntity
 67
     1
  8
0
100
AcDbBlockEnd
  0
BLOCK
  5
1CED
330
1CEC
100
AcDbEntity
  8
0
100
AcDbBlockBegin
  2
_DotSmall
 70
     0
 10
0.0
 20
0.0
 30
0.0
  3
_DotSmall
  1

  0
LWPOLYLINE
  5
1CEE
330
1CEC
100
AcDbEntity
  8
0
 62
     0
100
AcDbPolyline
 90
        2
 70
     1
 43
0.5
 10
-0.0625
 20
0.0
 42
1.0
 10
0.0625
 20
0.0
 42
1.0
  0
ENDBLK
  5
1CEF
330
1CEC
100
AcDbEntity
  8
0
100
AcDbBlockEnd
  0
BLOCK
  5
1CF1
330
1CF0
100
AcDbEntity
  8
0
100
AcDbBlockBegin
  2
VOESTALPINE LOGO
 70
     0
 10
0.0
 20
0.0
 30
0.0
  3
VOESTALPINE LOGO
  1

  0
TEXT
  5
1CF2
330
1CF0
100
AcDbEntity
  8
0
 62
   155
100
AcDbText
 10
-2.022376810040597
 20
1.345163130846486
 30
0.0
 40
4.761899999999999
  1
alpine
 41
1.29
  7
LOGO2
100
AcDbText
  0
TEXT
  5
1CF3
330
1CF0
100
AcDbEntity
  8
0
 62
     7
100
AcDbText
 10
-24.96332103124969
 20
-3.319987708589252
 30
0.0
 40
2.050802049214244
  1
KREMS FINALTECHNIK GMBH
 41
1.219999999999999
  7
LOGO3
100
AcDbText
  0
TEXT
  5
1CF4
330
1CF0
100
AcDbEntity
  8
0
 62
     7
100
AcDbText
 10
-25.59751279130563
 20
1.29203428188444
 30
0.0
 40
4.761899999999999
  1
voest
 41
1.379999999999999
  7
LOGO1
100
AcDbText
  0
ENDBLK
  5
1CF5
330
1CF0
100
AcDbEntity
  8
0
100
AcDbBlockEnd
  0
BLOCK
  5
1CF7
330
1CF6
100
AcDbEntity
  8
0
100
AcDbBlockBegin
  2
LOGO ACAD
 70
     0
 10
0.0
 20
0.0
 30
0.0
  3
LOGO ACAD
  1

  0
INSERT
  5
1CF8
330
1CF6
100
AcDbEntity
  8
0
100
AcDbBlockReference
  2
VOESTALPINE LOGO
 10
25.66052293085149
 20
-5.598002378525222
 30
0.0
  0
ENDBLK
  5
1CF9
330
1CF6
100
AcDbEntity
  8
0
100
AcDbBlockEnd
  0
BLOCK
  5
1FA9
330
1FA6
100
AcDbEntity
  8
0
100
AcDbBlockBegin
  2
A$C29A12482
 70
     0
 10
0.0
 20
0.0
 30
0.0
  3
A$C29A12482
  1

  0
TEXT
  5
1FA7
330
1FA6
100
AcDbEntity
  8
BLATTTEXT
 62
    33
100
AcDbText
 10
1.776097859234255
 20
2.20471831757905
 30
0.0
 40
3.0
  1
proti prejazdu pre pôdy s vhodné k zatlkaniu stlpikov 
  7
VOESTB
100
AcDbText
  0
TEXT
  5
1FA8
330
1FA6
100
AcDbEntity
  8
BLATTTEXT
 62
    33
100
AcDbText
 10
1.776097859234257
 20
6.771180166576556
 30
0.0
 40
3.0
  1
Záchytný bezpecnostný systém so spodnou ochranou
  7
VOESTB
100
AcDbText
  0
ENDBLK
  5
1FAA
330
1FA6
100
AcDbEntity
  8
0
100
AcDbBlockEnd
  0
BLOCK
  5
22BF
330
22AE
100
AcDbEntity
  8
0
100
AcDbBlockBegin
  2
A$C382A6B8C
 70
     0
 10
0.0
 20
0.0
 30
0.0
  3
A$C382A6B8C
  1

  0
LINE
  5
22AF
330
22AE
100
AcDbEntity
  8
BLATTHILFSLINIEN
100
AcDbLine
 10
24.78164298377504
 20
250.8497745145072
 30
0.0
 11
24.78164298377499
 21
218.7968947106896
 31
0.0
  0
LINE
  5
22B0
330
22AE
100
AcDbEntity
  8
BLATTHILFSLINIEN
100
AcDbLine
 10
28.83452278759256
 20
228.7968947106896
 30
0.0
 11
20.72876317995753
 21
228.7968947106897
 31
0.0
  0
LINE
  5
22B1
330
22AE
100
AcDbEntity
  8
BLATTHILFSLINIEN
100
AcDbLine
 10
28.83452278759256
 20
233.7968947106896
 30
0.0
 11
20.72876317995753
 21
233.7968947106897
 31
0.0
  0
LINE
  5
22B2
330
22AE
100
AcDbEntity
  8
BLATTHILFSLINIEN
100
AcDbLine
 10
28.83452278759256
 20
246.7968947106897
 30
0.0
 11
20.72876317995753
 21
246.7968947106897
 31
0.0
  0
LINE
  5
22B3
330
22AE
100
AcDbEntity
  8
BLATTHILFSLINIEN
100
AcDbLine
 10
28.83452278759256
 20
218.7968947106896
 30
0.0
 11
20.72876317995747
 21
218.7968947106896
 31
0.0
  0
LINE
  5
22B4
330
22AE
100
AcDbEntity
  8
BLATTHILFSLINIEN
100
AcDbLine
 10
28.77884183521786
 20
233.8747316603885
 30
0.0
 11
20.67308222758283
 21
233.8747316603885
 31
0.0
  0
LINE
  5
22B5
330
22AE
100
AcDbEntity
  8
BLATTHILFSLINIEN
100
AcDbLine
 10
202.0000000049155
 20
40.49368048744258
 30
0.0
 11
202.0000000049155
 21
32.38792087980755
 31
0.0
  0
LINE
  5
22B6
330
22AE
100
AcDbEntity
  8
BLATTHILFSLINIEN
100
AcDbLine
 10
210.0000000049155
 20
292.743790365351
 30
0.0
 11
0.0000000049155346
 21
292.743790365351
 31
0.0
  0
LINE
  5
22B7
330
22AE
100
AcDbEntity
  8
BLATTHILFSLINIEN
100
AcDbLine
 10
0.0000000049154778
 20
35.67358505775906
 30
0.0
 11
210.0000000049155
 21
35.67358505775906
 31
0.0
  0
LINE
  5
22B8
330
22AE
100
AcDbEntity
  8
BLATTHILFSLINIEN
100
AcDbLine
 10
29.64609882196834
 20
36.4981165850744
 30
0.0
 11
37.75185842960337
 21
36.4981165850744
 31
0.0
  0
LINE
  5
22B9
330
22AE
100
AcDbEntity
  8
BLATTHILFSLINIEN
100
AcDbLine
 10
33.69897862578586
 20
40.55099638889191
 30
0.0
 11
33.69897862578586
 21
32.44523678125688
 31
0.0
  0
LINE
  5
22BA
330
22AE
100
AcDbEntity
  8
BLATTHILFSLINIEN
100
AcDbLine
 10
197.947120201098
 20
36.44080068362507
 30
0.0
 11
202.0000000049155
 21
36.44080068362507
 31
0.0
  0
VIEWPORT
  5
22BB
330
22AE
100
AcDbEntity
  8
KOTIERUNG
100
AcDbViewport
 10
105.0000000049155
 20
148.5000002268126
 30
0.0
 40
210.0
 41
297.0
 69
     0
 12
1534.592937160783
 22
3026.424201522545
 13
0.0
 23
0.0
 14
0.5
 24
0.5
 15
0.5
 25
0.5
 16
0.0
 26
0.0
 36
1.0
 17
0.0
 27
0.0
 37
0.0
 42
50.0
 43
0.0
 44
0.0
 45
297.000118311988
 50
0.0
 51
0.0
 72
   100
 90
   163872
  1

281
     0
 71
     1
 74
     0
110
0.0
120
0.0
130
0.0
111
1.0
121
0.0
131
0.0
112
0.0
122
1.0
132
0.0
 79
     0
146
0.0
170
     0
  0
LINE
  5
22BC
330
22AE
100
AcDbEntity
  8
BLATTHILFSLINIEN
100
AcDbLine
 10
0.0000000049155346
 20
292.743790365351
 30
0.0
 11
210.0000000049155
 21
292.743790365351
 31
0.0
  0
LINE
  5
22BD
330
22AE
100
AcDbEntity
  8
BLATTHILFSLINIEN
100
AcDbLine
 10
210.0000000049155
 20
262.5280518627613
 30
0.0
 11
0.0000000049155346
 21
262.5280518627613
 31
0.0
  0
LINE
  5
22BE
330
22AE
100
AcDbEntity
  8
BLATTHILFSLINIEN
100
AcDbLine
 10
0.0000000049155346
 20
262.5280518627613
 30
0.0
 11
210.0000000049155
 21
262.5280518627614
 31
0.0
  0
ENDBLK
  5
22C0
330
22AE
100
AcDbEntity
  8
0
100
AcDbBlockEnd
  0
BLOCK
  5
508C
330
508B
100
AcDbEntity
  8
0
100
AcDbBlockBegin
  2
*D96
 70
     1
 10
0.0
 20
0.0
 30
0.0
  3
*D96
  1

  0
LINE
  5
B1B1
330
508B
100
AcDbEntity
  8
KOTIERUNG
 62
     0
370
    -2
100
AcDbLine
 10
10388.22739313476
 20
-319.8122763450419
 30
0.0
 11
10286.82767164663
 21
-319.8122763450419
 31
0.0
  0
LINE
  5
B1B2
330
508B
100
AcDbEntity
  8
KOTIERUNG
 62
     0
370
    -2
100
AcDbLine
 10
10362.95522988683
 20
-609.8122763450428
 30
0.0
 11
10286.82767164663
 21
-609.8122763450428
 31
0.0
  0
LINE
  5
B1B3
330
508B
100
AcDbEntity
  8
KOTIERUNG
 62
     0
370
    -2
100
AcDbLine
 10
10319.32767164662
 20
-352.3122763450419
 30
0.0
 11
10319.32767164662
 21
-577.3122763450428
 31
0.0
  0
SOLID
  5
B1B4
330
508B
100
AcDbEntity
  8
KOTIERUNG
 62
     0
100
AcDbTrace
 10
10313.91100497996
 20
-352.3122763450419
 30
0.0
 11
10324.74433831329
 21
-352.3122763450419
 31
0.0
 12
10319.32767164662
 22
-319.8122763450419
 32
0.0
 13
10319.32767164662
 23
-319.8122763450419
 33
0.0
  0
SOLID
  5
B1B5
330
508B
100
AcDbEntity
  8
KOTIERUNG
 62
     0
100
AcDbTrace
 10
10313.91100497996
 20
-577.3122763450428
 30
0.0
 11
10324.74433831329
 21
-577.3122763450428
 31
0.0
 12
10319.32767164662
 22
-609.8122763450428
 32
0.0
 13
10319.32767164662
 23
-609.8122763450428
 33
0.0
  0
MTEXT
  5
B1B6
102
{ACAD_XDICTIONARY
360
B556
102
}
330
508B
100
AcDbEntity
  8
KOTIERUNG
 62
     0
100
AcDbMText
 10
10292.98404954567
 20
-464.8122763450419
 30
0.0
 40
32.5
 41
0.0
 71
     5
 72
     1
  1
\A1;290\U+00B140
  7
VOEST
 11
0.0000000000000001
 21
1.0
 31
0.0
 73
     1
 44
1.0
  0
POINT
  5
B1B7
330
508B
100
AcDbEntity
  8
DEFPOINTS
 62
     0
100
AcDbPoint
 10
10453.22739313476
 20
-319.8122763450419
 30
0.0
  0
POINT
  5
B1B8
330
508B
100
AcDbEntity
  8
DEFPOINTS
 62
     0
100
AcDbPoint
 10
10427.95522988683
 20
-609.8122763450428
 30
0.0
  0
POINT
  5
B1B9
330
508B
100
AcDbEntity
  8
DEFPOINTS
 62
     0
100
AcDbPoint
 10
10319.32767164662
 20
-609.8122763450428
 30
0.0
  0
ENDBLK
  5
508D
330
508B
100
AcDbEntity
  8
0
100
AcDbBlockEnd
  0
BLOCK
  5
50F0
330
50EF
100
AcDbEntity
  8
0
100
AcDbBlockBegin
  2
*D105
 70
     1
 10
0.0
 20
0.0
 30
0.0
  3
*D105
  1

  0
LINE
  5
B1A8
330
50EF
100
AcDbEntity
  8
KOTIERUNG
 62
     0
370
    -2
100
AcDbLine
 10
10658.4552298868
 20
193.1877236549571
 30
0.0
 11
10776.40692489909
 21
193.1877236549571
 31
0.0
  0
LINE
  5
B1A9
330
50EF
100
AcDbEntity
  8
KOTIERUNG
 62
     0
370
    -2
100
AcDbLine
 10
10652.45522988683
 20
-609.8122763450428
 30
0.0
 11
10776.40692489909
 21
-609.8122763450428
 31
0.0
  0
LINE
  5
B1AA
330
50EF
100
AcDbEntity
  8
KOTIERUNG
 62
     0
370
    -2
100
AcDbLine
 10
10743.90692489909
 20
160.6877236549571
 30
0.0
 11
10743.90692489909
 21
-577.3122763450428
 31
0.0
  0
SOLID
  5
B1AB
330
50EF
100
AcDbEntity
  8
KOTIERUNG
 62
     0
100
AcDbTrace
 10
10738.49025823242
 20
160.6877236549571
 30
0.0
 11
10749.32359156576
 21
160.6877236549571
 31
0.0
 12
10743.90692489909
 22
193.1877236549571
 32
0.0
 13
10743.90692489909
 23
193.1877236549571
 33
0.0
  0
SOLID
  5
B1AC
330
50EF
100
AcDbEntity
  8
KOTIERUNG
 62
     0
100
AcDbTrace
 10
10738.49025823242
 20
-577.3122763450428
 30
0.0
 11
10749.32359156576
 21
-577.3122763450428
 31
0.0
 12
10743.90692489909
 22
-609.8122763450428
 32
0.0
 13
10743.90692489909
 23
-609.8122763450428
 33
0.0
  0
MTEXT
  5
B1AD
102
{ACAD_XDICTIONARY
360
B554
102
}
330
50EF
100
AcDbEntity
  8
KOTIERUNG
 62
     0
100
AcDbMText
 10
10717.56330279814
 20
-208.3122763450411
 30
0.0
 40
32.5
 41
0.0
 71
     5
 72
     1
  1
\A1;803\U+00B140
  7
VOEST
 11
0.0000000000000001
 21
1.0
 31
0.0
 73
     1
 44
1.0
  0
POINT
  5
B1AE
330
50EF
100
AcDbEntity
  8
DEFPOINTS
 62
     0
100
AcDbPoint
 10
10593.4552298868
 20
193.1877236549571
 30
0.0
  0
POINT
  5
B1AF
330
50EF
100
AcDbEntity
  8
DEFPOINTS
 62
     0
100
AcDbPoint
 10
10587.45522988683
 20
-609.8122763450428
 30
0.0
  0
POINT
  5
B1B0
330
50EF
100
AcDbEntity
  8
DEFPOINTS
 62
     0
100
AcDbPoint
 10
10743.90692489909
 20
-609.8122763450428
 30
0.0
  0
ENDBLK
  5
50F1
330
50EF
100
AcDbEntity
  8
0
100
AcDbBlockEnd
  0
BLOCK
  5
5113
330
5112
100
AcDbEntity
  8
0
100
AcDbBlockBegin
  2
*D107
 70
     1
 10
0.0
 20
0.0
 30
0.0
  3
*D107
  1

  0
LINE
  5
B2C6
330
5112
100
AcDbEntity
  8
KOTIERUNG
 62
     0
370
    -2
100
AcDbLine
 10
10157.39179386231
 20
260.1877236549571
 30
0.0
 11
10054.7110699355
 21
260.1877236549572
 31
0.0
  0
LINE
  5
B2C7
330
5112
100
AcDbEntity
  8
KOTIERUNG
 62
     0
370
    -2
100
AcDbLine
 10
10212.63000104514
 20
-609.8122763450428
 30
0.0
 11
10054.7110699355
 21
-609.8122763450428
 31
0.0
  0
LINE
  5
B2C8
330
5112
100
AcDbEntity
  8
KOTIERUNG
 62
     0
370
    -2
100
AcDbLine
 10
10087.2110699355
 20
227.6877236549572
 30
0.0
 11
10087.2110699355
 21
-577.3122763450428
 31
0.0
  0
SOLID
  5
B2C9
330
5112
100
AcDbEntity
  8
KOTIERUNG
 62
     0
100
AcDbTrace
 10
10081.79440326884
 20
227.6877236549572
 30
0.0
 11
10092.62773660217
 21
227.6877236549572
 31
0.0
 12
10087.2110699355
 22
260.1877236549572
 32
0.0
 13
10087.2110699355
 23
260.1877236549572
 33
0.0
  0
SOLID
  5
B2CA
330
5112
100
AcDbEntity
  8
KOTIERUNG
 62
     0
100
AcDbTrace
 10
10081.79440326884
 20
-577.3122763450428
 30
0.0
 11
10092.62773660217
 21
-577.3122763450428
 31
0.0
 12
10087.2110699355
 22
-609.8122763450428
 32
0.0
 13
10087.2110699355
 23
-609.8122763450428
 33
0.0
  0
MTEXT
  5
B2CB
102
{ACAD_XDICTIONARY
360
B560
102
}
330
5112
100
AcDbEntity
  8
KOTIERUNG
 62
     0
100
AcDbMText
 10
10060.86744783455
 20
-224.9364236847423
 30
0.0
 40
32.5
 41
0.0
 71
     5
 72
     1
  1
\A1;870\U+00B140
  7
VOEST
 11
0.0000000000000001
 21
1.0
 31
0.0
 73
     1
 44
1.0
  0
POINT
  5
B2CC
330
5112
100
AcDbEntity
  8
DEFPOINTS
 62
     0
100
AcDbPoint
 10
10222.39179386231
 20
260.1877236549571
 30
0.0
  0
POINT
  5
B2CD
330
5112
100
AcDbEntity
  8
DEFPOINTS
 62
     0
100
AcDbPoint
 10
10277.63000104514
 20
-609.8122763450428
 30
0.0
  0
POINT
  5
B2CE
330
5112
100
AcDbEntity
  8
DEFPOINTS
 62
     0
100
AcDbPoint
 10
10087.2110699355
 20
-609.8122763450428
 30
0.0
  0
ENDBLK
  5
5114
330
5112
100
AcDbEntity
  8
0
100
AcDbBlockEnd
  0
BLOCK
  5
5144
330
5143
100
AcDbEntity
  8
0
100
AcDbBlockBegin
  2
*D111
 70
     1
 10
0.0
 20
0.0
 30
0.0
  3
*D111
  1

  0
LINE
  5
B2FF
330
5143
100
AcDbEntity
  8
KOTIERUNG
 62
     0
370
    -2
100
AcDbLine
 10
10147.39179386231
 20
273.5368991226118
 30
0.0
 11
10147.39179386231
 21
347.4647931177315
 31
0.0
  0
LINE
  5
B300
330
5143
100
AcDbEntity
  8
KOTIERUNG
 62
     0
370
    -2
100
AcDbLine
 10
10912.51866591132
 20
273.5368991226145
 30
0.0
 11
10912.51866591132
 21
347.4647931177315
 31
0.0
  0
LINE
  5
B301
330
5143
100
AcDbEntity
  8
KOTIERUNG
 62
     0
370
    -2
100
AcDbLine
 10
10179.89179386231
 20
314.9647931177315
 30
0.0
 11
10880.01866591132
 21
314.9647931177315
 31
0.0
  0
SOLID
  5
B302
330
5143
100
AcDbEntity
  8
KOTIERUNG
 62
     0
100
AcDbTrace
 10
10179.89179386231
 20
320.3814597843981
 30
0.0
 11
10179.89179386231
 21
309.5481264510648
 31
0.0
 12
10147.39179386231
 22
314.9647931177315
 32
0.0
 13
10147.39179386231
 23
314.9647931177315
 33
0.0
  0
SOLID
  5
B303
330
5143
100
AcDbEntity
  8
KOTIERUNG
 62
     0
100
AcDbTrace
 10
10880.01866591132
 20
320.3814597843981
 30
0.0
 11
10880.01866591132
 21
309.5481264510648
 31
0.0
 12
10912.51866591132
 22
314.9647931177315
 32
0.0
 13
10912.51866591132
 23
314.9647931177315
 33
0.0
  0
MTEXT
  5
B304
102
{ACAD_XDICTIONARY
360
B562
102
}
330
5143
100
AcDbEntity
  8
KOTIERUNG
 62
     0
100
AcDbMText
 10
10529.95522988682
 20
341.3084152186864
 30
0.0
 40
32.5
 41
0.0
 71
     5
 72
     1
  1
\A1;765\U+00B120
  7
VOEST
 73
     1
 44
1.0
  0
POINT
  5
B305
330
5143
100
AcDbEntity
  8
DEFPOINTS
 62
     0
100
AcDbPoint
 10
10147.39179386231
 20
208.5368991226118
 30
0.0
  0
POINT
  5
B306
330
5143
100
AcDbEntity
  8
DEFPOINTS
 62
     0
100
AcDbPoint
 10
10912.51866591132
 20
208.5368991226145
 30
0.0
  0
POINT
  5
B307
330
5143
100
AcDbEntity
  8
DEFPOINTS
 62
     0
100
AcDbPoint
 10
10912.51866591132
 20
314.9647931177315
 30
0.0
  0
ENDBLK
  5
5145
330
5143
100
AcDbEntity
  8
0
100
AcDbBlockEnd
  0
BLOCK
  5
5156
330
5155
100
AcDbEntity
  8
0
100
AcDbBlockBegin
  2
*D112
 70
     1
 10
0.0
 20
0.0
 30
0.0
  3
*D112
  1

  0
LINE
  5
B308
330
5155
100
AcDbEntity
  8
KOTIERUNG
 62
     0
370
    -2
100
AcDbLine
 10
10658.4552298868
 20
193.1877236549571
 30
0.0
 11
10776.48012309729
 21
193.1877236549571
 31
0.0
  0
LINE
  5
B309
330
5155
100
AcDbEntity
  8
KOTIERUNG
 62
     0
370
    -2
100
AcDbLine
 10
10772.51866591132
 20
260.1877236549571
 30
0.0
 11
10711.48012309729
 21
260.1877236549571
 31
0.0
  0
LINE
  5
B30A
330
5155
100
AcDbEntity
  8
KOTIERUNG
 62
     0
370
    -2
100
AcDbLine
 10
10743.98012309729
 20
160.6877236549571
 30
0.0
 11
10743.98012309729
 21
128.1877236549571
 31
0.0
  0
LINE
  5
B30B
330
5155
100
AcDbEntity
  8
KOTIERUNG
 62
     0
370
    -2
100
AcDbLine
 10
10743.98012309729
 20
292.6877236549572
 30
0.0
 11
10743.98012309729
 21
428.8418846372218
 31
0.0
  0
SOLID
  5
B30C
330
5155
100
AcDbEntity
  8
KOTIERUNG
 62
     0
100
AcDbTrace
 10
10738.56345643062
 20
160.6877236549571
 30
0.0
 11
10749.39678976396
 21
160.6877236549571
 31
0.0
 12
10743.98012309729
 22
193.1877236549571
 32
0.0
 13
10743.98012309729
 23
193.1877236549571
 33
0.0
  0
SOLID
  5
B30D
330
5155
100
AcDbEntity
  8
KOTIERUNG
 62
     0
100
AcDbTrace
 10
10738.56345643062
 20
292.6877236549572
 30
0.0
 11
10749.39678976396
 21
292.6877236549572
 31
0.0
 12
10743.98012309729
 22
260.1877236549571
 32
0.0
 13
10743.98012309729
 23
260.1877236549571
 33
0.0
  0
MTEXT
  5
B30E
102
{ACAD_XDICTIONARY
360
B564
102
}
330
5155
100
AcDbEntity
  8
KOTIERUNG
 62
     0
100
AcDbMText
 10
10717.63650099633
 20
377.0148041460912
 30
0.0
 40
32.5
 41
0.0
 71
     5
 72
     1
  1
\A1;67\U+00B15
  7
VOEST
 11
0.0000000000000001
 21
1.0
 31
0.0
 73
     1
 44
1.0
  0
POINT
  5
B30F
330
5155
100
AcDbEntity
  8
DEFPOINTS
 62
     0
100
AcDbPoint
 10
10593.4552298868
 20
193.1877236549571
 30
0.0
  0
POINT
  5
B310
330
5155
100
AcDbEntity
  8
DEFPOINTS
 62
     0
100
AcDbPoint
 10
10837.51866591132
 20
260.1877236549571
 30
0.0
  0
POINT
  5
B311
330
5155
100
AcDbEntity
  8
DEFPOINTS
 62
     0
100
AcDbPoint
 10
10743.98012309729
 20
260.1877236549571
 30
0.0
  0
ENDBLK
  5
5157
330
5155
100
AcDbEntity
  8
0
100
AcDbBlockEnd
  0
BLOCK
  5
5382
330
5381
100
AcDbEntity
  8
0
100
AcDbBlockBegin
  2
*D153
 70
     1
 10
0.0
 20
0.0
 30
0.0
  3
*D153
  1

  0
LINE
  5
B1D6
330
5381
100
AcDbEntity
  8
KOTIERUNG
 62
     0
370
    -2
100
AcDbLine
 10
9848.67674117498
 20
-2350.48065352362
 30
0.0
 11
9848.67674117498
 21
-1813.465984730531
 31
0.0
  0
LINE
  5
B1D7
330
5381
100
AcDbEntity
  8
KOTIERUNG
 62
     0
370
    -2
100
AcDbLine
 10
13648.67674117496
 20
-2350.48065352362
 30
0.0
 11
13648.67674117496
 21
-1813.465984730531
 31
0.0
  0
LINE
  5
B1D8
330
5381
100
AcDbEntity
  8
KOTIERUNG
 62
     0
370
    -2
100
AcDbLine
 10
9973.67674117498
 20
-1938.465984730531
 30
0.0
 11
13523.67674117496
 21
-1938.465984730531
 31
0.0
  0
SOLID
  5
B1D9
330
5381
100
AcDbEntity
  8
KOTIERUNG
 62
     0
100
AcDbTrace
 10
9973.67674117498
 20
-1917.632651397198
 30
0.0
 11
9973.67674117498
 21
-1959.299318063864
 31
0.0
 12
9848.67674117498
 22
-1938.465984730531
 32
0.0
 13
9848.67674117498
 23
-1938.465984730531
 33
0.0
  0
SOLID
  5
B1DA
330
5381
100
AcDbEntity
  8
KOTIERUNG
 62
     0
100
AcDbTrace
 10
13523.67674117496
 20
-1917.632651397198
 30
0.0
 11
13523.67674117496
 21
-1959.299318063864
 31
0.0
 12
13648.67674117496
 22
-1938.465984730531
 32
0.0
 13
13648.67674117496
 23
-1938.465984730531
 33
0.0
  0
MTEXT
  5
B1DB
102
{ACAD_XDICTIONARY
360
B558
102
}
330
5381
100
AcDbEntity
  8
KOTIERUNG
 62
     0
100
AcDbMText
 10
11748.67674117497
 20
-1837.14436126532
 30
0.0
 40
125.0
 41
0.0
 71
     5
 72
     1
  1
\A1;3800\U+00B19
  7
VOEST
 73
     1
 44
1.0
  0
POINT
  5
B1DC
330
5381
100
AcDbEntity
  8
DEFPOINTS
 62
     0
100
AcDbPoint
 10
9848.67674117498
 20
-2400.48065352362
 30
0.0
  0
POINT
  5
B1DD
330
5381
100
AcDbEntity
  8
DEFPOINTS
 62
     0
100
AcDbPoint
 10
13648.67674117496
 20
-2400.48065352362
 30
0.0
  0
POINT
  5
B1DE
330
5381
100
AcDbEntity
  8
DEFPOINTS
 62
     0
100
AcDbPoint
 10
13648.67674117496
 20
-1938.465984730531
 30
0.0
  0
ENDBLK
  5
5383
330
5381
100
AcDbEntity
  8
0
100
AcDbBlockEnd
  0
BLOCK
  5
538E
330
538D
100
AcDbEntity
  8
0
100
AcDbBlockBegin
  2
*D154
 70
     1
 10
0.0
 20
0.0
 30
0.0
  3
*D154
  1

  0
LINE
  5
B1DF
330
538D
100
AcDbEntity
  8
KOTIERUNG
 62
     0
370
    -2
100
AcDbLine
 10
9848.676741174962
 20
-2350.48065352362
 30
0.0
 11
9848.676741174962
 21
-2080.911690419518
 31
0.0
  0
LINE
  5
B1E0
330
538D
100
AcDbEntity
  8
KOTIERUNG
 62
     0
370
    -2
100
AcDbLine
 10
11748.67674117498
 20
-2350.48065352362
 30
0.0
 11
11748.67674117498
 21
-2080.911690419518
 31
0.0
  0
LINE
  5
B1E1
330
538D
100
AcDbEntity
  8
KOTIERUNG
 62
     0
370
    -2
100
AcDbLine
 10
9973.676741174962
 20
-2205.911690419518
 30
0.0
 11
11623.67674117498
 21
-2205.911690419518
 31
0.0
  0
SOLID
  5
B1E2
330
538D
100
AcDbEntity
  8
KOTIERUNG
 62
     0
100
AcDbTrace
 10
9973.676741174962
 20
-2185.078357086185
 30
0.0
 11
9973.676741174962
 21
-2226.745023752851
 31
0.0
 12
9848.676741174962
 22
-2205.911690419518
 32
0.0
 13
9848.676741174962
 23
-2205.911690419518
 33
0.0
  0
SOLID
  5
B1E3
330
538D
100
AcDbEntity
  8
KOTIERUNG
 62
     0
100
AcDbTrace
 10
11623.67674117498
 20
-2185.078357086185
 30
0.0
 11
11623.67674117498
 21
-2226.745023752851
 31
0.0
 12
11748.67674117498
 22
-2205.911690419518
 32
0.0
 13
11748.67674117498
 23
-2205.911690419518
 33
0.0
  0
MTEXT
  5
B1E4
102
{ACAD_XDICTIONARY
360
B55A
102
}
330
538D
100
AcDbEntity
  8
KOTIERUNG
 62
     0
100
AcDbMText
 10
10798.67674117497
 20
-2104.590066954306
 30
0.0
 40
125.0
 41
0.0
 71
     5
 72
     1
  1
\A1;1900\U+00B120
  7
VOEST
 73
     1
 44
1.0
  0
POINT
  5
B1E5
330
538D
100
AcDbEntity
  8
DEFPOINTS
 62
     0
100
AcDbPoint
 10
9848.676741174962
 20
-2400.48065352362
 30
0.0
  0
POINT
  5
B1E6
330
538D
100
AcDbEntity
  8
DEFPOINTS
 62
     0
100
AcDbPoint
 10
11748.67674117498
 20
-2400.48065352362
 30
0.0
  0
POINT
  5
B1E7
330
538D
100
AcDbEntity
  8
DEFPOINTS
 62
     0
100
AcDbPoint
 10
11748.67674117498
 20
-2205.911690419518
 30
0.0
  0
ENDBLK
  5
538F
330
538D
100
AcDbEntity
  8
0
100
AcDbBlockEnd
  0
BLOCK
  5
539A
330
5399
100
AcDbEntity
  8
0
100
AcDbBlockBegin
  2
*D155
 70
     1
 10
0.0
 20
0.0
 30
0.0
  3
*D155
  1

  0
LINE
  5
B1E8
330
5399
100
AcDbEntity
  8
KOTIERUNG
 62
     0
370
    -2
100
AcDbLine
 10
11748.67674117496
 20
-2327.353979893574
 30
0.0
 11
11748.67674117496
 21
-2080.911690419518
 31
0.0
  0
LINE
  5
B1E9
330
5399
100
AcDbEntity
  8
KOTIERUNG
 62
     0
370
    -2
100
AcDbLine
 10
13648.67674117496
 20
-2327.353979893574
 30
0.0
 11
13648.67674117496
 21
-2080.911690419518
 31
0.0
  0
LINE
  5
B1EA
330
5399
100
AcDbEntity
  8
KOTIERUNG
 62
     0
370
    -2
100
AcDbLine
 10
11873.67674117496
 20
-2205.911690419518
 30
0.0
 11
13523.67674117496
 21
-2205.911690419518
 31
0.0
  0
SOLID
  5
B1EB
330
5399
100
AcDbEntity
  8
KOTIERUNG
 62
     0
100
AcDbTrace
 10
11873.67674117496
 20
-2185.078357086185
 30
0.0
 11
11873.67674117496
 21
-2226.745023752851
 31
0.0
 12
11748.67674117496
 22
-2205.911690419518
 32
0.0
 13
11748.67674117496
 23
-2205.911690419518
 33
0.0
  0
SOLID
  5
B1EC
330
5399
100
AcDbEntity
  8
KOTIERUNG
 62
     0
100
AcDbTrace
 10
13523.67674117496
 20
-2185.078357086185
 30
0.0
 11
13523.67674117496
 21
-2226.745023752851
 31
0.0
 12
13648.67674117496
 22
-2205.911690419518
 32
0.0
 13
13648.67674117496
 23
-2205.911690419518
 33
0.0
  0
MTEXT
  5
B1ED
102
{ACAD_XDICTIONARY
360
B55C
102
}
330
5399
100
AcDbEntity
  8
KOTIERUNG
 62
     0
100
AcDbMText
 10
12698.67674117496
 20
-2104.590066954306
 30
0.0
 40
125.0
 41
0.0
 71
     5
 72
     1
  1
\A1;1900\U+00B120
  7
VOEST
 73
     1
 44
1.0
  0
POINT
  5
B1EE
330
5399
100
AcDbEntity
  8
DEFPOINTS
 62
     0
100
AcDbPoint
 10
11748.67674117496
 20
-2377.353979893574
 30
0.0
  0
POINT
  5
B1EF
330
5399
100
AcDbEntity
  8
DEFPOINTS
 62
     0
100
AcDbPoint
 10
13648.67674117496
 20
-2377.353979893574
 30
0.0
  0
POINT
  5
B1F0
330
5399
100
AcDbEntity
  8
DEFPOINTS
 62
     0
100
AcDbPoint
 10
13648.67674117496
 20
-2205.911690419518
 30
0.0
  0
ENDBLK
  5
539B
330
5399
100
AcDbEntity
  8
0
100
AcDbBlockEnd
  0
BLOCK
  5
542A
330
5429
100
AcDbEntity
  8
0
100
AcDbBlockBegin
  2
*D167
 70
     1
 10
0.0
 20
0.0
 30
0.0
  3
*D167
  1

  0
LINE
  5
B1F1
330
5429
100
AcDbEntity
  8
KOTIERUNG
 62
     0
 48
0.3
370
    -2
100
AcDbLine
 10
10657.45522988683
 20
-609.8122763450428
 30
0.0
 11
10776.40692489909
 21
-609.8122763450428
 31
0.0
  0
LINE
  5
B1F2
330
5429
100
AcDbEntity
  8
KOTIERUNG
 62
     0
 48
0.3
370
    -2
100
AcDbLine
 10
10657.45522988683
 20
-823.1911849498846
 30
0.0
 11
10776.40692489909
 21
-823.1911849498846
 31
0.0
  0
LINE
  5
B1F3
330
5429
100
AcDbEntity
  8
KOTIERUNG
 62
     0
 48
0.3
370
    -2
100
AcDbLine
 10
10743.90692489909
 20
-642.3122763450428
 30
0.0
 11
10743.90692489909
 21
-790.6911849498847
 31
0.0
  0
SOLID
  5
B1F4
330
5429
100
AcDbEntity
  8
KOTIERUNG
 62
     0
 48
0.3
100
AcDbTrace
 10
10738.49025823242
 20
-642.3122763450428
 30
0.0
 11
10749.32359156576
 21
-642.3122763450428
 31
0.0
 12
10743.90692489909
 22
-609.8122763450428
 32
0.0
 13
10743.90692489909
 23
-609.8122763450428
 33
0.0
  0
SOLID
  5
B1F5
330
5429
100
AcDbEntity
  8
KOTIERUNG
 62
     0
 48
0.3
100
AcDbTrace
 10
10738.49025823242
 20
-790.6911849498847
 30
0.0
 11
10749.32359156576
 21
-790.6911849498847
 31
0.0
 12
10743.90692489909
 22
-823.1911849498846
 32
0.0
 13
10743.90692489909
 23
-823.1911849498846
 33
0.0
  0
MTEXT
  5
B1F6
330
5429
100
AcDbEntity
  8
KOTIERUNG
 62
     0
 48
0.3
100
AcDbMText
 10
10717.56330279814
 20
-716.501730647462
 30
0.0
 40
32.5
 41
0.0
 71
     5
 72
     1
  1
\A1;897%%P40
  7
VOEST
 11
0.0000000000000001
 21
1.0
 31
0.0
 73
     1
 44
1.0
  0
POINT
  5
B1F7
330
5429
100
AcDbEntity
  8
DEFPOINTS
 62
     0
 48
0.3
100
AcDbPoint
 10
10592.45522988683
 20
-609.8122763450428
 30
0.0
  0
POINT
  5
B1F8
330
5429
100
AcDbEntity
  8
DEFPOINTS
 62
     0
 48
0.3
100
AcDbPoint
 10
10592.45522988683
 20
-823.1911849498846
 30
0.0
  0
POINT
  5
B1F9
330
5429
100
AcDbEntity
  8
DEFPOINTS
 62
     0
 48
0.3
100
AcDbPoint
 10
10743.90692489909
 20
-823.1911849498846
 30
0.0
  0
ENDBLK
  5
542B
330
5429
100
AcDbEntity
  8
0
100
AcDbBlockEnd
  0
BLOCK
  5
6997
330
6992
100
AcDbEntity
  8
0
100
AcDbBlockBegin
  2
A$C76FC1872
 70
     0
 10
0.0
 20
0.0
 30
0.0
  3
A$C76FC1872
  1

  0
LEADER
  5
6993
330
6992
100
AcDbEntity
  8
KOTIERUNG
100
AcDbLeader
  3
VAKF
 40
25.0
 76
     2
 10
0.0000003583723185
 20
0.9999999193516941
 30
0.0
 10
32.55017206383539
 20
0.999999919351687
 30
0.0
211
-1.0
221
0.0000000000000001
231
0.0
213
32.69153169532867
223
-25.53516993091049
233
0.0
1001
ACAD
1000
DSTYLE
1002
{
1070
    41
1040
5.0
1070
    40
1040
1.199999999999999
1070
   147
1040
2.0
1070
    77
1070
     0
1002
}
  0
MTEXT
  5
6994
330
6992
100
AcDbEntity
  8
KOTIERUNG
100
AcDbMText
 10
8.842039544787127
 20
4.710035261554423
 30
0.0
 40
2.5
 41
28.07814879623565
 71
     1
 72
     5
  1
Fahrtrichtung
  7
VOEST
 73
     1
 44
1.0
  0
ENDBLK
  5
6998
330
6992
100
AcDbEntity
  8
0
100
AcDbBlockEnd
  0
BLOCK
  5
8D57
330
8D56
100
AcDbEntity
  8
0
100
AcDbBlockBegin
  2
*D171
 70
     1
 10
0.0
 20
0.0
 30
0.0
  3
*D171
  1

  0
LINE
  5
B1FA
330
8D56
100
AcDbEntity
  8
KOTIERUNG
 62
     0
370
    -2
100
AcDbLine
 10
10147.39179386231
 20
-87.16145181269878
 30
0.0
 11
10147.39179386231
 21
-204.6586089998964
 31
0.0
  0
LINE
  5
B1FB
330
8D56
100
AcDbEntity
  8
KOTIERUNG
 62
     0
370
    -2
100
AcDbLine
 10
10467.45522988683
 20
-87.16145181269878
 30
0.0
 11
10467.45522988683
 21
-204.6586089998964
 31
0.0
  0
LINE
  5
B1FC
330
8D56
100
AcDbEntity
  8
KOTIERUNG
 62
     0
370
    -2
100
AcDbLine
 10
10179.89179386231
 20
-172.1586089998964
 30
0.0
 11
10434.95522988683
 21
-172.1586089998964
 31
0.0
  0
SOLID
  5
B1FD
330
8D56
100
AcDbEntity
  8
KOTIERUNG
 62
     0
100
AcDbTrace
 10
10179.89179386231
 20
-166.7419423332297
 30
0.0
 11
10179.89179386231
 21
-177.575275666563
 31
0.0
 12
10147.39179386231
 22
-172.1586089998964
 32
0.0
 13
10147.39179386231
 23
-172.1586089998964
 33
0.0
  0
SOLID
  5
B1FE
330
8D56
100
AcDbEntity
  8
KOTIERUNG
 62
     0
100
AcDbTrace
 10
10434.95522988683
 20
-166.7419423332297
 30
0.0
 11
10434.95522988683
 21
-177.575275666563
 31
0.0
 12
10467.45522988683
 22
-172.1586089998964
 32
0.0
 13
10467.45522988683
 23
-172.1586089998964
 33
0.0
  0
MTEXT
  5
B1FF
102
{ACAD_XDICTIONARY
360
B55E
102
}
330
8D56
100
AcDbEntity
  8
KOTIERUNG
 62
     0
100
AcDbMText
 10
10307.42351187457
 20
-145.8149868989414
 30
0.0
 40
32.5
 41
0.0
 71
     5
 72
     1
  1
\A1;320\U+00B120
  7
VOEST
 73
     1
 44
1.0
  0
POINT
  5
B200
330
8D56
100
AcDbEntity
  8
DEFPOINTS
 62
     0
100
AcDbPoint
 10
10147.39179386231
 20
-22.16145181269879
 30
0.0
  0
POINT
  5
B201
330
8D56
100
AcDbEntity
  8
DEFPOINTS
 62
     0
100
AcDbPoint
 10
10467.45522988683
 20
-22.16145181269879
 30
0.0
  0
POINT
  5
B202
330
8D56
100
AcDbEntity
  8
DEFPOINTS
 62
     0
100
AcDbPoint
 10
10467.45522988683
 20
-172.1586089998964
 30
0.0
  0
ENDBLK
  5
8D58
330
8D56
100
AcDbEntity
  8
0
100
AcDbBlockEnd
  0
BLOCK
  5
8D76
330
8D75
100
AcDbEntity
  8
0
100
AcDbBlockBegin
  2
*D172
 70
     1
 10
0.0
 20
0.0
 30
0.0
  3
*D172
  1

  0
LINE
  5
B203
330
8D75
100
AcDbEntity
  8
KOTIERUNG
 62
     0
370
    -2
100
AcDbLine
 10
10467.45522988683
 20
-87.16145181269878
 30
0.0
 11
10467.45522988683
 21
-204.6586089998964
 31
0.0
  0
LINE
  5
B204
330
8D75
100
AcDbEntity
  8
KOTIERUNG
 62
     0
370
    -2
100
AcDbLine
 10
10592.45522988683
 20
-87.16145181269878
 30
0.0
 11
10592.45522988683
 21
-204.6586089998964
 31
0.0
  0
LINE
  5
B205
330
8D75
100
AcDbEntity
  8
KOTIERUNG
 62
     0
370
    -2
100
AcDbLine
 10
10499.95522988683
 20
-172.1586089998964
 30
0.0
 11
10559.95522988683
 21
-172.1586089998964
 31
0.0
  0
SOLID
  5
B206
330
8D75
100
AcDbEntity
  8
KOTIERUNG
 62
     0
100
AcDbTrace
 10
10499.95522988683
 20
-166.7419423332297
 30
0.0
 11
10499.95522988683
 21
-177.575275666563
 31
0.0
 12
10467.45522988683
 22
-172.1586089998964
 32
0.0
 13
10467.45522988683
 23
-172.1586089998964
 33
0.0
  0
SOLID
  5
B207
330
8D75
100
AcDbEntity
  8
KOTIERUNG
 62
     0
100
AcDbTrace
 10
10559.95522988683
 20
-166.7419423332297
 30
0.0
 11
10559.95522988683
 21
-177.575275666563
 31
0.0
 12
10592.45522988683
 22
-172.1586089998964
 32
0.0
 13
10592.45522988683
 23
-172.1586089998964
 33
0.0
  0
MTEXT
  5
B208
330
8D75
100
AcDbEntity
  8
KOTIERUNG
 62
     0
100
AcDbMText
 10
10529.95522988683
 20
-145.8149868989414
 30
0.0
 40
32.5
 41
0.0
 71
     5
 72
     1
  1
\A1;125
  7
VOEST
 73
     1
 44
1.0
  0
POINT
  5
B209
330
8D75
100
AcDbEntity
  8
DEFPOINTS
 62
     0
100
AcDbPoint
 10
10467.45522988683
 20
-22.16145181269879
 30
0.0
  0
POINT
  5
B20A
330
8D75
100
AcDbEntity
  8
DEFPOINTS
 62
     0
100
AcDbPoint
 10
10592.45522988683
 20
-22.16145181269879
 30
0.0
  0
POINT
  5
B20B
330
8D75
100
AcDbEntity
  8
DEFPOINTS
 62
     0
100
AcDbPoint
 10
10592.45522988683
 20
-172.1586089998964
 30
0.0
  0
ENDBLK
  5
8D77
330
8D75
100
AcDbEntity
  8
0
100
AcDbBlockEnd
  0
ENDSEC
  0
SECTION
  2
ENTITIES
  0
MTEXT
  5
10E0
330
18
100
AcDbEntity
  8
KOTIERUNG
100
AcDbMText
 10
7495.698312492914
 20
470.9395909145314
 30
0.0
 40
25.0
 41
0.0
 71
     4
 72
     1
  1
\A1;
  7
VOEST
 73
     1
 44
1.0
  0
LINE
  5
4C91
330
18
100
AcDbEntity
  8
18
  6
STRICHPUNKT
 48
0.25
100
AcDbLine
 10
9848.676741174962
 20
-2377.353979893574
 30
0.0
 11
9848.67674117498
 21
-3188.7341992027
 31
0.0
  0
LINE
  5
4C92
330
18
100
AcDbEntity
  8
35
 48
8.0
100
AcDbLine
 10
10128.67674117497
 20
-2845.544089548137
 30
0.0
 11
10128.67674117497
 21
-2905.544089548137
 31
0.0
  0
LINE
  5
4C93
330
18
100
AcDbEntity
  8
18
  6
STRICHPUNKT
 48
8.0
100
AcDbLine
 10
9928.676741174967
 20
-2845.544089548137
 30
0.0
 11
9928.676741174967
 21
-2905.544089548137
 31
0.0
  0
LINE
  5
4C96
330
18
100
AcDbEntity
  8
18
  6
ACAD_ISO02W100
 48
0.3
100
AcDbLine
 10
10467.45522988683
 20
-609.8122763450428
 30
0.0
 11
10467.45522988683
 21
-705.4930915973491
 31
0.0
  0
LINE
  5
4C97
330
18
100
AcDbEntity
  8
18
  6
ACAD_ISO02W100
 48
0.3
100
AcDbLine
 10
10467.45522988683
 20
-712.2217938487774
 30
0.0
 11
10467.45522988683
 21
-823.1911849498846
 31
0.0
  0
LINE
  5
4C98
330
18
100
AcDbEntity
  8
0
100
AcDbLine
 10
10222.39179386231
 20
193.1877236549571
 30
0.0
 11
10222.39179386231
 21
-6.812276345042846
 31
0.0
  0
LINE
  5
4C99
330
18
100
AcDbEntity
  8
0
100
AcDbLine
 10
10837.5186659112
 20
193.1877236549571
 30
0.0
 11
10837.5186659112
 21
-6.812276345042846
 31
0.0
  0
LINE
  5
4C9A
330
18
100
AcDbEntity
  8
0
100
AcDbLine
 10
10837.5186659112
 20
193.1877236549571
 30
0.0
 11
10597.4552298868
 21
193.1877236549571
 31
0.0
  0
LINE
  5
4C9B
330
18
100
AcDbEntity
  8
0
100
AcDbLine
 10
10462.45522988683
 20
193.1877236549571
 30
0.0
 11
10222.39179386231
 21
193.1877236549571
 31
0.0
  0
LINE
  5
4C9C
330
18
100
AcDbEntity
  8
0
100
AcDbLine
 10
10837.5186659112
 20
-6.812276345042846
 30
0.0
 11
10597.4552298868
 21
-6.812276345042846
 31
0.0
  0
LINE
  5
4C9D
330
18
100
AcDbEntity
  8
0
100
AcDbLine
 10
10462.45522988683
 20
-6.812276345042846
 30
0.0
 11
10222.39179386231
 21
-6.812276345042846
 31
0.0
  0
LINE
  5
4C9E
330
18
100
AcDbEntity
  8
18
  6
STRICHPUNKT
 48
8.0
100
AcDbLine
 10
10204.81502730514
 20
93.18772365495807
 30
0.0
 11
10235.22302312115
 21
93.18772365495807
 31
0.0
  0
LINE
  5
4C9F
330
18
100
AcDbEntity
  8
18
  6
STRICHPUNKT
 48
0.2
100
AcDbLine
 10
10180.55863332473
 20
-60.54903386006117
 30
0.0
 11
10190.5568883039
 21
-42.60035925891315
 31
0.0
  0
LINE
  5
4CA0
330
18
100
AcDbEntity
  8
18
  6
STRICHPUNKT
 48
0.2
100
AcDbLine
 10
10180.55863332473
 20
246.9244811699773
 30
0.0
 11
10190.5568883039
 21
228.9758065688293
 31
0.0
  0
LINE
  5
4CA2
330
18
100
AcDbEntity
  8
18
  6
STRICHPUNKT
 48
8.0
100
AcDbLine
 10
10855.09543246848
 20
93.18772365495807
 30
0.0
 11
10824.68743665248
 21
93.18772365495807
 31
0.0
  0
LINE
  5
4CA3
330
18
100
AcDbEntity
  8
18
  6
STRICHPUNKT
 48
0.2
100
AcDbLine
 10
10879.3518264489
 20
-60.54903386006117
 30
0.0
 11
10869.35357146973
 21
-42.60035925891315
 31
0.0
  0
LINE
  5
4CA4
330
18
100
AcDbEntity
  8
18
  6
STRICHPUNKT
 48
0.2
100
AcDbLine
 10
10879.3518264489
 20
246.9244811699773
 30
0.0
 11
10869.35357146973
 21
228.9758065688293
 31
0.0
  0
LINE
  5
4CAF
330
18
100
AcDbEntity
  8
0
100
AcDbLine
 10
8390.148967965215
 20
-2475.480653523618
 30
0.0
 11
15107.2045143847
 21
-2475.48065352362
 31
0.0
  0
LINE
  5
4CB1
330
18
100
AcDbEntity
  8
0
100
AcDbLine
 10
8390.148967965217
 20
-2400.480653523621
 30
0.0
 11
15107.20451438471
 21
-2400.48065352362
 31
0.0
  0
LINE
  5
4CB3
330
18
100
AcDbEntity
  8
0
100
AcDbLine
 10
8390.148967965217
 20
-3090.607525572655
 30
0.0
 11
15107.20451438471
 21
-3090.607525572656
 31
0.0
  0
LINE
  5
4CB5
330
18
100
AcDbEntity
  8
0
100
AcDbLine
 10
8390.148967965215
 20
-3165.607525572655
 30
0.0
 11
15107.2045143847
 21
-3165.607525572654
 31
0.0
  0
LINE
  5
4CB6
102
{ACAD_REACTORS
330
4D15
102
}
330
18
100
AcDbEntity
  8
50
100
AcDbLine
 10
9989.955229886831
 20
-609.812276345043
 30
0.0
 11
11069.95522988683
 21
-609.8122763450427
 31
0.0
  0
LINE
  5
4CB7
330
18
100
AcDbEntity
  8
18
  6
ACAD_ISO02W100
 48
0.3
100
AcDbLine
 10
10592.45522988683
 20
-609.8122763450428
 30
0.0
 11
10592.45522988682
 21
-725.4625752847478
 31
0.0
  0
LINE
  5
4CB8
330
18
100
AcDbEntity
  8
18
  6
ACAD_ISO02W100
 48
0.3
100
AcDbLine
 10
10592.45522988682
 20
-732.191277536177
 30
0.0
 11
10592.45522988683
 21
-823.1911849498846
 31
0.0
  0
LINE
  5
4CB9
102
{ACAD_REACTORS
330
508A
102
}
330
18
100
AcDbEntity
  8
18
  6
ACAD_ISO02W100
 48
0.3
100
AcDbLine
 10
10467.45522988683
 20
-823.1911849498846
 30
0.0
 11
10592.45522988683
 21
-823.1911849498846
 31
0.0
  0
LINE
  5
4CBA
330
18
100
AcDbEntity
  8
18
  6
STRICHPUNKT
 48
8.0
100
AcDbLine
 10
10614.92440958386
 20
143.1877236549571
 30
0.0
 11
10579.98605018974
 21
143.1877236549571
 31
0.0
  0
LINE
  5
4CBB
330
18
100
AcDbEntity
  8
18
  6
STRICHPUNKT
 48
8.0
100
AcDbLine
 10
10614.92440958386
 20
43.18772365495715
 30
0.0
 11
10579.98605018974
 21
43.18772365495715
 31
0.0
  0
DIMENSION
  5
4CC1
330
18
100
AcDbEntity
  8
KOTIERUNG
100
AcDbDimension
  2
*D105
 10
10743.90692489909
 20
-609.8122763450428
 30
0.0
 11
10717.56330279814
 21
-208.3122763450411
 31
0.0
 70
    32
 71
     5
 42
803.0
  3
TYPENBLATT
100
AcDbAlignedDimension
 13
10593.4552298868
 23
193.1877236549571
 33
0.0
 14
10587.45522988683
 24
-609.8122763450428
 34
0.0
 50
90.0
100
AcDbRotatedDimension
1001
ACAD
1000
DSTYLE
1002
{
1070
    40
1040
130.0
1070
    47
1040
40.0
1070
    48
1040
40.0
1070
    71
1070
     1
1070
    77
1070
     1
1070
   147
1040
0.075
1070
   272
1070
     0
1002
}
  0
LINE
  5
4CDC
330
18
100
AcDbEntity
  8
18
  6
ACAD_ISO02W100
 48
0.3
100
AcDbLine
 10
10492.45522988683
 20
-609.8122763450428
 30
0.0
 11
10492.45522988683
 21
-709.4869883348292
 31
0.0
  0
LINE
  5
4CDD
330
18
100
AcDbEntity
  8
18
  6
ACAD_ISO02W100
 48
0.3
100
AcDbLine
 10
10492.45522988683
 20
-716.2156905862575
 30
0.0
 11
10492.45522988683
 21
-823.1911849498846
 31
0.0
  0
LINE
  5
4CDE
330
18
100
AcDbEntity
  8
18
  6
ACAD_ISO02W100
 48
0.3
100
AcDbLine
 10
10567.45522988683
 20
-609.8122763450428
 30
0.0
 11
10567.45522988683
 21
-721.4686785472677
 31
0.0
  0
LINE
  5
4CDF
330
18
100
AcDbEntity
  8
18
  6
ACAD_ISO02W100
 48
0.3
100
AcDbLine
 10
10567.45522988683
 20
-728.1973807986969
 30
0.0
 11
10567.45522988683
 21
-823.1911849498846
 31
0.0
  0
LINE
  5
4CE0
330
18
100
AcDbEntity
  8
25
100
AcDbLine
 10
10597.4552298868
 20
193.1877236549571
 30
0.0
 11
10597.4552298868
 21
-6.812276345042846
 31
0.0
  0
LINE
  5
4CE1
330
18
100
AcDbEntity
  8
25
100
AcDbLine
 10
10462.45522988683
 20
193.1877236549571
 30
0.0
 11
10462.45522988683
 21
-6.812276345042846
 31
0.0
  0
DIMENSION
  5
4CEA
330
18
100
AcDbEntity
  8
KOTIERUNG
100
AcDbDimension
  2
*D96
 10
10319.32767164662
 20
-609.8122763450428
 30
0.0
 11
10319.32767164662
 21
-464.8122763450419
 31
0.0
 70
   160
  1
<>
 71
     5
 42
290.000000000001
  3
TYPENBLATT
100
AcDbAlignedDimension
 13
10453.22739313476
 23
-319.8122763450419
 33
0.0
 14
10427.95522988683
 24
-609.8122763450428
 34
0.0
 50
90.0
100
AcDbRotatedDimension
1001
ACAD
1000
DSTYLE
1002
{
1070
    40
1040
130.0
1070
    47
1040
40.0
1070
    48
1040
40.0
1070
    71
1070
     1
1070
    77
1070
     1
1070
   147
1040
0.075
1070
   272
1070
     0
1002
}
  0
LINE
  5
4D0D
330
18
100
AcDbEntity
  8
18
  6
STRICHPUNKT
 48
8.0
100
AcDbLine
 10
10444.98605018977
 20
143.1877236549571
 30
0.0
 11
10479.92440958389
 21
143.1877236549571
 31
0.0
  0
LINE
  5
4D0E
330
18
100
AcDbEntity
  8
18
  6
STRICHPUNKT
 48
8.0
100
AcDbLine
 10
10444.98605018977
 20
43.18772365495715
 30
0.0
 11
10479.92440958389
 21
43.18772365495715
 31
0.0
  0
DIMENSION
  5
4D13
102
{ACAD_XDICTIONARY
360
4D14
102
}
102
{ACAD_REACTORS
330
4D15
102
}
330
18
100
AcDbEntity
  8
KOTIERUNG
100
AcDbDimension
  2
*D107
 10
10087.2110699355
 20
-609.8122763450428
 30
0.0
 11
10087.2110699355
 21
-224.9364236847423
 31
0.0
 70
   160
 71
     5
 42
870.0
  3
TYPENBLATT
100
AcDbAlignedDimension
 13
10222.39179386231
 23
260.1877236549571
 33
0.0
 14
10277.63000104514
 24
-609.8122763450428
 34
0.0
 50
90.0
100
AcDbRotatedDimension
1001
ACAD
1000
DSTYLE
1002
{
1070
    40
1040
130.0
1070
    47
1040
40.0
1070
    48
1040
40.0
1070
    71
1070
     1
1070
    77
1070
     1
1070
   147
1040
0.075
1070
   272
1070
     0
1002
}
  0
DIMENSION
  5
4D20
330
18
100
AcDbEntity
  8
KOTIERUNG
100
AcDbDimension
  2
*D111
 10
10912.51866591132
 20
314.9647931177315
 30
0.0
 11
10529.95522988682
 21
341.3084152186864
 31
0.0
 70
    32
 71
     5
 42
765.1268720490079
  3
TYPENBLATT
100
AcDbAlignedDimension
 13
10147.39179386231
 23
208.5368991226118
 33
0.0
 14
10912.51866591132
 24
208.5368991226145
 34
0.0
100
AcDbRotatedDimension
1001
ACAD
1000
DSTYLE
1002
{
1070
    40
1040
130.0
1070
    47
1040
20.0
1070
    48
1040
20.0
1070
    71
1070
     1
1070
    77
1070
     1
1070
   147
1040
0.075
1070
   272
1070
     0
1002
}
  0
LINE
  5
4D39
330
18
100
AcDbEntity
  8
0
100
AcDbLine
 10
10462.45522988683
 20
193.1877236549571
 30
0.0
 11
10462.45522988683
 21
-6.812276345042846
 31
0.0
  0
LINE
  5
4D3A
330
18
100
AcDbEntity
  8
0
100
AcDbLine
 10
10597.4552298868
 20
193.1877236549571
 30
0.0
 11
10597.4552298868
 21
-6.812276345042846
 31
0.0
  0
LINE
  5
4D3B
330
18
100
AcDbEntity
  8
25
100
AcDbLine
 10
10597.4552298868
 20
193.1877236549571
 30
0.0
 11
10462.45522988683
 21
193.1877236549571
 31
0.0
  0
LINE
  5
4D3C
330
18
100
AcDbEntity
  8
25
100
AcDbLine
 10
10467.45522988683
 20
11.18772365495715
 30
0.0
 11
10467.45522988683
 21
-609.8122763450428
 31
0.0
  0
LINE
  5
4D3D
102
{ACAD_REACTORS
330
508A
102
}
330
18
100
AcDbEntity
  8
25
100
AcDbLine
 10
10592.45522988683
 20
11.18772365495715
 30
0.0
 11
10592.45522988683
 21
-609.8122763450428
 31
0.0
  0
LINE
  5
4D3E
330
18
100
AcDbEntity
  8
25
100
AcDbLine
 10
10597.4552298868
 20
11.18772365495715
 30
0.0
 11
10462.45522988683
 21
11.18772365495715
 31
0.0
  0
LINE
  5
4D3F
330
18
100
AcDbEntity
  8
18
  6
ACAD_ISO02W100
100
AcDbLine
 10
10467.45522988682
 20
11.18772365495715
 30
0.0
 11
10467.45522988682
 21
193.1877236549571
 31
0.0
  0
LINE
  5
4D40
330
18
100
AcDbEntity
  8
18
  6
ACAD_ISO02W100
100
AcDbLine
 10
10592.45522988682
 20
11.18772365495715
 30
0.0
 11
10592.45522988682
 21
193.1877236549571
 31
0.0
  0
LINE
  5
4D41
330
18
100
AcDbEntity
  8
25
100
AcDbLine
 10
10492.45522988683
 20
11.18772365495715
 30
0.0
 11
10492.45522988683
 21
-609.8122763450428
 31
0.0
  0
LINE
  5
4D42
330
18
100
AcDbEntity
  8
25
100
AcDbLine
 10
10567.45522988683
 20
11.18772365495715
 30
0.0
 11
10567.45522988683
 21
-609.8122763450428
 31
0.0
  0
LINE
  5
4D43
330
18
100
AcDbEntity
  8
18
  6
ACAD_ISO02W100
 48
0.3
100
AcDbLine
 10
10492.45522988683
 20
11.18772365495715
 30
0.0
 11
10492.45522988683
 21
193.1877236549571
 31
0.0
  0
LINE
  5
4D44
330
18
100
AcDbEntity
  8
18
  6
ACAD_ISO02W100
 48
0.3
100
AcDbLine
 10
10567.45522988682
 20
11.18772365495715
 30
0.0
 11
10567.45522988682
 21
193.1877236549571
 31
0.0
  0
LINE
  5
4D45
330
18
100
AcDbEntity
  8
18
  6
ACAD_ISO02W100
 48
0.3
100
AcDbLine
 10
10587.45522988683
 20
193.1877236549571
 30
0.0
 11
10587.45522988683
 21
-823.1911849498846
 31
0.0
  0
LINE
  5
4D47
330
18
100
AcDbEntity
  8
18
  6
ACAD_ISO02W100
 48
0.3
100
AcDbLine
 10
10472.45522988683
 20
193.1877236549571
 30
0.0
 11
10472.45522988682
 21
-823.1911849498846
 31
0.0
  0
DIMENSION
  5
4D51
330
18
100
AcDbEntity
  8
KOTIERUNG
100
AcDbDimension
  2
*D112
 10
10743.98012309729
 20
260.1877236549571
 30
0.0
 11
10743.98012309729
 21
377.0148041460912
 31
0.0
 70
   160
 71
     5
 42
67.00000000000002
  3
TYPENBLATT
100
AcDbAlignedDimension
 13
10593.4552298868
 23
193.1877236549571
 33
0.0
 14
10837.51866591132
 24
260.1877236549571
 34
0.0
 50
90.0
100
AcDbRotatedDimension
1001
ACAD
1000
DSTYLE
1002
{
1070
    40
1040
130.0
1070
    47
1040
5.0
1070
    48
1040
5.0
1070
    71
1070
     1
1070
    77
1070
     1
1070
   147
1040
0.075
1070
   272
1070
     0
1002
}
  0
LWPOLYLINE
  5
4D5E
330
18
100
AcDbEntity
  8
25
 48
8.0
100
AcDbPolyline
 90
       21
 70
     0
 43
0.0
 10
9817.426741174969
 20
-2820.544089548137
 10
9822.426741174968
 20
-2820.544089548137
 10
9822.426741174968
 20
-2835.544089548137
 42
0.4142135623730951
 10
9827.426741174967
 20
-2840.544089548137
 10
9869.926741174969
 20
-2840.544089548137
 42
0.4142135623730951
 10
9874.926741174968
 20
-2835.544089548137
 10
9874.926741174968
 20
-2730.544089548137
 42
0.4142135623730951
 10
9869.926741174969
 20
-2725.544089548137
 10
9827.426741174967
 20
-2725.544089548137
 42
0.4142135623730951
 10
9822.426741174968
 20
-2730.544089548137
 10
9822.426741174968
 20
-2745.544089548137
 10
9817.426741174969
 20
-2745.544089548137
 10
9817.426741174969
 20
-2730.544089548137
 42
-0.4142135623730951
 10
9827.426741174967
 20
-2720.544089548137
 10
9869.926741174969
 20
-2720.544089548137
 42
-0.4142135623730951
 10
9879.926741174969
 20
-2730.544089548137
 10
9879.926741174969
 20
-2835.544089548137
 42
-0.4142135623730951
 10
9869.926741174969
 20
-2845.544089548137
 10
9827.426741174967
 20
-2845.544089548137
 42
-0.4142135623730951
 10
9817.426741174969
 20
-2835.544089548137
 10
9817.426741174969
 20
-2820.544089548137
  0
LWPOLYLINE
  5
4D5F
330
18
100
AcDbEntity
  8
18
100
AcDbPolyline
 90
       12
 70
     1
 43
0.0
 10
9871.926741174968
 20
-2719.544089548137
 10
9825.426741174968
 20
-2719.544089548137
 42
0.4142135623730951
 10
9817.426741174969
 20
-2727.544089548137
 10
9817.426741174969
 20
-2838.544089548137
 42
0.4142135623730951
 10
9825.426741174968
 20
-2846.544089548137
 10
9871.926741174968
 20
-2846.544089548137
 10
9871.926741174968
 20
-2850.544089548137
 10
9825.426741174968
 20
-2850.544089548137
 42
-0.4142135623730951
 10
9813.426741174968
 20
-2838.544089548137
 10
9813.426741174968
 20
-2727.544089548137
 42
-0.4142135623730951
 10
9825.426741174968
 20
-2715.544089548137
 10
9871.926741174968
 20
-2715.544089548137
  0
LINE
  5
4D9C
330
18
100
AcDbEntity
  8
18
  6
STRICHPUNKT
 48
8.0
100
AcDbLine
 10
10614.92440958386
 20
-299.3122763450429
 30
0.0
 11
10579.98605018974
 21
-299.3122763450429
 31
0.0
  0
LWPOLYLINE
  5
4DAE
330
18
100
AcDbEntity
  8
25
100
AcDbPolyline
 90
        4
 70
     1
 43
0.0
 10
10840.31866591131
 20
73.18772365495715
 10
10845.31866591131
 20
73.18772365495715
 10
10845.31866591131
 20
113.1877236549571
 10
10840.31866591131
 20
113.1877236549571
  0
LINE
  5
4EAB
330
18
100
AcDbEntity
  8
18
  6
STRICHPUNKT
 48
8.0
100
AcDbLine
 10
10444.98605018977
 20
-299.3122763450429
 30
0.0
 11
10479.92440958389
 21
-299.3122763450429
 31
0.0
  0
LINE
  5
4EAE
330
18
100
AcDbEntity
  8
25
100
AcDbLine
 10
15107.2045143847
 20
-2660.544089548115
 30
0.0
 11
8390.148967965215
 21
-2660.544089548115
 31
0.0
  0
LINE
  5
4EAF
330
18
100
AcDbEntity
  8
25
100
AcDbLine
 10
15107.2045143847
 20
-2905.544089548136
 30
0.0
 11
8390.148967965215
 21
-2905.544089548138
 31
0.0
  0
LINE
  5
4EB0
330
18
100
AcDbEntity
  8
25
100
AcDbLine
 10
8390.148967965213
 20
-2720.544089548462
 30
0.0
 11
15107.2045143847
 21
-2720.544089548462
 31
0.0
  0
LINE
  5
4EB1
330
18
100
AcDbEntity
  8
25
100
AcDbLine
 10
8390.148967965215
 20
-2845.544089548139
 30
0.0
 11
15107.2045143847
 21
-2845.544089548138
 31
0.0
  0
LWPOLYLINE
  5
4EB6
330
18
100
AcDbEntity
  8
25
 48
8.0
100
AcDbPolyline
 90
       21
 70
     0
 43
0.0
 10
11779.92674117495
 20
-2820.544089548137
 10
11774.92674117495
 20
-2820.544089548137
 10
11774.92674117495
 20
-2835.544089548137
 42
-0.4142135623730951
 10
11769.92674117495
 20
-2840.544089548137
 10
11727.42674117495
 20
-2840.544089548137
 42
-0.4142135623730951
 10
11722.42674117495
 20
-2835.544089548137
 10
11722.42674117495
 20
-2730.544089548137
 42
-0.4142135623730951
 10
11727.42674117495
 20
-2725.544089548137
 10
11769.92674117495
 20
-2725.544089548137
 42
-0.4142135623730951
 10
11774.92674117495
 20
-2730.544089548137
 10
11774.92674117495
 20
-2745.544089548137
 10
11779.92674117495
 20
-2745.544089548137
 10
11779.92674117495
 20
-2730.544089548137
 42
0.4142135623730951
 10
11769.92674117495
 20
-2720.544089548137
 10
11727.42674117495
 20
-2720.544089548137
 42
0.4142135623730951
 10
11717.42674117495
 20
-2730.544089548137
 10
11717.42674117495
 20
-2835.544089548137
 42
0.4142135623730951
 10
11727.42674117495
 20
-2845.544089548137
 10
11769.92674117495
 20
-2845.544089548137
 42
0.4142135623730951
 10
11779.92674117495
 20
-2835.544089548137
 10
11779.92674117495
 20
-2820.544089548137
  0
LWPOLYLINE
  5
4EB7
330
18
100
AcDbEntity
  8
18
100
AcDbPolyline
 90
       12
 70
     1
 43
0.0
 10
11725.42674117495
 20
-2719.544089548137
 10
11771.92674117495
 20
-2719.544089548137
 42
-0.4142135623730951
 10
11779.92674117495
 20
-2727.544089548137
 10
11779.92674117495
 20
-2838.544089548137
 42
-0.4142135623730951
 10
11771.92674117495
 20
-2846.544089548137
 10
11725.42674117495
 20
-2846.544089548137
 10
11725.42674117495
 20
-2850.544089548137
 10
11771.92674117495
 20
-2850.544089548137
 42
0.4142135623730951
 10
11783.92674117495
 20
-2838.544089548137
 10
11783.92674117495
 20
-2727.544089548137
 42
0.4142135623730951
 10
11771.92674117495
 20
-2715.544089548137
 10
11725.42674117495
 20
-2715.544089548137
  0
LWPOLYLINE
  5
4EBC
330
18
100
AcDbEntity
  8
25
 48
8.0
100
AcDbPolyline
 90
       21
 70
     0
 43
0.0
 10
13617.42674117497
 20
-2820.544089548137
 10
13622.42674117497
 20
-2820.544089548137
 10
13622.42674117497
 20
-2835.544089548137
 42
0.4142135623730951
 10
13627.42674117497
 20
-2840.544089548137
 10
13669.92674117497
 20
-2840.544089548137
 42
0.4142135623730951
 10
13674.92674117497
 20
-2835.544089548137
 10
13674.92674117497
 20
-2730.544089548137
 42
0.4142135623730951
 10
13669.92674117497
 20
-2725.544089548137
 10
13627.42674117497
 20
-2725.544089548137
 42
0.4142135623730951
 10
13622.42674117497
 20
-2730.544089548137
 10
13622.42674117497
 20
-2745.544089548137
 10
13617.42674117497
 20
-2745.544089548137
 10
13617.42674117497
 20
-2730.544089548137
 42
-0.4142135623730951
 10
13627.42674117497
 20
-2720.544089548137
 10
13669.92674117497
 20
-2720.544089548137
 42
-0.4142135623730951
 10
13679.92674117497
 20
-2730.544089548137
 10
13679.92674117497
 20
-2835.544089548137
 42
-0.4142135623730951
 10
13669.92674117497
 20
-2845.544089548137
 10
13627.42674117497
 20
-2845.544089548137
 42
-0.4142135623730951
 10
13617.42674117497
 20
-2835.544089548137
 10
13617.42674117497
 20
-2820.544089548137
  0
LWPOLYLINE
  5
4EBD
330
18
100
AcDbEntity
  8
18
100
AcDbPolyline
 90
       12
 70
     1
 43
0.0
 10
13671.92674117497
 20
-2719.544089548137
 10
13625.42674117497
 20
-2719.544089548137
 42
0.4142135623730951
 10
13617.42674117497
 20
-2727.544089548137
 10
13617.42674117497
 20
-2838.544089548137
 42
0.4142135623730951
 10
13625.42674117497
 20
-2846.544089548137
 10
13671.92674117497
 20
-2846.544089548137
 10
13671.92674117497
 20
-2850.544089548137
 10
13625.42674117497
 20
-2850.544089548137
 42
-0.4142135623730951
 10
13613.42674117496
 20
-2838.544089548137
 10
13613.42674117496
 20
-2727.544089548137
 42
-0.4142135623730951
 10
13625.42674117497
 20
-2715.544089548137
 10
13671.92674117497
 20
-2715.544089548137
  0
LINE
  5
4EBE
330
18
100
AcDbEntity
  8
35
 48
8.0
100
AcDbLine
 10
9688.67674117496
 20
-2400.48065352362
 30
0.0
 11
9688.67674117496
 21
-2475.48065352362
 31
0.0
  0
LINE
  5
4EBF
330
18
100
AcDbEntity
  8
18
  6
STRICHPUNKT
 48
8.0
100
AcDbLine
 10
9688.676741174976
 20
-3090.607525572654
 30
0.0
 11
9688.676741174976
 21
-3165.607525572654
 31
0.0
  0
LINE
  5
4EC0
330
18
100
AcDbEntity
  8
18
  6
STRICHPUNKT
 48
8.0
100
AcDbLine
 10
10008.67674117496
 20
-2400.48065352362
 30
0.0
 11
10008.67674117496
 21
-2475.48065352362
 31
0.0
  0
LINE
  5
4EC1
330
18
100
AcDbEntity
  8
35
 48
8.0
100
AcDbLine
 10
10008.67674117497
 20
-3090.607525572654
 30
0.0
 11
10008.67674117497
 21
-3165.607525572654
 31
0.0
  0
LINE
  5
4EC2
102
{ACAD_REACTORS
330
4ED0
102
}
330
18
100
AcDbEntity
  8
18
  6
STRICHPUNKT
 48
0.25
100
AcDbLine
 10
13648.67674117496
 20
-2377.353979893574
 30
0.0
 11
13648.67674117498
 21
-3188.7341992027
 31
0.0
  0
LINE
  5
4EC3
330
18
100
AcDbEntity
  8
35
 48
8.0
100
AcDbLine
 10
13488.67674117496
 20
-2400.48065352362
 30
0.0
 11
13488.67674117496
 21
-2475.48065352362
 31
0.0
  0
LINE
  5
4EC4
330
18
100
AcDbEntity
  8
18
  6
STRICHPUNKT
 48
8.0
100
AcDbLine
 10
13488.67674117497
 20
-3090.607525572654
 30
0.0
 11
13488.67674117497
 21
-3165.607525572654
 31
0.0
  0
LINE
  5
4EC5
330
18
100
AcDbEntity
  8
18
  6
STRICHPUNKT
 48
8.0
100
AcDbLine
 10
13808.67674117496
 20
-2400.48065352362
 30
0.0
 11
13808.67674117496
 21
-2475.48065352362
 31
0.0
  0
LINE
  5
4EC6
330
18
100
AcDbEntity
  8
35
 48
8.0
100
AcDbLine
 10
13808.67674117497
 20
-3090.607525572654
 30
0.0
 11
13808.67674117497
 21
-3165.607525572654
 31
0.0
  0
DIMENSION
  5
4EC7
330
18
100
AcDbEntity
  8
KOTIERUNG
100
AcDbDimension
  2
*D153
 10
13648.67674117496
 20
-1938.465984730531
 30
0.0
 11
11748.67674117497
 21
-1837.14436126532
 31
0.0
 70
    32
 71
     5
 42
3799.99999999998
  3
TYPENBLATT_M50
100
AcDbAlignedDimension
 13
9848.67674117498
 23
-2400.48065352362
 33
0.0
 14
13648.67674117496
 24
-2400.48065352362
 34
0.0
100
AcDbRotatedDimension
1001
ACAD
1000
DSTYLE
1002
{
1070
    47
1040
9.0
1070
    48
1040
9.0
1070
    71
1070
     1
1070
   272
1070
     0
1002
}
  0
LINE
  5
4ECA
330
18
100
AcDbEntity
  8
18
  6
STRICHPUNKT
 48
0.25
100
AcDbLine
 10
11748.67674117496
 20
-2377.353979893574
 30
0.0
 11
11748.67674117498
 21
-3188.7341992027
 31
0.0
  0
DIMENSION
  5
4ECB
330
18
100
AcDbEntity
  8
KOTIERUNG
100
AcDbDimension
  2
*D154
 10
11748.67674117498
 20
-2205.911690419518
 30
0.0
 11
10798.67674117497
 21
-2104.590066954306
 31
0.0
 70
    32
 71
     5
 42
1900.000000000018
  3
TYPENBLATT_M50
100
AcDbAlignedDimension
 13
9848.676741174962
 23
-2400.48065352362
 33
0.0
 14
11748.67674117498
 24
-2400.48065352362
 34
0.0
100
AcDbRotatedDimension
1001
ACAD
1000
DSTYLE
1002
{
1070
    47
1040
20.0
1070
    48
1040
20.0
1070
    71
1070
     1
1070
   272
1070
     0
1002
}
  0
DIMENSION
  5
4ECE
102
{ACAD_XDICTIONARY
360
4ECF
102
}
102
{ACAD_REACTORS
330
4ED0
102
}
330
18
100
AcDbEntity
  8
KOTIERUNG
100
AcDbDimension
  2
*D155
 10
13648.67674117496
 20
-2205.911690419518
 30
0.0
 11
12698.67674117496
 21
-2104.590066954306
 31
0.0
 70
    32
 71
     5
 42
1900.0
  3
TYPENBLATT_M50
100
AcDbAlignedDimension
 13
11748.67674117496
 23
-2377.353979893574
 33
0.0
 14
13648.67674117496
 24
-2377.353979893574
 34
0.0
100
AcDbRotatedDimension
1001
ACAD
1000
DSTYLE
1002
{
1070
    47
1040
20.0
1070
    48
1040
20.0
1070
    71
1070
     1
1070
   272
1070
     0
1002
}
  0
LINE
  5
4ED1
330
18
100
AcDbEntity
  8
18
  6
ACAD_ISO10W100
100
AcDbLine
 10
10447.10817046187
 20
-702.2425294271642
 30
0.0
 11
10612.80228931178
 21
-728.7131374549335
 31
0.0
  0
LINE
  5
4ED2
330
18
100
AcDbEntity
  8
18
  6
ACAD_ISO10W100
100
AcDbLine
 10
10447.10817046187
 20
-708.9712316785917
 30
0.0
 11
10612.80228931178
 21
-735.4418397063618
 31
0.0
  0
LINE
  5
4EE5
330
18
100
AcDbEntity
  8
35
 48
8.0
100
AcDbLine
 10
13928.67674117497
 20
-2845.544089548137
 30
0.0
 11
13928.67674117497
 21
-2905.544089548137
 31
0.0
  0
LINE
  5
4EE6
330
18
100
AcDbEntity
  8
18
  6
STRICHPUNKT
 48
8.0
100
AcDbLine
 10
13728.67674117496
 20
-2845.544089548137
 30
0.0
 11
13728.67674117496
 21
-2905.544089548137
 31
0.0
  0
LINE
  5
4EE9
330
18
100
AcDbEntity
  8
35
 48
8.0
100
AcDbLine
 10
9568.67674117495
 20
-2720.544089548137
 30
0.0
 11
9568.67674117495
 21
-2660.544089548137
 31
0.0
  0
LINE
  5
4EEA
330
18
100
AcDbEntity
  8
18
  6
STRICHPUNKT
 48
8.0
100
AcDbLine
 10
9768.676741174955
 20
-2720.544089548137
 30
0.0
 11
9768.676741174955
 21
-2660.544089548137
 31
0.0
  0
LINE
  5
4EEB
330
18
100
AcDbEntity
  8
35
 48
8.0
100
AcDbLine
 10
13368.67674117495
 20
-2720.544089548137
 30
0.0
 11
13368.67674117495
 21
-2660.544089548137
 31
0.0
  0
LINE
  5
4EEC
330
18
100
AcDbEntity
  8
18
  6
STRICHPUNKT
 48
8.0
100
AcDbLine
 10
13568.67674117495
 20
-2720.544089548137
 30
0.0
 11
13568.67674117495
 21
-2660.544089548137
 31
0.0
  0
LWPOLYLINE
  5
4F69
330
18
100
AcDbEntity
  8
25
100
AcDbPolyline
 90
       21
 70
     0
 43
0.0
 10
10492.45522988683
 20
-942.0808797518748
 10
10492.45522988683
 20
-937.0808797518748
 10
10477.45522988683
 20
-937.0808797518748
 42
-0.4142135623730951
 10
10472.45522988683
 20
-932.0808797518749
 10
10472.45522988683
 20
-889.5808797518784
 42
-0.4142135623730951
 10
10477.45522988683
 20
-884.5808797518785
 10
10582.45522988683
 20
-884.5808797518747
 42
-0.4142135623730951
 10
10587.45522988683
 20
-889.5808797518748
 10
10587.45522988683
 20
-932.0808797518784
 42
-0.4142135623730951
 10
10582.45522988683
 20
-937.0808797518785
 10
10567.45522988683
 20
-937.0808797518785
 10
10567.45522988683
 20
-942.0808797518784
 10
10582.45522988683
 20
-942.0808797518784
 42
0.4142135623730951
 10
10592.45522988683
 20
-932.0808797518784
 10
10592.45522988683
 20
-889.5808797518748
 42
0.4142135623730951
 10
10582.45522988683
 20
-879.5808797518748
 10
10477.45522988683
 20
-879.5808797518784
 42
0.4142135623730951
 10
10467.45522988683
 20
-889.5808797518784
 10
10467.45522988683
 20
-932.0808797518749
 42
0.4142135623730951
 10
10477.45522988683
 20
-942.0808797518748
 10
10492.45522988683
 20
-942.0808797518748
  0
DIMENSION
  5
5088
102
{ACAD_XDICTIONARY
360
5089
102
}
102
{ACAD_REACTORS
330
508A
102
}
330
18
100
AcDbEntity
  8
KOTIERUNG
 48
0.3
100
AcDbDimension
  2
*D167
 10
10743.90692489909
 20
-823.1911849498846
 30
0.0
 11
10717.56330279814
 21
-716.501730647462
 31
0.0
 70
    32
  1
897%%P40
 71
     5
 42
213.3789086048419
  3
TYPENBLATT
100
AcDbAlignedDimension
 13
10592.45522988683
 23
-609.8122763450428
 33
0.0
 14
10592.45522988683
 24
-823.1911849498846
 34
0.0
 50
90.0
100
AcDbRotatedDimension
1001
ACAD
1000
DSTYLE
1002
{
1070
    40
1040
130.0
1070
    47
1040
40.0
1070
    48
1040
40.0
1070
    71
1070
     1
1070
    77
1070
     1
1070
   147
1040
0.075
1070
   272
1070
     0
1002
}
  0
LINE
  5
57F9
330
18
100
AcDbEntity
  8
KOTIERUNG
100
AcDbLine
 10
13648.67674117496
 20
-2327.353979893574
 30
0.0
 11
13648.67674117496
 21
-1813.465984730531
 31
0.0
  0
LINE
  5
57FB
330
18
100
AcDbEntity
  8
KOTIERUNG
100
AcDbLine
 10
13773.67674117496
 20
-1938.465984730531
 30
0.0
 11
15107.20451438471
 21
-1938.465984730531
 31
0.0
  0
SOLID
  5
57FC
330
18
100
AcDbEntity
  8
KOTIERUNG
100
AcDbTrace
 10
13773.67674117496
 20
-1917.632651397198
 30
0.0
 11
13773.67674117496
 21
-1959.299318063864
 31
0.0
 12
13648.67674117496
 22
-1938.465984730531
 32
0.0
 13
13648.67674117496
 23
-1938.465984730531
 33
0.0
  0
MTEXT
  5
57FE
102
{ACAD_XDICTIONARY
360
B550
102
}
330
18
100
AcDbEntity
  8
KOTIERUNG
100
AcDbMText
 10
14348.67674117496
 20
-1837.14436126532
 30
0.0
 40
125.0
 41
0.0
 71
     5
 72
     1
  1
\A1;3800\U+00B19
  7
VOEST
 73
     1
 44
1.0
  0
LINE
  5
5803
330
18
100
AcDbEntity
  8
KOTIERUNG
100
AcDbLine
 10
9848.676741174962
 20
-2327.353979893489
 30
0.0
 11
9848.676741174962
 21
-1813.465984730531
 31
0.0
  0
LINE
  5
5804
330
18
100
AcDbEntity
  8
KOTIERUNG
100
AcDbLine
 10
8390.148967965217
 20
-1938.465984730532
 30
0.0
 11
9723.676741174962
 21
-1938.465984730531
 31
0.0
  0
SOLID
  5
5806
330
18
100
AcDbEntity
  8
KOTIERUNG
100
AcDbTrace
 10
9723.676741174962
 20
-1917.632651397198
 30
0.0
 11
9723.676741174962
 21
-1959.299318063864
 31
0.0
 12
9848.676741174962
 22
-1938.465984730531
 32
0.0
 13
9848.676741174962
 23
-1938.465984730531
 33
0.0
  0
MTEXT
  5
5807
102
{ACAD_XDICTIONARY
360
B552
102
}
330
18
100
AcDbEntity
  8
KOTIERUNG
100
AcDbMText
 10
9148.676741174961
 20
-1837.14436126532
 30
0.0
 40
125.0
 41
0.0
 71
     5
 72
     1
  1
\A1;3800\U+00B19
  7
VOEST
 73
     1
 44
1.0
  0
HATCH
  5
5880
330
18
100
AcDbEntity
  8
18
100
AcDbHatch
 10
0.0
 20
0.0
 30
0.0
210
0.0
220
0.0
230
1.0
  2
ANSI31
 70
     0
 71
     0
 91
        7
 92
        7
 72
     0
 73
     1
 93
        4
 10
11069.95522988682
 20
-609.8122763450427
 10
10592.45522988683
 20
-609.8122763450428
 10
10592.45522988683
 20
-649.8122763450428
 10
11069.95522988683
 20
-649.8122763450427
 97
        0
 92
        7
 72
     0
 73
     1
 93
        4
 10
10467.45522988683
 20
-609.812276345043
 10
9989.955229886831
 20
-609.812276345043
 10
9989.955229886831
 20
-649.8122763450431
 10
10467.45522988683
 20
-649.8122763450429
 97
        0
 92
        7
 72
     0
 73
     1
 93
        4
 10
10472.45522988683
 20
-609.812276345043
 10
10467.45522988683
 20
-609.812276345043
 10
10467.45522988683
 20
-649.8122763450429
 10
10472.45522988683
 20
-649.8122763450429
 97
        0
 92
        7
 72
     0
 73
     1
 93
        4
 10
10492.45522988683
 20
-609.812276345043
 10
10472.45522988683
 20
-609.812276345043
 10
10472.45522988683
 20
-649.8122763450429
 10
10492.45522988683
 20
-649.8122763450429
 97
        0
 92
        7
 72
     0
 73
     1
 93
        4
 10
10567.45522988683
 20
-609.8122763450427
 10
10492.45522988683
 20
-609.8122763450426
 10
10492.45522988683
 20
-649.8122763450429
 10
10567.45522988683
 20
-649.8122763450429
 97
        0
 92
        7
 72
     0
 73
     1
 93
        4
 10
10587.45522988683
 20
-609.8122763450427
 10
10567.45522988683
 20
-609.8122763450426
 10
10567.45522988683
 20
-649.8122763450428
 10
10587.45522988683
 20
-649.8122763450428
 97
        0
 92
        7
 72
     0
 73
     1
 93
        4
 10
10592.45522988683
 20
-609.8122763450428
 10
10587.45522988683
 20
-609.8122763450428
 10
10587.45522988683
 20
-649.8122763450428
 10
10592.45522988683
 20
-649.8122763450428
 97
        0
 75
     0
 76
     1
 52
0.0
 41
100.0
 77
     0
 78
     1
 53
45.0
 43
0.0
 44
0.0
 45
-8.838834764831842
 46
8.838834764831844
 79
     0
 47
1.302314655085145
 98
        7
 10
10682.37063451582
 20
-638.2716488394508
 10
10420.63812118317
 20
-639.1361767993221
 10
10470.64980896726
 20
-627.3557711772518
 10
10477.65780308928
 20
-624.1718839472668
 10
10520.0243989072
 20
-624.1718839472668
 10
10575.76988512499
 20
-624.1718839472668
 10
10589.14877552485
 20
-624.808661393261
1001
ACAD
1010
0.0
1020
0.0
1030
0.0
  0
DIMENSION
  5
8D55
330
18
100
AcDbEntity
  8
KOTIERUNG
100
AcDbDimension
  2
*D171
 10
10467.45522988683
 20
-172.1586089998964
 30
0.0
 11
10307.42351187457
 21
-145.8149868989414
 31
0.0
 70
    32
 71
     5
 42
320.0634360245167
  3
TYPENBLATT
100
AcDbAlignedDimension
 13
10147.39179386231
 23
-22.16145181269879
 33
0.0
 14
10467.45522988683
 24
-22.16145181269879
 34
0.0
100
AcDbRotatedDimension
1001
ACAD
1000
DSTYLE
1002
{
1070
    40
1040
130.0
1070
    47
1040
20.0
1070
    48
1040
20.0
1070
    71
1070
     1
1070
    77
1070
     1
1070
   147
1040
0.075
1070
   272
1070
     0
1002
}
  0
DIMENSION
  5
8D74
330
18
100
AcDbEntity
  8
KOTIERUNG
100
AcDbDimension
  2
*D172
 10
10592.45522988683
 20
-172.1586089998964
 30
0.0
 11
10529.95522988683
 21
-145.8149868989414
 31
0.0
 70
    32
 71
     5
 42
125.0
  3
TYPENBLATT
100
AcDbAlignedDimension
 13
10467.45522988683
 23
-22.16145181269879
 33
0.0
 14
10592.45522988683
 24
-22.16145181269879
 34
0.0
100
AcDbRotatedDimension
1001
ACAD
1000
DSTYLE
1002
{
1070
    72
1070
     0
1070
    40
1040
130.0
1070
    47
1040
20.0
1070
    48
1040
20.0
1070
    71
1070
     0
1070
    77
1070
     1
1070
   147
1040
0.075
1070
   272
1070
     0
1002
}
  0
LWPOLYLINE
  5
8F00
330
18
100
AcDbEntity
  8
25
100
AcDbPolyline
 90
        4
 70
     1
 43
0.0
 10
10538.95522988681
 20
143.209148792039
 10
10538.95522988681
 20
161.209148792039
 42
0.9999999999999998
 10
10520.95522988681
 20
161.209148792039
 10
10520.95522988681
 20
143.209148792039
 42
0.9999999999999998
  0
LWPOLYLINE
  5
8F01
330
18
100
AcDbEntity
  8
25
100
AcDbPolyline
 90
        4
 70
     1
 43
0.0
 10
10538.95522988681
 20
43.18772365495735
 10
10538.95522988681
 20
61.18772365495735
 42
0.9999999999999998
 10
10520.95522988681
 20
61.18772365495735
 10
10520.95522988681
 20
43.18772365495735
 42
0.9999999999999998
  0
LINE
  5
B2B8
330
18
100
AcDbEntity
  8
35
100
AcDbLine
 10
10222.39179386231
 20
260.1877236549571
 30
0.0
 11
10156.01627144941
 21
223.2134393578344
 31
0.0
  0
ARC
  5
B2B9
330
18
100
AcDbEntity
  8
35
100
AcDbCircle
 10
10164.19179386231
 20
208.5368991226118
 30
0.0
 40
16.80000000000132
100
AcDbArc
 50
119.1198612229166
 51
179.9999999999889
  0
LINE
  5
B2BA
330
18
100
AcDbEntity
  8
35
100
AcDbLine
 10
10147.39179386231
 20
208.5368991226151
 30
0.0
 11
10147.39179386231
 21
179.5102457819593
 31
0.0
  0
ARC
  5
B2BB
330
18
100
AcDbEntity
  8
35
100
AcDbCircle
 10
10164.19179386231
 20
179.5102457819604
 30
0.0
 40
16.79999999999927
100
AcDbArc
 50
180.0000000000036
 51
240.6274267981051
  0
LINE
  5
B2BC
330
18
100
AcDbEntity
  8
35
100
AcDbLine
 10
10155.9516180104
 20
164.8699076052098
 30
0.0
 11
10212.45860707223
 21
133.0654833419139
 31
0.0
  0
ARC
  5
B2BD
330
18
100
AcDbEntity
  8
35
100
AcDbCircle
 10
10205.59179386231
 20
120.8652015279544
 30
0.0
 40
14.00000000000004
100
AcDbArc
 50
0.0000000000093636
 51
60.6274267981086
  0
LINE
  5
B2BE
330
18
100
AcDbEntity
  8
35
100
AcDbLine
 10
10219.59179386231
 20
120.8652015279567
 30
0.0
 11
10219.59179386231
 21
93.18772365495716
 31
0.0
  0
LINE
  5
B2BF
330
18
100
AcDbEntity
  8
35
100
AcDbLine
 10
10219.59179386231
 20
93.18772365495716
 30
0.0
 11
10219.59179386231
 21
65.51024578195939
 31
0.0
  0
ARC
  5
B2C0
330
18
100
AcDbEntity
  8
35
100
AcDbCircle
 10
10205.59179386231
 20
65.51024578196167
 30
0.0
 40
14.0
100
AcDbArc
 50
299.3725732018914
 51
359.9999999999906
  0
LINE
  5
B2C1
330
18
100
AcDbEntity
  8
35
100
AcDbLine
 10
10212.45860707223
 20
53.3099639680022
 30
0.0
 11
10155.9516180104
 21
21.50553970470537
 31
0.0
  0
ARC
  5
B2C2
330
18
100
AcDbEntity
  8
35
100
AcDbCircle
 10
10164.19179386231
 20
6.865201527955249
 30
0.0
 40
16.79999999999931
100
AcDbArc
 50
119.3725732018956
 51
179.9999999999949
  0
LINE
  5
B2C3
330
18
100
AcDbEntity
  8
35
100
AcDbLine
 10
10147.39179386231
 20
6.865201527956742
 30
0.0
 11
10147.39179386231
 21
-22.16145181269894
 31
0.0
  0
ARC
  5
B2C4
330
18
100
AcDbEntity
  8
35
100
AcDbCircle
 10
10164.19179386231
 20
-22.16145181269879
 30
0.0
 40
16.79999999999927
100
AcDbArc
 50
180.0000000000005
 51
240.8801387770729
  0
LINE
  5
B2C5
330
18
100
AcDbEntity
  8
35
100
AcDbLine
 10
10156.0162714494
 20
-36.83799204791831
 30
0.0
 11
10222.39179386231
 21
-73.81227634504284
 31
0.0
  0
LINE
  5
B2D0
330
18
100
AcDbEntity
  8
25
100
AcDbLine
 10
10157.79731023119
 20
221.0004465815546
 30
0.0
 11
10214.58154328412
 21
252.6319321076844
 31
0.0
  0
LINE
  5
B2DA
330
18
100
AcDbEntity
  8
25
100
AcDbLine
 10
10157.79731023119
 20
-34.62499927163845
 30
0.0
 11
10214.58154328412
 21
-66.25648479776828
 31
0.0
  0
LINE
  5
B2E0
330
18
100
AcDbEntity
  8
25
100
AcDbLine
 10
10214.59179386231
 20
113.187723654958
 30
0.0
 11
10214.59179386231
 21
73.18772365495807
 31
0.0
  0
LINE
  5
B2F1
330
18
100
AcDbEntity
  8
35
100
AcDbLine
 10
10837.51866591132
 20
260.1877236549571
 30
0.0
 11
10903.89418832422
 21
223.2134393578344
 31
0.0
  0
ARC
  5
B2F2
330
18
100
AcDbEntity
  8
35
100
AcDbCircle
 10
10895.71866591132
 20
208.5368991226114
 30
0.0
 40
16.80000000000261
100
AcDbArc
 50
0.0000000000094993
 51
60.88013877707876
  0
LINE
  5
B2F3
330
18
100
AcDbEntity
  8
35
100
AcDbLine
 10
10912.51866591132
 20
208.5368991226141
 30
0.0
 11
10912.51866591132
 21
179.5102457819593
 31
0.0
  0
ARC
  5
B2F4
330
18
100
AcDbEntity
  8
35
100
AcDbCircle
 10
10895.71866591132
 20
179.5102457819604
 30
0.0
 40
16.79999999999927
100
AcDbArc
 50
299.3725732018948
 51
359.9999999999964
  0
LINE
  5
B2F5
330
18
100
AcDbEntity
  8
35
100
AcDbLine
 10
10903.95884176323
 20
164.8699076052098
 30
0.0
 11
10847.45185270139
 21
133.0654833419139
 31
0.0
  0
ARC
  5
B2F6
330
18
100
AcDbEntity
  8
35
100
AcDbCircle
 10
10854.31866591131
 20
120.8652015279544
 30
0.0
 40
14.00000000000004
100
AcDbArc
 50
119.3725732018914
 51
179.9999999999906
  0
LINE
  5
B2F7
330
18
100
AcDbEntity
  8
35
100
AcDbLine
 10
10840.31866591131
 20
120.8652015279567
 30
0.0
 11
10840.31866591131
 21
93.18772365495716
 31
0.0
  0
LINE
  5
B2F8
330
18
100
AcDbEntity
  8
35
100
AcDbLine
 10
10840.31866591131
 20
93.18772365495716
 30
0.0
 11
10840.31866591131
 21
65.51024578195939
 31
0.0
  0
ARC
  5
B2F9
330
18
100
AcDbEntity
  8
35
100
AcDbCircle
 10
10854.31866591131
 20
65.51024578196167
 30
0.0
 40
14.0
100
AcDbArc
 50
180.0000000000093
 51
240.6274267981086
  0
LINE
  5
B2FA
330
18
100
AcDbEntity
  8
35
100
AcDbLine
 10
10847.45185270139
 20
53.3099639680022
 30
0.0
 11
10903.95884176323
 21
21.50553970470537
 31
0.0
  0
ARC
  5
B2FB
330
18
100
AcDbEntity
  8
35
100
AcDbCircle
 10
10895.71866591132
 20
6.865201527954794
 30
0.0
 40
16.79999999999971
100
AcDbArc
 50
0.000000000003541
 51
60.62742679810511
  0
LINE
  5
B2FC
330
18
100
AcDbEntity
  8
35
100
AcDbLine
 10
10912.51866591132
 20
6.865201527955832
 30
0.0
 11
10912.51866591132
 21
-22.16145181269894
 31
0.0
  0
ARC
  5
B2FD
330
18
100
AcDbEntity
  8
35
100
AcDbCircle
 10
10895.71866591132
 20
-22.1614518126957
 30
0.0
 40
16.80000000000109
100
AcDbArc
 50
299.1198612229166
 51
359.9999999999889
  0
LINE
  5
B2FE
330
18
100
AcDbEntity
  8
35
100
AcDbLine
 10
10903.89418832422
 20
-36.83799204791831
 30
0.0
 11
10837.51866591132
 21
-73.81227634504284
 31
0.0
  0
LINE
  5
B313
330
18
100
AcDbEntity
  8
25
100
AcDbLine
 10
10902.11314954245
 20
221.0004465815546
 30
0.0
 11
10845.32891648951
 21
252.6319321076844
 31
0.0
  0
LINE
  5
B317
330
18
100
AcDbEntity
  8
25
100
AcDbLine
 10
10902.11314954245
 20
-34.62499927163845
 30
0.0
 11
10845.32891648951
 21
-66.25648479776828
 31
0.0
  0
LINE
  5
B320
330
18
100
AcDbEntity
  8
35
100
AcDbLine
 10
10467.45522988681
 20
-288.8122763450429
 30
0.0
 11
10467.45522988681
 21
-250.8122763450428
 31
0.0
  0
ARC
  5
B321
330
18
100
AcDbEntity
  8
35
100
AcDbCircle
 10
10458.4552298868
 20
-250.8122763450426
 30
0.0
 40
9.0
100
AcDbArc
 50
359.9999999999986
 51
119.9999999999994
  0
LINE
  5
B322
330
18
100
AcDbEntity
  8
35
100
AcDbLine
 10
10453.95522988681
 20
-243.0180477109825
 30
0.0
 11
10411.95522988681
 21
-267.2667590169458
 31
0.0
  0
ARC
  5
B323
330
18
100
AcDbEntity
  8
35
100
AcDbCircle
 10
10416.4552298868
 20
-275.060987651006
 30
0.0
 40
9.000000000000197
100
AcDbArc
 50
119.9999999999993
 51
180.0000000000011
  0
LINE
  5
B324
330
18
100
AcDbEntity
  8
35
100
AcDbLine
 10
10407.45522988681
 20
-275.0609876510061
 30
0.0
 11
10407.45522988681
 21
-364.5635650390777
 31
0.0
  0
ARC
  5
B325
330
18
100
AcDbEntity
  8
35
100
AcDbCircle
 10
10416.4552298868
 20
-364.563565039078
 30
0.0
 40
9.0
100
AcDbArc
 50
179.9999999999985
 51
240.0000000000005
  0
LINE
  5
B326
330
18
100
AcDbEntity
  8
35
100
AcDbLine
 10
10411.95522988681
 20
-372.3577936731381
 30
0.0
 11
10453.95522988681
 21
-396.6065049791023
 31
0.0
  0
ARC
  5
B327
330
18
100
AcDbEntity
  8
35
100
AcDbCircle
 10
10458.4552298868
 20
-388.8122763450425
 30
0.0
 40
8.999999999999802
100
AcDbArc
 50
239.9999999999993
 51
359.9999999999982
  0
LINE
  5
B328
330
18
100
AcDbEntity
  8
35
100
AcDbLine
 10
10467.45522988681
 20
-388.8122763450429
 30
0.0
 11
10467.45522988681
 21
-350.8122763450428
 31
0.0
  0
LINE
  5
B331
330
18
100
AcDbEntity
  8
25
100
AcDbLine
 10
10464.45522988681
 20
-250.8122763450428
 30
0.0
 11
10464.45522988681
 21
-365.8122763450429
 31
0.0
  0
LINE
  5
B338
330
18
100
AcDbEntity
  8
35
100
AcDbLine
 10
10592.45522988683
 20
-288.8122763450429
 30
0.0
 11
10592.45522988683
 21
-250.8122763450428
 31
0.0
  0
ARC
  5
B339
330
18
100
AcDbEntity
  8
35
100
AcDbCircle
 10
10601.45522988683
 20
-250.8122763450426
 30
0.0
 40
9.0
100
AcDbArc
 50
60.00000000000054
 51
180.0000000000014
  0
LINE
  5
B33A
330
18
100
AcDbEntity
  8
35
100
AcDbLine
 10
10605.95522988683
 20
-243.0180477109825
 30
0.0
 11
10647.95522988683
 21
-267.2667590169458
 31
0.0
  0
ARC
  5
B33B
330
18
100
AcDbEntity
  8
35
100
AcDbCircle
 10
10643.45522988683
 20
-275.060987651006
 30
0.0
 40
9.000000000000197
100
AcDbArc
 50
359.9999999999989
 51
60.00000000000071
  0
LINE
  5
B33C
330
18
100
AcDbEntity
  8
35
100
AcDbLine
 10
10652.45522988683
 20
-275.0609876510061
 30
0.0
 11
10652.45522988683
 21
-364.5635650390777
 31
0.0
  0
ARC
  5
B33D
330
18
100
AcDbEntity
  8
35
100
AcDbCircle
 10
10643.45522988683
 20
-364.563565039078
 30
0.0
 40
9.0
100
AcDbArc
 50
299.9999999999994
 51
0.0000000000014475
  0
LINE
  5
B33E
330
18
100
AcDbEntity
  8
35
100
AcDbLine
 10
10647.95522988683
 20
-372.3577936731381
 30
0.0
 11
10605.95522988683
 21
-396.6065049791023
 31
0.0
  0
ARC
  5
B33F
330
18
100
AcDbEntity
  8
35
100
AcDbCircle
 10
10601.45522988683
 20
-388.8122763450425
 30
0.0
 40
8.999999999999802
100
AcDbArc
 50
180.0000000000018
 51
300.0000000000007
  0
LINE
  5
B340
330
18
100
AcDbEntity
  8
35
100
AcDbLine
 10
10592.45522988683
 20
-388.8122763450429
 30
0.0
 11
10592.45522988683
 21
-350.8122763450428
 31
0.0
  0
LINE
  5
B349
330
18
100
AcDbEntity
  8
25
100
AcDbLine
 10
10595.45522988683
 20
-250.8122763450428
 30
0.0
 11
10595.45522988683
 21
-365.8122763450429
 31
0.0
  0
LINE
  5
B34F
330
18
100
AcDbEntity
  8
18
100
AcDbLine
 10
9805.676741175256
 20
-2710.544089548119
 30
0.0
 11
9895.640705600875
 21
-2710.544089548006
 31
0.0
  0
ARC
  5
B350
330
18
100
AcDbEntity
  8
18
100
AcDbCircle
 10
9895.640705600959
 20
-2700.544089548158
 30
0.0
 40
9.999999999848569
100
AcDbArc
 50
269.999999999531
 51
325.7493602996914
  0
ARC
  5
B351
330
18
100
AcDbEntity
  8
18
100
AcDbCircle
 10
9737.743572226438
 20
-2593.033177899778
 30
0.0
 40
201.0238227323981
100
AcDbArc
 50
325.7493603001604
 51
34.26574097239662
  0
ARC
  5
B352
330
18
100
AcDbEntity
  8
18
100
AcDbCircle
 10
9895.612363795931
 20
-2485.480653523897
 30
0.0
 40
10.00000000016393
100
AcDbArc
 50
34.26574097192704
 51
89.99999999953102
  0
LINE
  5
B353
330
18
100
AcDbEntity
  8
18
100
AcDbLine
 10
9895.612363796011
 20
-2475.480653523733
 30
0.0
 11
9805.676741175256
 21
-2475.48065352362
 31
0.0
  0
LINE
  5
B35A
330
18
100
AcDbEntity
  8
18
100
AcDbLine
 10
9891.676741175249
 20
-2480.48065352369
 30
0.0
 11
9801.741118554485
 21
-2480.480653523802
 31
0.0
  0
ARC
  5
B35B
330
18
100
AcDbEntity
  8
18
100
AcDbCircle
 10
9801.741118554488
 20
-2490.480653523793
 30
0.0
 40
9.999999999990905
100
AcDbArc
 50
90.00000000002083
 51
145.7342590276257
  0
ARC
  5
B35C
330
18
100
AcDbEntity
  8
18
100
AcDbCircle
 10
9959.609910124221
 20
-2598.033177899848
 30
0.0
 40
201.0238227325212
100
AcDbArc
 50
145.7342590275785
 51
214.2506396998146
  0
ARC
  5
B35D
330
18
100
AcDbEntity
  8
18
100
AcDbCircle
 10
9801.712776749555
 20
-2705.544089548219
 30
0.0
 40
9.999999999856303
100
AcDbArc
 50
214.2506397003191
 51
270.0000000004794
  0
LINE
  5
B35E
330
18
100
AcDbEntity
  8
18
100
AcDbLine
 10
9801.712776749639
 20
-2715.544089548075
 30
0.0
 11
9891.676741175249
 21
-2715.544089548188
 31
0.0
  0
LINE
  5
B365
330
18
100
AcDbEntity
  8
18
100
AcDbLine
 10
9891.676741174746
 20
-2855.544089548152
 30
0.0
 11
9801.712776749127
 21
-2855.544089548268
 31
0.0
  0
ARC
  5
B366
330
18
100
AcDbEntity
  8
18
100
AcDbCircle
 10
9801.712776749043
 20
-2865.544089548117
 30
0.0
 40
9.999999999848569
100
AcDbArc
 50
89.99999999953102
 51
145.7493602996913
  0
ARC
  5
B367
330
18
100
AcDbEntity
  8
18
100
AcDbCircle
 10
9959.609910123564
 20
-2973.055001196496
 30
0.0
 40
201.0238227323978
100
AcDbArc
 50
145.7493603001606
 51
214.2657409723965
  0
ARC
  5
B368
330
18
100
AcDbEntity
  8
18
100
AcDbCircle
 10
9801.741118554069
 20
-3080.607525572375
 30
0.0
 40
10.0000000001632
100
AcDbArc
 50
214.2657409719394
 51
269.9999999995414
  0
LINE
  5
B369
330
18
100
AcDbEntity
  8
18
100
AcDbLine
 10
9801.741118553991
 20
-3090.607525572537
 30
0.0
 11
9891.676741174746
 21
-3090.607525572654
 31
0.0
  0
ARC
  5
B36E
330
18
100
AcDbEntity
  8
18
100
AcDbCircle
 10
9737.743572225781
 20
-2968.055001196426
 30
0.0
 40
201.0238227325211
100
AcDbArc
 50
325.7342590275785
 51
34.25063969981457
  0
ARC
  5
B36F
330
18
100
AcDbEntity
  8
18
100
AcDbCircle
 10
9895.612363795514
 20
-3075.607525572481
 30
0.0
 40
9.999999999990407
100
AcDbArc
 50
270.0000000000208
 51
325.7342590276258
  0
LINE
  5
B370
330
18
100
AcDbEntity
  8
18
100
AcDbLine
 10
9895.612363795518
 20
-3085.607525572472
 30
0.0
 11
9805.676741174753
 21
-3085.607525572581
 31
0.0
  0
LINE
  5
B378
330
18
100
AcDbEntity
  8
18
100
AcDbLine
 10
9805.676741174753
 20
-2850.544089548086
 30
0.0
 11
9895.640705600374
 21
-2850.544089548196
 31
0.0
  0
ARC
  5
B379
330
18
100
AcDbEntity
  8
18
100
AcDbCircle
 10
9895.640705600369
 20
-2860.544089548186
 30
0.0
 40
9.999999999990905
100
AcDbArc
 50
34.25063969980994
 51
89.99999999996873
  0
LINE
  5
B393
330
18
100
AcDbEntity
  8
18
100
AcDbLine
 10
11791.67674117524
 20
-2480.48065352369
 30
0.0
 11
11701.74111855448
 21
-2480.480653523802
 31
0.0
  0
ARC
  5
B394
330
18
100
AcDbEntity
  8
18
100
AcDbCircle
 10
11701.74111855449
 20
-2490.480653523793
 30
0.0
 40
9.999999999990905
100
AcDbArc
 50
90.00000000002605
 51
145.7342590276265
  0
ARC
  5
B395
330
18
100
AcDbEntity
  8
18
100
AcDbCircle
 10
11859.60991012422
 20
-2598.033177899848
 30
0.0
 40
201.0238227325212
100
AcDbArc
 50
145.7342590275796
 51
214.2506396998119
  0
ARC
  5
B396
330
18
100
AcDbEntity
  8
18
100
AcDbCircle
 10
11701.71277674955
 20
-2705.544089548219
 30
0.0
 40
9.999999999856303
100
AcDbArc
 50
214.2506397003179
 51
270.000000000482
  0
LINE
  5
B397
330
18
100
AcDbEntity
  8
18
100
AcDbLine
 10
11701.71277674964
 20
-2715.544089548075
 30
0.0
 11
11791.67674117524
 21
-2715.544089548188
 31
0.0
  0
LINE
  5
B398
330
18
100
AcDbEntity
  8
18
100
AcDbLine
 10
11705.67674117525
 20
-2710.544089548119
 30
0.0
 11
11795.64070560087
 21
-2710.544089548006
 31
0.0
  0
ARC
  5
B399
330
18
100
AcDbEntity
  8
18
100
AcDbCircle
 10
11795.64070560096
 20
-2700.544089548158
 30
0.0
 40
9.999999999848569
100
AcDbArc
 50
269.999999999531
 51
325.7493602996892
  0
ARC
  5
B39A
330
18
100
AcDbEntity
  8
18
100
AcDbCircle
 10
11637.74357222643
 20
-2593.033177899778
 30
0.0
 40
201.0238227323981
100
AcDbArc
 50
325.7493603001637
 51
34.26574097239603
  0
ARC
  5
B39B
330
18
100
AcDbEntity
  8
18
100
AcDbCircle
 10
11795.61236379593
 20
-2485.480653523897
 30
0.0
 40
10.00000000016393
100
AcDbArc
 50
34.26574097192861
 51
89.99999999953102
  0
LINE
  5
B39C
330
18
100
AcDbEntity
  8
18
100
AcDbLine
 10
11795.61236379601
 20
-2475.480653523733
 30
0.0
 11
11705.67674117525
 21
-2475.48065352362
 31
0.0
  0
ARC
  5
B39D
330
18
100
AcDbEntity
  8
18
100
AcDbCircle
 10
11637.74357222578
 20
-2968.055001196426
 30
0.0
 40
201.0238227325211
100
AcDbArc
 50
325.7342590275797
 51
34.25063969981188
  0
ARC
  5
B39E
330
18
100
AcDbEntity
  8
18
100
AcDbCircle
 10
11795.61236379551
 20
-3075.607525572481
 30
0.0
 40
9.999999999990407
100
AcDbArc
 50
270.000000000026
 51
325.7342590276266
  0
LINE
  5
B39F
330
18
100
AcDbEntity
  8
18
100
AcDbLine
 10
11795.61236379552
 20
-3085.607525572472
 30
0.0
 11
11705.67674117475
 21
-3085.607525572581
 31
0.0
  0
LINE
  5
B3A0
330
18
100
AcDbEntity
  8
18
100
AcDbLine
 10
11705.67674117475
 20
-2850.544089548086
 30
0.0
 11
11795.64070560037
 21
-2850.544089548196
 31
0.0
  0
ARC
  5
B3A1
330
18
100
AcDbEntity
  8
18
100
AcDbCircle
 10
11795.64070560037
 20
-2860.544089548186
 30
0.0
 40
9.999999999990905
100
AcDbArc
 50
34.25063969980872
 51
89.99999999997395
  0
LINE
  5
B3A2
330
18
100
AcDbEntity
  8
18
100
AcDbLine
 10
11791.67674117474
 20
-2855.544089548152
 30
0.0
 11
11701.71277674912
 21
-2855.544089548268
 31
0.0
  0
ARC
  5
B3A3
330
18
100
AcDbEntity
  8
18
100
AcDbCircle
 10
11701.71277674904
 20
-2865.544089548117
 30
0.0
 40
9.999999999848569
100
AcDbArc
 50
89.99999999953102
 51
145.7493602996892
  0
ARC
  5
B3A4
330
18
100
AcDbEntity
  8
18
100
AcDbCircle
 10
11859.60991012356
 20
-2973.055001196496
 30
0.0
 40
201.0238227323978
100
AcDbArc
 50
145.7493603001638
 51
214.2657409723959
  0
ARC
  5
B3A5
330
18
100
AcDbEntity
  8
18
100
AcDbCircle
 10
11701.74111855407
 20
-3080.607525572375
 30
0.0
 40
10.0000000001632
100
AcDbArc
 50
214.265740971937
 51
269.9999999995441
  0
LINE
  5
B3A6
330
18
100
AcDbEntity
  8
18
100
AcDbLine
 10
11701.74111855399
 20
-3090.607525572537
 30
0.0
 11
11791.67674117474
 21
-3090.607525572654
 31
0.0
  0
LINE
  5
B3A7
330
18
100
AcDbEntity
  8
18
100
AcDbLine
 10
13691.67674117525
 20
-2480.48065352369
 30
0.0
 11
13601.74111855448
 21
-2480.480653523802
 31
0.0
  0
ARC
  5
B3A8
330
18
100
AcDbEntity
  8
18
100
AcDbCircle
 10
13601.74111855449
 20
-2490.480653523793
 30
0.0
 40
9.999999999990905
100
AcDbArc
 50
90.00000000002605
 51
145.7342590276265
  0
ARC
  5
B3A9
330
18
100
AcDbEntity
  8
18
100
AcDbCircle
 10
13759.60991012422
 20
-2598.033177899848
 30
0.0
 40
201.0238227325212
100
AcDbArc
 50
145.7342590275796
 51
214.2506396998119
  0
ARC
  5
B3AA
330
18
100
AcDbEntity
  8
18
100
AcDbCircle
 10
13601.71277674955
 20
-2705.544089548219
 30
0.0
 40
9.999999999856303
100
AcDbArc
 50
214.2506397003179
 51
270.000000000469
  0
LINE
  5
B3AB
330
18
100
AcDbEntity
  8
18
100
AcDbLine
 10
13601.71277674964
 20
-2715.544089548075
 30
0.0
 11
13691.67674117525
 21
-2715.544089548188
 31
0.0
  0
LINE
  5
B3AC
330
18
100
AcDbEntity
  8
18
100
AcDbLine
 10
13605.67674117525
 20
-2710.544089548119
 30
0.0
 11
13695.64070560087
 21
-2710.544089548006
 31
0.0
  0
ARC
  5
B3AD
330
18
100
AcDbEntity
  8
18
100
AcDbCircle
 10
13695.64070560095
 20
-2700.544089548158
 30
0.0
 40
9.999999999848569
100
AcDbArc
 50
269.999999999531
 51
325.7493602996892
  0
ARC
  5
B3AE
330
18
100
AcDbEntity
  8
18
100
AcDbCircle
 10
13537.74357222644
 20
-2593.033177899778
 30
0.0
 40
201.0238227323981
100
AcDbArc
 50
325.7493603001563
 51
34.26574097240337
  0
ARC
  5
B3AF
330
18
100
AcDbEntity
  8
18
100
AcDbCircle
 10
13695.61236379593
 20
-2485.480653523897
 30
0.0
 40
10.00000000016393
100
AcDbArc
 50
34.26574097192128
 51
89.99999999953102
  0
LINE
  5
B3B0
330
18
100
AcDbEntity
  8
18
100
AcDbLine
 10
13695.61236379601
 20
-2475.480653523733
 30
0.0
 11
13605.67674117525
 21
-2475.48065352362
 31
0.0
  0
ARC
  5
B3B1
330
18
100
AcDbEntity
  8
18
100
AcDbCircle
 10
13537.74357222578
 20
-2968.055001196426
 30
0.0
 40
201.0238227325211
100
AcDbArc
 50
325.7342590275797
 51
34.25063969981188
  0
ARC
  5
B3B2
330
18
100
AcDbEntity
  8
18
100
AcDbCircle
 10
13695.61236379551
 20
-3075.607525572481
 30
0.0
 40
9.999999999990407
100
AcDbArc
 50
270.000000000026
 51
325.7342590276266
  0
LINE
  5
B3B3
330
18
100
AcDbEntity
  8
18
100
AcDbLine
 10
13695.61236379551
 20
-3085.607525572472
 30
0.0
 11
13605.67674117475
 21
-3085.607525572581
 31
0.0
  0
LINE
  5
B3B4
330
18
100
AcDbEntity
  8
18
100
AcDbLine
 10
13605.67674117475
 20
-2850.544089548086
 30
0.0
 11
13695.64070560037
 21
-2850.544089548196
 31
0.0
  0
ARC
  5
B3B5
330
18
100
AcDbEntity
  8
18
100
AcDbCircle
 10
13695.64070560037
 20
-2860.544089548186
 30
0.0
 40
9.999999999990905
100
AcDbArc
 50
34.25063969980872
 51
89.99999999997395
  0
LINE
  5
B3B6
330
18
100
AcDbEntity
  8
18
100
AcDbLine
 10
13691.67674117474
 20
-2855.544089548152
 30
0.0
 11
13601.71277674912
 21
-2855.544089548268
 31
0.0
  0
ARC
  5
B3B7
330
18
100
AcDbEntity
  8
18
100
AcDbCircle
 10
13601.71277674904
 20
-2865.544089548117
 30
0.0
 40
9.999999999848569
100
AcDbArc
 50
89.99999999953102
 51
145.7493602996892
  0
ARC
  5
B3B8
330
18
100
AcDbEntity
  8
18
100
AcDbCircle
 10
13759.60991012356
 20
-2973.055001196496
 30
0.0
 40
201.0238227323978
100
AcDbArc
 50
145.7493603001564
 51
214.2657409724033
  0
ARC
  5
B3B9
330
18
100
AcDbEntity
  8
18
100
AcDbCircle
 10
13601.74111855407
 20
-3080.607525572375
 30
0.0
 40
10.0000000001632
100
AcDbArc
 50
214.2657409719443
 51
269.999999999531
  0
LINE
  5
B3BA
330
18
100
AcDbEntity
  8
18
100
AcDbLine
 10
13601.74111855399
 20
-3090.607525572537
 30
0.0
 11
13691.67674117474
 21
-3090.607525572654
 31
0.0
  0
VIEWPORT
  5
B3F1
102
{ACAD_XDICTIONARY
360
B3F2
102
}
330
B3EA
100
AcDbEntity
 67
     1
  8
0
100
AcDbViewport
 10
5.647083793099471
 20
3.865416556831419
 30
0.0
 40
15.64082456647378
 41
8.746133096049151
 68
     1
 69
     1
 12
5.647083793099471
 22
3.865416556831419
 13
0.0
 23
0.0
 14
10.0
 24
10.0
 15
10.0
 25
10.0
 16
0.0
 26
0.0
 36
1.0
 17
0.0
 27
0.0
 37
0.0
 42
50.0
 43
0.0
 44
0.0
 45
8.746133096049151
 50
0.0
 51
0.0
 72
   100
 90
   819232
  1

281
     0
 71
     1
 74
     0
110
0.0
120
0.0
130
0.0
111
1.0
121
0.0
131
0.0
112
0.0
122
1.0
132
0.0
 79
     0
146
0.0
170
     0
  0
ENDSEC
  0
SECTION
  2
OBJECTS
  0
DICTIONARY
  5
C
330
0
100
AcDbDictionary
281
     1
  3
ACAD_2007HEADERVARS_RT
350
B4B8
  3
ACAD_COLOR
350
1ACC
  3
ACAD_GROUP
350
D
  3
ACAD_IMAGE_DICT
350
1BA2
  3
ACAD_IMAGE_VARS
350
1BA3
  3
ACAD_LAYOUT
350
16EC
  3
ACAD_MATERIAL
350
1ACB
  3
ACAD_MLEADERSTYLE
350
3200
  3
ACAD_MLINESTYLE
350
1B
  3
ACAD_PLOTSETTINGS
350
16ED
  3
ACAD_PLOTSTYLENAME
350
16EA
  3
ACAD_SCALELIST
350
31DE
  3
ACAD_TABLESTYLE
350
208A
  3
ACAD_VISUALSTYLE
350
2AEB
  3
ACDB_RECOMPOSE_DATA
350
33BA
  3
ACDBVARIABLEDICTIONARY
350
1109
  3
CONTENTDICTIONARY
350
23
  0
DICTIONARY
  5
2D31
330
8
100
AcDbDictionary
280
     1
281
     1
  0
DICTIONARY
  5
209B
330
2
100
AcDbDictionary
280
     1
281
     1
  3
ACAD_LAYERSTATES
360
209C
  0
DICTIONARY
  5
32B8
330
E
100
AcDbDictionary
280
     1
281
     1
  3
ADSK_XREC_LAYER_RECONCILED
360
32B9
  0
DICTIONARY
  5
32BA
330
4A
100
AcDbDictionary
280
     1
281
     1
  3
ADSK_XREC_LAYER_RECONCILED
360
32BB
  0
DICTIONARY
  5
32BC
330
12F
100
AcDbDictionary
280
     1
281
     1
  3
ADSK_XREC_LAYER_RECONCILED
360
32BD
  0
DICTIONARY
  5
32BE
330
1DA
100
AcDbDictionary
280
     1
281
     1
  3
ADSK_XREC_LAYER_RECONCILED
360
32BF
  0
DICTIONARY
  5
32C0
330
224
100
AcDbDictionary
280
     1
281
     1
  3
ADSK_XREC_LAYER_RECONCILED
360
32C1
  0
DICTIONARY
  5
32C2
330
226
100
AcDbDictionary
280
     1
281
     1
  3
ADSK_XREC_LAYER_RECONCILED
360
32C3
  0
DICTIONARY
  5
32C4
330
425
100
AcDbDictionary
280
     1
281
     1
  3
ADSK_XREC_LAYER_RECONCILED
360
32C5
  0
DICTIONARY
  5
32C6
330
471
100
AcDbDictionary
280
     1
281
     1
  3
ADSK_XREC_LAYER_RECONCILED
360
32C7
  0
DICTIONARY
  5
32C8
330
474
100
AcDbDictionary
280
     1
281
     1
  3
ADSK_XREC_LAYER_RECONCILED
360
32C9
  0
DICTIONARY
  5
32CA
330
12F9
100
AcDbDictionary
280
     1
281
     1
  3
ADSK_XREC_LAYER_RECONCILED
360
32CB
  0
DICTIONARY
  5
32CC
330
14E1
100
AcDbDictionary
280
     1
281
     1
  3
ADSK_XREC_LAYER_RECONCILED
360
32CD
  0
DICTIONARY
  5
32CE
330
14EF
100
AcDbDictionary
280
     1
281
     1
  3
ADSK_XREC_LAYER_RECONCILED
360
32CF
  0
DICTIONARY
  5
32D0
330
18AE
100
AcDbDictionary
280
     1
281
     1
  3
ADSK_XREC_LAYER_RECONCILED
360
32D1
  0
DICTIONARY
  5
32D2
330
1A60
100
AcDbDictionary
280
     1
281
     1
  3
ADSK_XREC_LAYER_RECONCILED
360
32D3
  0
DICTIONARY
  5
32D4
330
1A61
100
AcDbDictionary
280
     1
281
     1
  3
ADSK_XREC_LAYER_RECONCILED
360
32D5
  0
DICTIONARY
  5
488A
330
4889
100
AcDbDictionary
280
     1
281
     1
  0
DICTIONARY
  5
57FF
330
18
100
AcDbDictionary
280
     1
281
     1
  3
ACAD_SORTENTS
360
5800
  0
DICTIONARY
  5
6995
330
6992
100
AcDbDictionary
280
     1
281
     1
  3
ACAD_SORTENTS
360
6996
  0
DICTIONARY
  5
B556
330
B1B6
100
AcDbDictionary
280
     1
281
     1
  3
ACAD_MTEXT_2008_RT
360
B557
  0
DICTIONARY
  5
B554
330
B1AD
100
AcDbDictionary
280
     1
281
     1
  3
ACAD_MTEXT_2008_RT
360
B555
  0
DICTIONARY
  5
B560
330
B2CB
100
AcDbDictionary
280
     1
281
     1
  3
ACAD_MTEXT_2008_RT
360
B561
  0
DICTIONARY
  5
B562
330
B304
100
AcDbDictionary
280
     1
281
     1
  3
ACAD_MTEXT_2008_RT
360
B563
  0
DICTIONARY
  5
B564
330
B30E
100
AcDbDictionary
280
     1
281
     1
  3
ACAD_MTEXT_2008_RT
360
B565
  0
DICTIONARY
  5
B558
330
B1DB
100
AcDbDictionary
280
     1
281
     1
  3
ACAD_MTEXT_2008_RT
360
B559
  0
DICTIONARY
  5
B55A
330
B1E4
100
AcDbDictionary
280
     1
281
     1
  3
ACAD_MTEXT_2008_RT
360
B55B
  0
DICTIONARY
  5
B55C
330
B1ED
100
AcDbDictionary
280
     1
281
     1
  3
ACAD_MTEXT_2008_RT
360
B55D
  0
DICTIONARY
  5
B55E
330
B1FF
100
AcDbDictionary
280
     1
281
     1
  3
ACAD_MTEXT_2008_RT
360
B55F
  0
DICTIONARY
  5
4D14
330
4D13
100
AcDbDictionary
280
     1
281
     1
  3
ACAD_DIMASSOC
360
4D15
  0
DICTIONARY
  5
4ECF
330
4ECE
100
AcDbDictionary
280
     1
281
     1
  3
ACAD_DIMASSOC
360
4ED0
  0
DICTIONARY
  5
5089
330
5088
100
AcDbDictionary
280
     1
281
     1
  3
ACAD_DIMASSOC
360
508A
  0
DICTIONARY
  5
B550
330
57FE
100
AcDbDictionary
280
     1
281
     1
  3
ACAD_MTEXT_2008_RT
360
B551
  0
DICTIONARY
  5
B552
330
5807
100
AcDbDictionary
280
     1
281
     1
  3
ACAD_MTEXT_2008_RT
360
B553
  0
DICTIONARY
  5
B3F2
330
B3F1
100
AcDbDictionary
280
     1
281
     1
  3
ASDK_XREC_ANNOTATION_SCALE_INFO
360
B3F3
  0
DICTIONARY
  5
B4B8
102
{ACAD_REACTORS
330
C
102
}
330
C
100
AcDbDictionary
281
     1
  3
DIMFXL
350
B4B9
  3
DIMJOGANG
350
B4BA
  0
DICTIONARY
  5
1ACC
102
{ACAD_REACTORS
330
C
102
}
330
C
100
AcDbDictionary
281
     1
  0
DICTIONARY
  5
D
102
{ACAD_REACTORS
330
C
102
}
330
C
100
AcDbDictionary
281
     1
  3
*A1
350
1B1
  3
*A10
350
95B
  3
*A11
350
95C
  3
*A12
350
95D
  3
*A13
350
1B2
  3
*A14
350
1C3
  3
*A2
350
1D2
  3
*A3
350
46A
  3
*A4
350
46B
  3
*A5
350
95A
  3
*A6
350
1A48
  3
*A7
350
1A49
  3
*A8
350
1A4A
  3
*A9
350
1A4B
  0
DICTIONARY
  5
1BA2
102
{ACAD_REACTORS
330
C
102
}
330
C
100
AcDbDictionary
281
     1
  3
KB1 MH2 Damm explosion_3D
350
1C7D
  3
KB1 MH2 Damm_3D
350
1C7A
  0
RASTERVARIABLES
  5
1BA3
102
{ACAD_REACTORS
330
C
102
}
330
C
100
AcDbRasterVariables
 90
        0
 70
     1
 71
     1
 72
     0
  0
DICTIONARY
  5
16EC
102
{ACAD_REACTORS
330
C
102
}
330
C
100
AcDbDictionary
281
     1
  3
Layout1
350
B3EB
  3
Model
350
16EE
  0
DICTIONARY
  5
1ACB
102
{ACAD_REACTORS
330
C
102
}
330
C
100
AcDbDictionary
281
     1
  3
ByBlock
350
2AE9
  3
ByLayer
350
2AE8
  3
Global
350
2AEA
  0
DICTIONARY
  5
3200
102
{ACAD_REACTORS
330
C
102
}
330
C
100
AcDbDictionary
281
     1
  3
Standard
350
3201
  0
DICTIONARY
  5
1B
102
{ACAD_REACTORS
330
C
102
}
330
C
100
AcDbDictionary
281
     1
  3
STANDARD
350
1C
  0
DICTIONARY
  5
16ED
102
{ACAD_REACTORS
330
C
102
}
330
C
100
AcDbDictionary
281
     1
  0
ACDBDICTIONARYWDFLT
  5
16EA
102
{ACAD_REACTORS
330
C
102
}
330
C
100
AcDbDictionary
281
     1
  3
Normal
350
16EB
100
AcDbDictionaryWithDefault
340
16EB
  0
DICTIONARY
  5
31DE
102
{ACAD_REACTORS
330
C
102
}
330
C
100
AcDbDictionary
281
     1
  3
A0
350
31DF
  3
A1
350
31E0
  3
A2
350
31E1
  3
A3
350
31E2
  3
A4
350
31E3
  3
A5
350
31E4
  3
A6
350
31E5
  3
A7
350
31E6
  3
A8
350
31E7
  3
A9
350
31E8
  3
B0
350
31E9
  3
B1
350
31EA
  3
B2
350
31EB
  3
B3
350
31EC
  3
B4
350
31ED
  3
B5
350
31EE
  3
B6
350
31EF
  3
B7
350
31F0
  3
B8
350
31F1
  3
B9
350
31F2
  3
C0
350
31F3
  3
C1
350
31F4
  3
C2
350
31F5
  3
C3
350
31F6
  3
C4
350
31F7
  3
C5
350
31F8
  3
C6
350
31F9
  3
C7
350
31FA
  3
C8
350
31FB
  3
C9
350
31FC
  3
D0
350
31FD
  3
D1
350
31FE
  3
D2
350
31FF
  0
DICTIONARY
  5
208A
102
{ACAD_REACTORS
330
C
102
}
330
C
100
AcDbDictionary
281
     1
  3
Standard
350
208B
  0
DICTIONARY
  5
2AEB
102
{ACAD_REACTORS
330
C
102
}
330
C
100
AcDbDictionary
281
     1
  3
2dWireframe
350
2AF1
  3
3D Hidden
350
2AF3
  3
3dWireframe
350
2AF2
  3
Basic
350
2AF0
  3
Brighten
350
2AF7
  3
ColorChange
350
2AFB
  3
Conceptual
350
2AF4
  3
Dim
350
2AF6
  3
Facepattern
350
2AFA
  3
Flat
350
2AEC
  3
FlatWithEdges
350
2AED
  3
Gouraud
350
2AEE
  3
GouraudWithEdges
350
2AEF
  3
Linepattern
350
2AF9
  3
Realistic
350
2AF5
  3
Thicken
350
2AF8
  0
XRECORD
  5
33BA
102
{ACAD_REACTORS
330
C
102
}
330
C
100
AcDbXrecord
280
     1
 90
        1
330
208B
  0
DICTIONARY
  5
1109
102
{ACAD_REACTORS
330
C
102
}
330
C
100
AcDbDictionary
281
     1
  3
CANNOSCALE
350
345B
  3
CMLEADERSTYLE
350
345A
  3
CTABLESTYLE
350
20AD
  3
LAYEREVAL
350
B3BE
  3
LAYERNOTIFY
350
B3BF
  3
LIGHTINGUNITS
350
B3BD
  3
MSLTSCALE
350
B3BC
  3
SORTENTS
350
110A
  0
DICTIONARY
  5
23
102
{ACAD_REACTORS
330
C
102
}
330
C
100
AcDbDictionary
281
     1
  0
DICTIONARY
  5
209C
102
{ACAD_REACTORS
330
209B
102
}
330
209B
100
AcDbDictionary
281
     1
  0
XRECORD
  5
32B9
102
{ACAD_REACTORS
330
32B8
102
}
330
32B8
100
AcDbXrecord
280
     1
290
     1
  0
XRECORD
  5
32BB
102
{ACAD_REACTORS
330
32BA
102
}
330
32BA
100
AcDbXrecord
280
     1
290
     1
  0
XRECORD
  5
32BD
102
{ACAD_REACTORS
330
32BC
102
}
330
32BC
100
AcDbXrecord
280
     1
290
     1
  0
XRECORD
  5
32BF
102
{ACAD_REACTORS
330
32BE
102
}
330
32BE
100
AcDbXrecord
280
     1
290
     1
  0
XRECORD
  5
32C1
102
{ACAD_REACTORS
330
32C0
102
}
330
32C0
100
AcDbXrecord
280
     1
290
     1
  0
XRECORD
  5
32C3
102
{ACAD_REACTORS
330
32C2
102
}
330
32C2
100
AcDbXrecord
280
     1
290
     1
  0
XRECORD
  5
32C5
102
{ACAD_REACTORS
330
32C4
102
}
330
32C4
100
AcDbXrecord
280
     1
290
     1
  0
XRECORD
  5
32C7
102
{ACAD_REACTORS
330
32C6
102
}
330
32C6
100
AcDbXrecord
280
     1
290
     1
  0
XRECORD
  5
32C9
102
{ACAD_REACTORS
330
32C8
102
}
330
32C8
100
AcDbXrecord
280
     1
290
     1
  0
XRECORD
  5
32CB
102
{ACAD_REACTORS
330
32CA
102
}
330
32CA
100
AcDbXrecord
280
     1
290
     1
  0
XRECORD
  5
32CD
102
{ACAD_REACTORS
330
32CC
102
}
330
32CC
100
AcDbXrecord
280
     1
290
     1
  0
XRECORD
  5
32CF
102
{ACAD_REACTORS
330
32CE
102
}
330
32CE
100
AcDbXrecord
280
     1
290
     1
  0
XRECORD
  5
32D1
102
{ACAD_REACTORS
330
32D0
102
}
330
32D0
100
AcDbXrecord
280
     1
290
     1
  0
XRECORD
  5
32D3
102
{ACAD_REACTORS
330
32D2
102
}
330
32D2
100
AcDbXrecord
280
     1
290
     1
  0
XRECORD
  5
32D5
102
{ACAD_REACTORS
330
32D4
102
}
330
32D4
100
AcDbXrecord
280
     1
290
     1
  0
SORTENTSTABLE
  5
5800
102
{ACAD_REACTORS
330
57FF
102
}
330
57FF
100
AcDbSortentsTable
330
18
331
4CB6
  5
B2EC
331
4D3D
  5
B31E
331
57FB
  5
B36F
331
4EBC
  5
B355
331
4D45
  5
B326
331
B2C0
  5
57FA
331
5803
  5
B372
331
4EC4
  5
B35D
331
4CDE
  5
B2FE
331
B317
  5
B342
331
B2D0
  5
B343
331
B327
  5
B33B
331
B35E
  5
4C99
331
B366
  5
4D99
331
4C97
  5
4EAE
331
4C9F
  5
4EC0
331
4D0E
  5
B317
331
B2E0
  5
B340
331
4EEC
  5
B36B
331
4CAF
  5
B2DC
331
B36E
  5
4D09
331
B2F8
  5
B2BC
331
B2B9
  5
4EE5
331
B33F
  5
B332
331
4CB7
  5
B2ED
331
4D3E
  5
B31F
331
B2C1
  5
57FB
331
57FC
  5
B370
331
4EBD
  5
B356
331
5804
  5
B373
331
4CDF
  5
B312
331
4EC5
  5
B35E
331
B320
  5
B334
331
B34F
  5
4CB7
331
B367
  5
4D9A
331
4C98
  5
4EAF
331
4D5E
  5
B329
331
4CA0
  5
4EC1
331
4EE5
  5
B366
331
B2F1
  5
8D55
331
B328
  5
B33C
331
4DAE
  5
B33F
331
B2F9
  5
B2BD
331
B36F
  5
4D0A
331
B338
  5
B32B
331
B2BA
  5
4EEA
331
B340
  5
B333
331
4EAE
  5
B347
331
4CB8
  5
B2EE
331
4EB6
  5
B34F
331
4D3F
  5
B320
331
B2C2
  5
57FD
331
8D74
  5
B377
331
4EBE
  5
B357
331
4D47
  5
B327
331
4EC6
  5
B35F
331
B321
  5
B335
331
B350
  5
4CB9
331
B2DA
  5
B344
331
4C91
  5
4CDE
331
4CE0
  5
B313
331
4ECE
  5
B363
331
4C99
  5
4EBA
331
4D5F
  5
B32A
331
4EE6
  5
B367
331
B2F2
  5
8D74
331
B368
  5
4D9B
331
B370
  5
4D0B
331
8D55
  5
B376
331
B2FA
  5
B2BE
331
B331
  5
B345
331
B378
  5
4D66
331
B339
  5
B32C
331
B2BB
  5
4EEB
331
4CB1
  5
B2E1
331
4D20
  5
B319
331
4EAF
  5
B348
331
4CB9
  5
B2EF
331
4EB7
  5
B350
331
4D40
  5
B321
331
4CC1
  5
B2F9
331
57FE
  5
B371
331
4EBF
  5
B358
331
B2C3
  5
5803
331
5806
  5
B374
331
4EC7
  5
B360
331
B349
  5
B33D
331
B322
  5
B336
331
B351
  5
4CBA
331
10E0
  5
10E0
331
4C92
  5
4CDF
331
4CE1
  5
B314
331
4C9A
  5
4EBB
331
4CA2
  5
5807
331
B369
  5
4D9C
331
B2F3
  5
8F00
331
B2FB
  5
B2C3
331
B379
  5
4D67
331
B33A
  5
B32D
331
B2BC
  5
4EEC
331
4EB0
  5
B349
331
4CBA
  5
B2F0
331
4D39
  5
B31A
331
4D41
  5
B322
331
4EC0
  5
B359
331
B2C4
  5
5804
331
5807
  5
B375
331
B313
  5
B341
331
B323
  5
B337
331
B352
  5
4CBB
331
B35A
  5
4C95
331
4D51
  5
B328
331
4C93
  5
4CE0
331
4C9B
  5
4EBC
331
4CEA
  5
B315
331
4CA3
  5
5852
331
B2F4
  5
8F01
331
B2FC
  5
B2C4
331
B33B
  5
B32E
331
B2BD
  5
4F69
331
4CB3
  5
B2E6
331
5088
  5
B36D
331
4EB1
  5
B34A
331
4CBB
  5
B2F6
331
4D3A
  5
B31B
331
4D42
  5
B323
331
4EC1
  5
B35A
331
B2C5
  5
5806
331
5880
  5
4DB0
331
B324
  5
B338
331
B353
  5
4CC1
331
B35B
  5
4C96
331
4ED1
  5
B364
331
4C9C
  5
4EBD
331
4CA4
  5
5853
331
4EE9
  5
B368
331
4D13
  5
B318
331
B2F5
  5
8F02
331
B2FD
  5
B2C5
331
B33C
  5
B32F
331
B2BE
  5
5085
331
4F69
  5
B36C
331
4D3B
  5
B31C
331
57F9
  5
B36E
331
4D43
  5
B324
331
8F00
  5
B378
331
4EC2
  5
B35B
331
4CDC
  5
B2FC
331
B325
  5
B339
331
B35C
  5
4C97
331
4ECA
  5
B361
331
4ED2
  5
B365
331
4C9D
  5
4EBE
331
4EEA
  5
B369
331
B2F6
  5
B2BA
331
B2FE
  5
B2CF
331
B33D
  5
B330
331
B2BF
  5
5088
331
4EAB
  5
B346
331
4CB5
  5
B2E9
331
4D3C
  5
B31D
331
4D44
  5
B325
331
8F01
  5
B379
331
4EC3
  5
B35C
331
4CDD
  5
B2FD
331
B326
  5
B33A
331
B35D
  5
4C98
331
B365
  5
4D98
331
4ECB
  5
B362
331
4C96
  5
4EAD
331
4C9E
  5
4EBF
331
4D9C
  5
B33E
331
4D0D
  5
B316
331
4EEB
  5
B36A
331
B2F7
  5
B2BB
331
B2B8
  5
4EC2
331
B33E
  5
B331
  0
SORTENTSTABLE
  5
6996
102
{ACAD_REACTORS
330
6995
102
}
330
6995
100
AcDbSortentsTable
330
6992
  0
XRECORD
  5
B557
102
{ACAD_REACTORS
330
B556
102
}
330
B556
100
AcDbXrecord
280
     1
 40
7660.0
  1
\A1;290±40
  0
XRECORD
  5
B555
102
{ACAD_REACTORS
330
B554
102
}
330
B554
100
AcDbXrecord
280
     1
 40
7657.0
  1
\A1;803±40
  0
XRECORD
  5
B561
102
{ACAD_REACTORS
330
B560
102
}
330
B560
100
AcDbXrecord
280
     1
 40
7678.0
  1
\A1;870±40
  0
XRECORD
  5
B563
102
{ACAD_REACTORS
330
B562
102
}
330
B562
100
AcDbXrecord
280
     1
 40
7672.0
  1
\A1;765±20
  0
XRECORD
  5
B565
102
{ACAD_REACTORS
330
B564
102
}
330
B564
100
AcDbXrecord
280
     1
 40
6095.0
  1
\A1;67±5
  0
XRECORD
  5
B559
102
{ACAD_REACTORS
330
B558
102
}
330
B558
100
AcDbXrecord
280
     1
 40
7838.0
  1
\A1;3800±9
  0
XRECORD
  5
B55B
102
{ACAD_REACTORS
330
B55A
102
}
330
B55A
100
AcDbXrecord
280
     1
 40
8538.0
  1
\A1;1900±20
  0
XRECORD
  5
B55D
102
{ACAD_REACTORS
330
B55C
102
}
330
B55C
100
AcDbXrecord
280
     1
 40
8538.0
  1
\A1;1900±20
  0
XRECORD
  5
B55F
102
{ACAD_REACTORS
330
B55E
102
}
330
B55E
100
AcDbXrecord
280
     1
 40
7593.0
  1
\A1;320±20
  0
DIMASSOC
  5
4D15
102
{ACAD_REACTORS
330
4D14
102
}
330
4D14
100
AcDbDimAssoc
330
4D13
 90
        2
 70
     0
 71
     0
  1
AcDbOsnapPointRef
 72
     8
331
4CB6
 73
     2
 91
        0
 40
0.2663655288502865
 10
0.0
 20
0.0
 30
0.0
 75
     1
  1
AcDbOsnapPointRef
 72
     1
331
0
 73
     2
 91
       16
 40
1.0
 10
0.0
 20
0.0
 30
2.000000000000000E+50
 75
     0
  0
DIMASSOC
  5
4ED0
102
{ACAD_REACTORS
330
4ECF
102
}
330
4ECF
100
AcDbDimAssoc
330
4ECE
 90
        2
 70
     0
 71
     0
  1
AcDbOsnapPointRef
 72
    13
331
4EC2
 73
     2
 91
        0
 40
0.0
 10
0.0
 20
0.0
 30
2.000000000000000E+50
 75
     0
  0
DIMASSOC
  5
508A
102
{ACAD_REACTORS
330
5089
102
}
330
5089
100
AcDbDimAssoc
330
5088
 90
        3
 70
     0
 71
     0
  1
AcDbOsnapPointRef
 72
     1
331
4D3D
 73
     2
 91
        0
 40
1.0
 10
0.0
 20
0.0
 30
2.000000000000000E+50
 75
     0
  1
AcDbOsnapPointRef
 72
     1
331
4CB9
 73
     2
 91
        0
 40
1.0
 10
0.0
 20
0.0
 30
2.000000000000000E+50
 75
     0
  0
XRECORD
  5
B551
102
{ACAD_REACTORS
330
B550
102
}
330
B550
100
AcDbXrecord
280
     1
 40
7838.0
  1
\A1;3800±9
  0
XRECORD
  5
B553
102
{ACAD_REACTORS
330
B552
102
}
330
B552
100
AcDbXrecord
280
     1
 40
7838.0
  1
\A1;3800±9
  0
XRECORD
  5
B3F3
102
{ACAD_REACTORS
330
B3F2
102
}
330
B3F2
100
AcDbXrecord
280
     1
 90
        1
340
31DF
  0
XRECORD
  5
B4B9
102
{ACAD_REACTORS
330
B4B8
102
}
330
B4B8
100
AcDbXrecord
280
     1
 40
10.0
  0
XRECORD
  5
B4BA
102
{ACAD_REACTORS
330
B4B8
102
}
330
B4B8
100
AcDbXrecord
280
     1
 40
1.570796326794896
  0
GROUP
  5
1B1
102
{ACAD_REACTORS
330
D
102
}
330
D
100
AcDbGroup
300

 70
     1
 71
     1
  0
GROUP
  5
95B
102
{ACAD_REACTORS
330
D
102
}
330
D
100
AcDbGroup
300

 70
     1
 71
     1
  0
GROUP
  5
95C
102
{ACAD_REACTORS
330
D
102
}
330
D
100
AcDbGroup
300

 70
     1
 71
     1
  0
GROUP
  5
95D
102
{ACAD_REACTORS
330
D
102
}
330
D
100
AcDbGroup
300

 70
     1
 71
     1
  0
GROUP
  5
1B2
102
{ACAD_REACTORS
330
D
102
}
330
D
100
AcDbGroup
300

 70
     1
 71
     1
  0
GROUP
  5
1C3
102
{ACAD_REACTORS
330
D
102
}
330
D
100
AcDbGroup
300

 70
     1
 71
     1
  0
GROUP
  5
1D2
102
{ACAD_REACTORS
330
D
102
}
330
D
100
AcDbGroup
300

 70
     1
 71
     1
  0
GROUP
  5
46A
102
{ACAD_REACTORS
330
D
102
}
330
D
100
AcDbGroup
300

 70
     1
 71
     1
  0
GROUP
  5
46B
102
{ACAD_REACTORS
330
D
102
}
330
D
100
AcDbGroup
300

 70
     1
 71
     1
  0
GROUP
  5
95A
102
{ACAD_REACTORS
330
D
102
}
330
D
100
AcDbGroup
300

 70
     1
 71
     1
  0
GROUP
  5
1A48
102
{ACAD_REACTORS
330
D
102
}
330
D
100
AcDbGroup
300

 70
     1
 71
     1
  0
GROUP
  5
1A49
102
{ACAD_REACTORS
330
D
102
}
330
D
100
AcDbGroup
300

 70
     1
 71
     1
  0
GROUP
  5
1A4A
102
{ACAD_REACTORS
330
D
102
}
330
D
100
AcDbGroup
300

 70
     1
 71
     1
  0
GROUP
  5
1A4B
102
{ACAD_REACTORS
330
D
102
}
330
D
100
AcDbGroup
300

 70
     1
 71
     1
  0
IMAGEDEF
  5
1C7D
102
{ACAD_REACTORS
330
1BA2
102
}
330
1BA2
100
AcDbRasterImageDef
 90
        0
  1
T:\Prospekt\Leitschienen\Bitmaps\S1\KB1 MH2 Damm explosions_3D.png
 10
1600.0
 20
1280.0
 11
0.0846668360003387
 21
0.0846668360003387
280
     1
281
     2
  0
IMAGEDEF
  5
1C7A
102
{ACAD_REACTORS
330
1BA2
102
}
330
1BA2
100
AcDbRasterImageDef
 90
        0
  1
T:\Prospekt\Leitschienen\Bitmaps\S1\KB1 MH2 Damm_3D.png
 10
1600.0
 20
1280.0
 11
0.0846668360003387
 21
0.0846668360003387
280
     1
281
     2
  0
LAYOUT
  5
B3EB
102
{ACAD_XDICTIONARY
360
B3FB
102
}
102
{ACAD_REACTORS
330
16EC
102
}
330
16EC
100
AcDbPlotSettings
  1

  2
\\2217psvak001.voestalpine.root.local\2217PRVAKF009.vakf.net
  4
A4
  6

 40
6.805083274841308
 41
5.027085781097412
 42
6.974411010742187
 43
5.027069091796875
 44
209.9733276367187
 45
296.9259948730469
 46
0.0
 47
0.0
 48
0.0
 49
0.0
140
0.0
141
0.0
142
1.0
143
1.0
 70
   688
 72
     0
 73
     1
 74
     5
  7
monochrome.ctb
 75
    16
147
1.0
 76
     0
 77
     2
 78
   300
148
0.0
149
0.0
100
AcDbLayout
  1
Layout1
 70
     1
 71
     1
 10
-0.1979161059762549
 20
-0.2679166643638311
 11
11.4920836921752
 21
7.99874977802667
 12
0.0
 22
0.0
 32
0.0
 14
1.000000000000000E+20
 24
1.000000000000000E+20
 34
1.000000000000000E+20
 15
-1.000000000000000E+20
 25
-1.000000000000000E+20
 35
-1.000000000000000E+20
146
0.0
 13
0.0
 23
0.0
 33
0.0
 16
1.0
 26
0.0
 36
0.0
 17
0.0
 27
1.0
 37
0.0
 76
     0
330
B3EA
331
B3F1
1001
ACAD_PSEXT
1000
\\2217psvak001.voestalpine.root.local\2217PRVAKF009.vakf.net
1000
NRG DSm730 PCL 5e
1000
vakf - BG EG18 Gang - Straßensicherheit
1000
BG EG18 Gang / Zickbauer
1070
     0
  0
LAYOUT
  5
16EE
102
{ACAD_REACTORS
330
16EC
102
}
330
16EC
100
AcDbPlotSettings
  1

  2
\\VAKF3\Lexmark Optra R Plus Series lex4 FS
  4

  6

 40
0.0
 41
0.0
 42
0.0
 43
0.0
 44
0.0
 45
0.0
 46
0.0
 47
0.0
 48
0.0
 49
0.0
140
0.0
141
0.0
142
1.0
143
1.0
 70
  1712
 72
     0
 73
     0
 74
     0
  7

 75
     0
147
1.0
 76
     0
 77
     2
 78
   300
148
0.0
149
0.0
100
AcDbLayout
  1
Model
 70
     1
 71
     0
 10
0.0
 20
0.0
 11
12.0
 21
9.0
 12
0.0
 22
0.0
 32
0.0
 14
0.0
 24
0.0
 34
0.0
 15
0.0
 25
0.0
 35
0.0
146
0.0
 13
0.0
 23
0.0
 33
0.0
 16
1.0
 26
0.0
 36
0.0
 17
0.0
 27
1.0
 37
0.0
 76
     0
330
18
331
2A99
  0
MATERIAL
  5
2AE9
102
{ACAD_XDICTIONARY
360
B4BE
102
}
102
{ACAD_REACTORS
330
1ACB
102
}
330
1ACB
100
AcDbMaterial
  1
ByBlock
 73
     1
 78
     1
172
     1
176
     1
270
     1
274
     1
  0
MATERIAL
  5
2AE8
102
{ACAD_XDICTIONARY
360
B4BC
102
}
102
{ACAD_REACTORS
330
1ACB
102
}
330
1ACB
100
AcDbMaterial
  1
ByLayer
 73
     1
 78
     1
172
     1
176
     1
270
     1
274
     1
  0
MATERIAL
  5
2AEA
102
{ACAD_XDICTIONARY
360
B4C0
102
}
102
{ACAD_REACTORS
330
1ACB
102
}
330
1ACB
100
AcDbMaterial
  1
Global
 73
     1
 78
     1
172
     1
176
     1
270
     1
274
     1
  0
MLEADERSTYLE
  5
3201
102
{ACAD_REACTORS
330
3200
102
}
330
3200
100
AcDbMLeaderStyle
170
     2
171
     1
172
     0
 90
        2
 40
0.0
 41
0.0
173
     1
 91
-1056964608
340
12
 92
       -2
290
     1
 42
0.09
291
     1
 43
0.36
  3
Standard
 44
0.18
300

342
F
174
     1
178
     6
175
     1
176
     0
 93
-1056964608
 45
0.18
292
     0
297
     0
 46
0.18
 94
-1056964608
 47
1.0
 49
1.0
140
1.0
293
     1
141
0.0
294
     1
177
     0
142
1.0
295
     0
296
     0
143
0.125
1001
ACAD_MLEADERVER
1070
     2
  0
MLINESTYLE
  5
1C
102
{ACAD_REACTORS
330
1B
102
}
330
1B
100
AcDbMlineStyle
  2
STANDARD
 70
     0
  3

 62
   256
 51
90.0
 52
90.0
 71
     2
 49
0.5
 62
   256
  6
BYLAYER
 49
-0.5
 62
   256
  6
BYLAYER
  0
ACDBPLACEHOLDER
  5
16EB
102
{ACAD_REACTORS
330
16EA
102
}
330
16EA
  0
SCALE
  5
31DF
102
{ACAD_REACTORS
330
31DE
102
}
330
31DE
100
AcDbScale
 70
     0
300
1:1
140
1.0
141
1.0
290
     1
  0
SCALE
  5
31E0
102
{ACAD_REACTORS
330
31DE
102
}
330
31DE
100
AcDbScale
 70
     0
300
1:2
140
1.0
141
2.0
290
     0
  0
SCALE
  5
31E1
102
{ACAD_REACTORS
330
31DE
102
}
330
31DE
100
AcDbScale
 70
     0
300
1:4
140
1.0
141
4.0
290
     0
  0
SCALE
  5
31E2
102
{ACAD_REACTORS
330
31DE
102
}
330
31DE
100
AcDbScale
 70
     0
300
1:5
140
1.0
141
5.0
290
     0
  0
SCALE
  5
31E3
102
{ACAD_REACTORS
330
31DE
102
}
330
31DE
100
AcDbScale
 70
     0
300
1:8
140
1.0
141
8.0
290
     0
  0
SCALE
  5
31E4
102
{ACAD_REACTORS
330
31DE
102
}
330
31DE
100
AcDbScale
 70
     0
300
1:10
140
1.0
141
10.0
290
     0
  0
SCALE
  5
31E5
102
{ACAD_REACTORS
330
31DE
102
}
330
31DE
100
AcDbScale
 70
     0
300
1:16
140
1.0
141
16.0
290
     0
  0
SCALE
  5
31E6
102
{ACAD_REACTORS
330
31DE
102
}
330
31DE
100
AcDbScale
 70
     0
300
1:20
140
1.0
141
20.0
290
     0
  0
SCALE
  5
31E7
102
{ACAD_REACTORS
330
31DE
102
}
330
31DE
100
AcDbScale
 70
     0
300
1:30
140
1.0
141
30.0
290
     0
  0
SCALE
  5
31E8
102
{ACAD_REACTORS
330
31DE
102
}
330
31DE
100
AcDbScale
 70
     0
300
1:40
140
1.0
141
40.0
290
     0
  0
SCALE
  5
31E9
102
{ACAD_REACTORS
330
31DE
102
}
330
31DE
100
AcDbScale
 70
     0
300
1:50
140
1.0
141
50.0
290
     0
  0
SCALE
  5
31EA
102
{ACAD_REACTORS
330
31DE
102
}
330
31DE
100
AcDbScale
 70
     0
300
1:100
140
1.0
141
100.0
290
     0
  0
SCALE
  5
31EB
102
{ACAD_REACTORS
330
31DE
102
}
330
31DE
100
AcDbScale
 70
     0
300
2:1
140
2.0
141
1.0
290
     0
  0
SCALE
  5
31EC
102
{ACAD_REACTORS
330
31DE
102
}
330
31DE
100
AcDbScale
 70
     0
300
4:1
140
4.0
141
1.0
290
     0
  0
SCALE
  5
31ED
102
{ACAD_REACTORS
330
31DE
102
}
330
31DE
100
AcDbScale
 70
     0
300
8:1
140
8.0
141
1.0
290
     0
  0
SCALE
  5
31EE
102
{ACAD_REACTORS
330
31DE
102
}
330
31DE
100
AcDbScale
 70
     0
300
10:1
140
10.0
141
1.0
290
     0
  0
SCALE
  5
31EF
102
{ACAD_REACTORS
330
31DE
102
}
330
31DE
100
AcDbScale
 70
     0
300
100:1
140
100.0
141
1.0
290
     0
  0
SCALE
  5
31F0
102
{ACAD_REACTORS
330
31DE
102
}
330
31DE
100
AcDbScale
 70
     0
300
1/128" = 1'-0"
140
0.0078125
141
12.0
290
     0
  0
SCALE
  5
31F1
102
{ACAD_REACTORS
330
31DE
102
}
330
31DE
100
AcDbScale
 70
     0
300
1/64" = 1'-0"
140
0.015625
141
12.0
290
     0
  0
SCALE
  5
31F2
102
{ACAD_REACTORS
330
31DE
102
}
330
31DE
100
AcDbScale
 70
     0
300
1/32" = 1'-0"
140
0.03125
141
12.0
290
     0
  0
SCALE
  5
31F3
102
{ACAD_REACTORS
330
31DE
102
}
330
31DE
100
AcDbScale
 70
     0
300
1/16" = 1'-0"
140
0.0625
141
12.0
290
     0
  0
SCALE
  5
31F4
102
{ACAD_REACTORS
330
31DE
102
}
330
31DE
100
AcDbScale
 70
     0
300
3/32" = 1'-0"
140
0.09375
141
12.0
290
     0
  0
SCALE
  5
31F5
102
{ACAD_REACTORS
330
31DE
102
}
330
31DE
100
AcDbScale
 70
     0
300
1/8" = 1'-0"
140
0.125
141
12.0
290
     0
  0
SCALE
  5
31F6
102
{ACAD_REACTORS
330
31DE
102
}
330
31DE
100
AcDbScale
 70
     0
300
3/16" = 1'-0"
140
0.1875
141
12.0
290
     0
  0
SCALE
  5
31F7
102
{ACAD_REACTORS
330
31DE
102
}
330
31DE
100
AcDbScale
 70
     0
300
1/4" = 1'-0"
140
0.25
141
12.0
290
     0
  0
SCALE
  5
31F8
102
{ACAD_REACTORS
330
31DE
102
}
330
31DE
100
AcDbScale
 70
     0
300
3/8" = 1'-0"
140
0.375
141
12.0
290
     0
  0
SCALE
  5
31F9
102
{ACAD_REACTORS
330
31DE
102
}
330
31DE
100
AcDbScale
 70
     0
300
1/2" = 1'-0"
140
0.5
141
12.0
290
     0
  0
SCALE
  5
31FA
102
{ACAD_REACTORS
330
31DE
102
}
330
31DE
100
AcDbScale
 70
     0
300
3/4" = 1'-0"
140
0.75
141
12.0
290
     0
  0
SCALE
  5
31FB
102
{ACAD_REACTORS
330
31DE
102
}
330
31DE
100
AcDbScale
 70
     0
300
1" = 1'-0"
140
1.0
141
12.0
290
     0
  0
SCALE
  5
31FC
102
{ACAD_REACTORS
330
31DE
102
}
330
31DE
100
AcDbScale
 70
     0
300
1-1/2" = 1'-0"
140
1.5
141
12.0
290
     0
  0
SCALE
  5
31FD
102
{ACAD_REACTORS
330
31DE
102
}
330
31DE
100
AcDbScale
 70
     0
300
3" = 1'-0"
140
3.0
141
12.0
290
     0
  0
SCALE
  5
31FE
102
{ACAD_REACTORS
330
31DE
102
}
330
31DE
100
AcDbScale
 70
     0
300
6" = 1'-0"
140
6.0
141
12.0
290
     0
  0
SCALE
  5
31FF
102
{ACAD_REACTORS
330
31DE
102
}
330
31DE
100
AcDbScale
 70
     0
300
1'-0" = 1'-0"
140
12.0
141
12.0
290
     0
  0
TABLESTYLE
  5
208B
102
{ACAD_XDICTIONARY
360
33B8
102
}
102
{ACAD_REACTORS
330
208A
102
}
330
208A
100
AcDbTableStyle
  3
Standard
 70
     0
 71
     0
 40
0.06
 41
0.06
280
     0
281
     0
  7
STANDARD
140
0.18
170
     2
 62
     0
 63
     7
283
     0
274
    -2
284
     1
 64
     0
275
    -2
285
     1
 65
     0
276
    -2
286
     1
 66
     0
277
    -2
287
     1
 67
     0
278
    -2
288
     1
 68
     0
279
    -2
289
     1
 69
     0
  7
STANDARD
140
0.25
170
     5
 62
     0
 63
     7
283
     0
274
    -2
284
     1
 64
     0
275
    -2
285
     1
 65
     0
276
    -2
286
     1
 66
     0
277
    -2
287
     1
 67
     0
278
    -2
288
     1
 68
     0
279
    -2
289
     1
 69
     0
  7
STANDARD
140
0.18
170
     5
 62
     0
 63
     7
283
     0
274
    -2
284
     1
 64
     0
275
    -2
285
     1
 65
     0
276
    -2
286
     1
 66
     0
277
    -2
287
     1
 67
     0
278
    -2
288
     1
 68
     0
279
    -2
289
     1
 69
     0
  0
VISUALSTYLE
  5
2AF1
102
{ACAD_REACTORS
330
2AEB
102
}
330
2AEB
100
AcDbVisualStyle
  2
2dWireframe
 70
     4
 71
     0
 72
     2
 73
     0
 90
        0
 40
-0.6
 41
-30.0
 62
     5
 63
     7
421
 16777215
 74
     1
 91
        4
 64
     7
 65
   257
 75
     1
175
     1
 42
1.0
 92
        0
 66
   257
 43
1.0
 76
     1
 77
     6
 78
     2
 67
     7
 79
     5
170
     0
171
     0
290
     0
174
     0
 93
        1
 44
0.0
173
     0
291
     0
 45
0.0
1001
ACAD
1000
AcDbSavedByObjectVersion
1070
     0
  0
VISUALSTYLE
  5
2AF3
102
{ACAD_REACTORS
330
2AEB
102
}
330
2AEB
100
AcDbVisualStyle
  2
3D Hidden
 70
     6
 71
     1
 72
     2
 73
     2
 90
        0
 40
-0.6
 41
-30.0
 62
     5
 63
     7
421
 16777215
 74
     2
 91
        2
 64
     7
 65
   257
 75
     2
175
     1
 42
40.0
 92
        0
 66
   257
 43
1.0
 76
     1
 77
     6
 78
     2
 67
     7
 79
     3
170
     0
171
     0
290
     0
174
     0
 93
        1
 44
0.0
173
     0
291
     0
 45
0.0
1001
ACAD
1000
AcDbSavedByObjectVersion
1070
     0
  0
VISUALSTYLE
  5
2AF2
102
{ACAD_REACTORS
330
2AEB
102
}
330
2AEB
100
AcDbVisualStyle
  2
3dWireframe
 70
     5
 71
     0
 72
     2
 73
     0
 90
        0
 40
-0.6
 41
-30.0
 62
     5
 63
     7
421
 16777215
 74
     1
 91
        4
 64
     7
 65
   257
 75
     1
175
     1
 42
1.0
 92
        0
 66
   257
 43
1.0
 76
     1
 77
     6
 78
     2
 67
     7
 79
     5
170
     0
171
     0
290
     0
174
     0
 93
        1
 44
0.0
173
     0
291
     0
 45
0.0
1001
ACAD
1000
AcDbSavedByObjectVersion
1070
     0
  0
VISUALSTYLE
  5
2AF0
102
{ACAD_REACTORS
330
2AEB
102
}
330
2AEB
100
AcDbVisualStyle
  2
Basic
 70
     7
 71
     1
 72
     0
 73
     1
 90
        0
 40
-0.6
 41
-30.0
 62
     5
 63
     7
421
 16777215
 74
     0
 91
        4
 64
     7
 65
   257
 75
     1
175
     1
 42
1.0
 92
        8
 66
     7
 43
1.0
 76
     1
 77
     6
 78
     2
 67
     7
 79
     5
170
     0
171
     0
290
     0
174
     0
 93
        1
 44
0.0
173
     0
291
     1
 45
0.0
1001
ACAD
1000
AcDbSavedByObjectVersion
1070
     0
  0
VISUALSTYLE
  5
2AF7
102
{ACAD_REACTORS
330
2AEB
102
}
330
2AEB
100
AcDbVisualStyle
  2
Brighten
 70
    12
 71
     2
 72
     2
 73
     0
 90
        0
 40
-0.6
 41
-30.0
 62
     5
 63
     7
421
 16777215
 74
     1
 91
        4
 64
     7
 65
   257
 75
     1
175
     1
 42
1.0
 92
        8
 66
     7
 43
1.0
 76
     1
 77
     6
 78
     2
 67
     7
 79
     5
170
     0
171
     0
290
     0
174
     0
 93
        1
 44
50.0
173
     0
291
     1
 45
0.0
1001
ACAD
1000
AcDbSavedByObjectVersion
1070
     0
  0
VISUALSTYLE
  5
2AFB
102
{ACAD_REACTORS
330
2AEB
102
}
330
2AEB
100
AcDbVisualStyle
  2
ColorChange
 70
    16
 71
     2
 72
     2
 73
     3
 90
        0
 40
-0.6
 41
-30.0
 62
     5
 63
     8
421
  8421504
 74
     1
 91
        4
 64
     7
 65
   257
 75
     1
175
     1
 42
1.0
 92
        8
 66
     8
424
  8421504
 43
1.0
 76
     1
 77
     6
 78
     2
 67
     7
 79
     5
170
     0
171
     0
290
     0
174
     0
 93
        1
 44
0.0
173
     0
291
     1
 45
0.0
1001
ACAD
1000
AcDbSavedByObjectVersion
1070
     0
  0
VISUALSTYLE
  5
2AF4
102
{ACAD_REACTORS
330
2AEB
102
}
330
2AEB
100
AcDbVisualStyle
  2
Conceptual
 70
     9
 71
     3
 72
     2
 73
     0
 90
        0
 40
-0.6
 41
-30.0
 62
     5
 63
     7
421
 16777215
 74
     2
 91
        2
 64
     7
 65
   257
 75
     1
175
     1
 42
40.0
 92
        8
 66
     7
 43
1.0
 76
     1
 77
     6
 78
     2
 67
     7
 79
     3
170
     0
171
     0
290
     0
174
     0
 93
        1
 44
0.0
173
     0
291
     0
 45
0.0
1001
ACAD
1000
AcDbSavedByObjectVersion
1070
     0
  0
VISUALSTYLE
  5
2AF6
102
{ACAD_REACTORS
330
2AEB
102
}
330
2AEB
100
AcDbVisualStyle
  2
Dim
 70
    11
 71
     2
 72
     2
 73
     0
 90
        0
 40
-0.6
 41
-30.0
 62
     5
 63
     7
421
 16777215
 74
     1
 91
        4
 64
     7
 65
   257
 75
     1
175
     1
 42
1.0
 92
        8
 66
     7
 43
1.0
 76
     1
 77
     6
 78
     2
 67
     7
 79
     5
170
     0
171
     0
290
     0
174
     0
 93
        1
 44
-50.0
173
     0
291
     1
 45
0.0
1001
ACAD
1000
AcDbSavedByObjectVersion
1070
     0
  0
VISUALSTYLE
  5
2AFA
102
{ACAD_REACTORS
330
2AEB
102
}
330
2AEB
100
AcDbVisualStyle
  2
Facepattern
 70
    15
 71
     2
 72
     2
 73
     0
 90
        0
 40
-0.6
 41
-30.0
 62
     5
 63
     7
421
 16777215
 74
     1
 91
        4
 64
     7
 65
   257
 75
     1
175
     1
 42
1.0
 92
        8
 66
     7
 43
1.0
 76
     1
 77
     6
 78
     2
 67
     7
 79
     5
170
     0
171
     0
290
     0
174
     0
 93
        1
 44
0.0
173
     0
291
     1
 45
0.0
1001
ACAD
1000
AcDbSavedByObjectVersion
1070
     0
  0
VISUALSTYLE
  5
2AEC
102
{ACAD_REACTORS
330
2AEB
102
}
330
2AEB
100
AcDbVisualStyle
  2
Flat
 70
     0
 71
     2
 72
     1
 73
     1
 90
        2
 40
-0.6
 41
30.0
 62
     5
 63
     7
421
 16777215
 74
     0
 91
        4
 64
     7
 65
   257
 75
     1
175
     1
 42
1.0
 92
        8
 66
     7
 43
1.0
 76
     1
 77
     6
 78
     2
 67
     7
 79
     5
170
     0
171
     0
290
     0
174
     0
 93
       13
 44
0.0
173
     0
291
     1
 45
0.0
1001
ACAD
1000
AcDbSavedByObjectVersion
1070
     0
  0
VISUALSTYLE
  5
2AED
102
{ACAD_REACTORS
330
2AEB
102
}
330
2AEB
100
AcDbVisualStyle
  2
FlatWithEdges
 70
     1
 71
     2
 72
     1
 73
     1
 90
        2
 40
-0.6
 41
30.0
 62
     5
 63
     7
421
 16777215
 74
     1
 91
        4
 64
     7
 65
   257
 75
     1
175
     1
 42
1.0
 92
        0
 66
   257
 43
1.0
 76
     1
 77
     6
 78
     2
 67
     7
 79
     5
170
     0
171
     0
290
     0
174
     0
 93
       13
 44
0.0
173
     0
291
     1
 45
0.0
1001
ACAD
1000
AcDbSavedByObjectVersion
1070
     0
  0
VISUALSTYLE
  5
2AEE
102
{ACAD_REACTORS
330
2AEB
102
}
330
2AEB
100
AcDbVisualStyle
  2
Gouraud
 70
     2
 71
     2
 72
     2
 73
     1
 90
        2
 40
-0.6
 41
30.0
 62
     5
 63
     7
421
 16777215
 74
     0
 91
        4
 64
     7
 65
   257
 75
     1
175
     1
 42
1.0
 92
        0
 66
     7
 43
1.0
 76
     1
 77
     6
 78
     2
 67
     7
 79
     5
170
     0
171
     0
290
     0
174
     0
 93
       13
 44
0.0
173
     0
291
     1
 45
0.0
1001
ACAD
1000
AcDbSavedByObjectVersion
1070
     0
  0
VISUALSTYLE
  5
2AEF
102
{ACAD_REACTORS
330
2AEB
102
}
330
2AEB
100
AcDbVisualStyle
  2
GouraudWithEdges
 70
     3
 71
     2
 72
     2
 73
     1
 90
        2
 40
-0.6
 41
30.0
 62
     5
 63
     7
421
 16777215
 74
     1
 91
        4
 64
     7
 65
   257
 75
     1
175
     1
 42
1.0
 92
        0
 66
   257
 43
1.0
 76
     1
 77
     6
 78
     2
 67
     7
 79
     5
170
     0
171
     0
290
     0
174
     0
 93
       13
 44
0.0
173
     0
291
     1
 45
0.0
1001
ACAD
1000
AcDbSavedByObjectVersion
1070
     0
  0
VISUALSTYLE
  5
2AF9
102
{ACAD_REACTORS
330
2AEB
102
}
330
2AEB
100
AcDbVisualStyle
  2
Linepattern
 70
    14
 71
     2
 72
     2
 73
     0
 90
        0
 40
-0.6
 41
-30.0
 62
     5
 63
     7
421
 16777215
 74
     1
 91
        4
 64
     7
 65
   257
 75
     7
175
     7
 42
1.0
 92
        8
 66
     7
 43
1.0
 76
     1
 77
     6
 78
     2
 67
     7
 79
     5
170
     0
171
     0
290
     0
174
     0
 93
        1
 44
0.0
173
     0
291
     1
 45
0.0
1001
ACAD
1000
AcDbSavedByObjectVersion
1070
     0
  0
VISUALSTYLE
  5
2AF5
102
{ACAD_REACTORS
330
2AEB
102
}
330
2AEB
100
AcDbVisualStyle
  2
Realistic
 70
     8
 71
     2
 72
     2
 73
     0
 90
        0
 40
-0.6
 41
-30.0
 62
     5
 63
     7
421
 16777215
 74
     1
 91
        0
 64
     7
 65
   257
 75
     1
175
     1
 42
1.0
 92
        8
 66
     8
424
  7895160
 43
1.0
 76
     1
 77
     6
 78
     2
 67
     7
 79
     5
170
     0
171
     0
290
     0
174
     0
 93
       13
 44
0.0
173
     0
291
     0
 45
0.0
1001
ACAD
1000
AcDbSavedByObjectVersion
1070
     0
  0
VISUALSTYLE
  5
2AF8
102
{ACAD_REACTORS
330
2AEB
102
}
330
2AEB
100
AcDbVisualStyle
  2
Thicken
 70
    13
 71
     2
 72
     2
 73
     0
 90
        0
 40
-0.6
 41
-30.0
 62
     5
 63
     7
421
 16777215
 74
     1
 91
        4
 64
     7
 65
   257
 75
     1
175
     1
 42
1.0
 92
       12
 66
     7
 43
1.0
 76
     1
 77
     6
 78
     2
 67
     7
 79
     5
170
     0
171
     0
290
     0
174
     0
 93
        1
 44
0.0
173
     0
291
     1
 45
0.0
1001
ACAD
1000
AcDbSavedByObjectVersion
1070
     0
  0
DICTIONARYVAR
  5
345B
102
{ACAD_REACTORS
330
1109
102
}
330
1109
100
DictionaryVariables
280
     0
  1
1:1
  0
DICTIONARYVAR
  5
345A
102
{ACAD_REACTORS
330
1109
102
}
330
1109
100
DictionaryVariables
280
     0
  1
STANDARD
  0
DICTIONARYVAR
  5
20AD
102
{ACAD_REACTORS
330
1109
102
}
330
1109
100
DictionaryVariables
280
     0
  1
STANDARD
  0
DICTIONARYVAR
  5
B3BE
102
{ACAD_REACTORS
330
1109
102
}
330
1109
100
DictionaryVariables
280
     0
  1
1
  0
DICTIONARYVAR
  5
B3BF
102
{ACAD_REACTORS
330
1109
102
}
330
1109
100
DictionaryVariables
280
     0
  1
15
  0
DICTIONARYVAR
  5
B3BD
102
{ACAD_REACTORS
330
1109
102
}
330
1109
100
DictionaryVariables
280
     0
  1
0
  0
DICTIONARYVAR
  5
B3BC
102
{ACAD_REACTORS
330
1109
102
}
330
1109
100
DictionaryVariables
280
     0
  1
0
  0
DICTIONARYVAR
  5
110A
102
{ACAD_REACTORS
330
1109
102
}
330
1109
100
DictionaryVariables
280
     0
  1
96
  0
DICTIONARY
  5
B3FB
330
B3EB
100
AcDbDictionary
280
     1
281
     1
  3
ADSK_XREC_LAYOUTTHUMBNAIL
360
B3FC
  0
DICTIONARY
  5
B4BE
330
2AE9
100
AcDbDictionary
280
     1
281
     1
  3
ACAD_XREC_ROUNDTRIP
360
B4BF
  0
DICTIONARY
  5
B4BC
330
2AE8
100
AcDbDictionary
280
     1
281
     1
  3
ACAD_XREC_ROUNDTRIP
360
B4BD
  0
DICTIONARY
  5
B4C0
330
2AEA
100
AcDbDictionary
280
     1
281
     1
  3
ACAD_XREC_ROUNDTRIP
360
B4C1
  0
DICTIONARY
  5
33B8
330
208B
100
AcDbDictionary
280
     1
281
     1
  3
ACAD_ROUNDTRIP_2008_TABLESTYLE_CELLSTYLEMAP
360
B4B7
  3
ACAD_XREC_ROUNDTRIP
360
B4BB
  0
XRECORD
  5
B3FC
102
{ACAD_REACTORS
330
B3FB
102
}
330
B3FB
100
AcDbXrecord
280
     1
310
28000000B40000007F00000001000800000000004C59000000000000000000000001000000000000FFFFFF0000000000FFFFFF000000000000000000000000000000000000000000000000000000000000000000330000006600000099000000CC000000FF00000000330000333300006633000099330000CC330000FF3300
310
0000660000336600006666000099660000CC660000FF66000000990000339900006699000099990000CC990000FF99000000CC000033CC000066CC000099CC0000CCCC0000FFCC000000FF000033FF000066FF000099FF0000CCFF0000FFFF000000003300330033006600330099003300CC003300FF003300003333003333
310
33006633330099333300CC333300FF33330000663300336633006666330099663300CC663300FF66330000993300339933006699330099993300CC993300FF99330000CC330033CC330066CC330099CC3300CCCC3300FFCC330000FF330033FF330066FF330099FF3300CCFF3300FFFF330000006600330066006600660099
310
006600CC006600FF00660000336600333366006633660099336600CC336600FF33660000666600336666006666660099666600CC666600FF66660000996600339966006699660099996600CC996600FF99660000CC660033CC660066CC660099CC6600CCCC6600FFCC660000FF660033FF660066FF660099FF6600CCFF6600
310
FFFF660000009900330099006600990099009900CC009900FF00990000339900333399006633990099339900CC339900FF33990000669900336699006666990099669900CC669900FF66990000999900339999006699990099999900CC999900FF99990000CC990033CC990066CC990099CC9900CCCC9900FFCC990000FF99
310
0033FF990066FF990099FF9900CCFF9900FFFF99000000CC003300CC006600CC009900CC00CC00CC00FF00CC000033CC003333CC006633CC009933CC00CC33CC00FF33CC000066CC003366CC006666CC009966CC00CC66CC00FF66CC000099CC003399CC006699CC009999CC00CC99CC00FF99CC0000CCCC0033CCCC0066CC
310
CC0099CCCC00CCCCCC00FFCCCC0000FFCC0033FFCC0066FFCC0099FFCC00CCFFCC00FFFFCC000000FF003300FF006600FF009900FF00CC00FF00FF00FF000033FF003333FF006633FF009933FF00CC33FF00FF33FF000066FF003366FF006666FF009966FF00CC66FF00FF66FF000099FF003399FF006699FF009999FF00CC
310
99FF00FF99FF0000CCFF0033CCFF0066CCFF0099CCFF00CCCCFF00FFCCFF0000FFFF0033FFFF0066FFFF0099FFFF00CCFFFF00FFFFFF00000000000D0D0D001A1A1A00282828003535350043434300505050005D5D5D006B6B6B00787878008686860093939300A1A1A100AEAEAE00BBBBBB00C9C9C900D6D6D600E4E4E400
310
F1F1F100FFFFFF0000000000000000000000000000000000000000000000000000000000000000000000000000000000E2E2E2E2E2E2E2E2E2E2E2E2E2E2E2E2E2E2E2E2E2E2E2E2E2E2E2E2E2E2E2E2E2E2E2E2E2E2E2E2E2E2E2E2E2E2E2E2E2E2E2E2E2E2E2E2E2E2E2E2E2E2E2E2E2E2E2E2E2E2E2E2E2E2E2E2E2E2E2
310
E2E2E2E2E2E2E2E2E2E2E2E2E2E2E2E2E2E2E2E2E2E2E2E2E2E2E2E2E2E2E2E2E2E2E2E2E2E2E2E2E2E2E2E2E2E2E2E2E2E2E2E2E2E2E2E2E2E2E2E2E2E2E2E2E2E2E2E2E2E2E2E2E2E2E2E2E2E2E2E2E2E2E2E2E2E2E2E2E2E2E2E2E2E2E2E2E2E2E2E2E2E2F5F5F5F5F5F5F5F5F5F5F5F5F5F5F5F5F5F5F5F5F5F5F5F5F5
310
F5F5F5F5F5F5F5F5F5F5F5F5F5F5F5F5F5F5F5F5F5F5F5F5F5F5F5F5F5F5F5F5F5F5F5F5F5F5F5F5F5F5F5F5F5F5F5F5F5F5F5F5F5F5F5F5F5F5F5F5F5F5F5F5F5F5F5F5F5F5F5F5F5F5F5F5F5F5F5F5F5F5F5F5F5F5F5F5F5F5F5F5F5F5F5F5F5F5F5F5F5F5F5F5F5F5F5F5F5F5F5F5F5F5F5F5F5F5F5F5F5F5F5F5F5F5F5
310
F5F5F5F5F5F5F5F5F5F5F5F5F5F5F5F5F5F5F5F5F5F5F5F5F5E2E2E2F5F5F5F5F5F5F5F5F5F5F5F5F5F5F5F5F5F5F5F5F5F5F5F5F5F5F5F5F5F5F5F5F5F5F5F5F5F5F5F5F5F5F5F5F5F5F5F5F5F5F5F5F5F5F5F5F5F5F5F5F5F5F5F5F5F5F5F5F5F5F5F5F5F5F5F5F5F5F5F5F5F5F5F5F5F5F5F5F5F5F5F5F5F5F5F5F5F5F5
310
F5F5F5F5F5F5F5F5F5F5F5F5F5F5F5F5F5F5F5F5F5F5F5F5F5F5F5F5F5F5F5F5F5F5F5F5F5F5F5F5F5F5F5F5F5F5F5F5F5F5F5F5F5F5F5F5F5F5F5F5F5F5F5F5F5F5F5F5F5F5F5F5F5F5F5F5F5F5E2E2E2F5F5F5F5F5F5F5F5F5F5F5F5F5F5F5F5F5F5F5F5F5F5F5F5F5F5F5F5F5F5F5F5F5F5F5F5F5F5F5F5F5F5F5F5F5F5
310
F5F5F5F5F5F5F5F5F5F5F5F5F5F5F5F5F5F5F5F5F5F5F5F5F5F5F5F5F5F5F5F5F5F5F5F5F5F5F5F5F5F5F5F5F5F5F5F5F5F5F5F5F5F5F5F5F5F5F5F5F5F5F5F5F5F5F5F5F5F5F5F5F5F5F5F5F5F5F5F5F5F5F5F5F5F5F5F5F5F5F5F5F5F5F5F5F5F5F5F5F5F5F5F5F5F5F5F5F5F5F5F5F5F5F5F5F5F5F5F5F5F5F5F5F5F5F5
310
F5F5F5F5E2E2E2F5F5E2E2E2E2E2E2E2E2F5F5F5F5F5F5F5F5F5E2E2E2E2E2E2E2E2E2E2E2E2E2E2E2E2F5F5F5F5F5F5F5F5F5E2E2E2E2E2E2E2E2E2E2E2E2E2E2E2E2F5F5F5F5F5F5F5F5E2E2E2E2E2E2E2E2E2E2E2E2E2E2E2E2F5F5F5F5F5F5F5F5F5E2E2E2E2E2E2E2E2E2E2E2E2E2E2E2E2F5F5F5F5F5F5F5F5E2E2E2
310
E2E2E2E2E2E2E2E2E2E2E2E2E2F5F5F5F5F5F5F5F5F5E2E2E2E2E2E2E2E2E2E2E2E2E2E2E2E2F5F5F5F5F5F5F5F5F5E2E2E2E2E2E2E2E2F5F5E2E2E2F5F5E2F5F5F5F5F5F5F5F5F5F5F5F5F5F5F5F5F5F5F5F5F5F5F5F5F5F5F5F5F5F5F5F5F5F5F5F5F5F5F5F5F5F5F5F5F5F5F5F5F5F5F5F5F5F5F5F5F5F5F5F5F5F5F5F5
310
F5F5F5F5F5F5F5F5F5F5F5F5F5F5F5F5F5F5F5F5F5F5F5F5F5F5F5F5F5F5F5F5F5F5F5F5F5F5F5F5F5F5F5F5F5F5F5F5F5F5F5F5F5F5F5F5F5F5F5F5F5F5F5F5F5F5F5F5F5F5F5F5F5F5F5F5F5F5F5F5F5F5F5F5F5F5F5F5F5F5F5F5F5F5F5F5F5F5F5F5F5F5F5F5F5F5F5E2F5F5E2E2E2F5F5E2F5F5F5F5F5F5F5F5F5F5F5
310
F5F5F5F5F5F5F5F5F5F5F5F5F5F5F5F5F5F5F5F5F5F5F5F5F5F5F5F5F5F5F5F5F5F5F5F5F5F5F5F5F5F5F5F5F5F5F5F5F5F5F5F5F5F5F5F5F5F5F5F5F5F5F5F5F5F5F5F5F5F5F5F5F5F5F5F5F5F5F5F5F5F5F5F5F5F5F5F5F5F5F5F5F5F5F5F5F5F5F5F5F5F5F5F5F5F5F5F5F5F5F5F5F5F5F5F5F5F5F5F5F5F5F5F5F5F5F5
310
F5F5F5F5F5F5F5F5F5F5F5F5F5F5F5F5F5F5F5F5F5F5F5F5F5F5F5F5F5F5F5F5F5E2F5F5E2E2E2F5F5E2F5F5F5F5F5F5F5F5F5F5F5F5F5F5F5F5F5F5F5F5F5F5F5F5F5F5F5F5F5F5F5F5F5F5F5F5F5F5F5F5F5F5F5F5F5F5F5F5F5F5F5F5F5F5F5F5F5F5F5F5F5F5F5F5F5F5F5F5F5F5F5F5F5F5F5F5F5F5F5F5F5F5F5F5F5
310
F5F5F5F5F5F5F5F5F5F5F5F5F5F5F5F5F5F5F5F5F5F5F5F5F5F5F5F5F5F5F5F5F5F5F5F5F5F5F5F5F5F5F5F5F5F5F5F5F5F5F5F5F5F5F5F5F5F5F5F5F5F5F5F5F5F5F5F5F5F5F5F5F5F5F5F5F5F5F5F5F5F5F5F5F5F5E2F5F5E2E2E2F5F5E2F5F5F5F5F5F5F5F5F5F5F5F5F5F5F5F5F5F5F5F5F5F5F5F5F5F5F5F5F5F5F5F5
310
F5F5F5F5F5F5F5F5F5F5F5F5F5F5F5F5F5F5F5F5F5F5F5F5F5F5F5F5F5F5F5F5F5F5F5F5F5F5F5F5F5F5F5F5F5F5F5F5F5F5F5F5F5F5F5F5F5F5F5F5F5F5F5F5F5F5F5F5F5F5F5F5F5F5F5F5F5F5F5F5F5F5F5F5F5F5F5F5F5F5F5F5F5F5F5F5F5F5F5F5F5F5F5F5F5F5F5F5F5F5F5F5F5F5F5F5F5F5F5F5F5F5F5F5F5F5F5
310
F5F5F5F5F5F5F5F5F5F5F5F5E2F5F5E2E2E2F5F5E2F5F5F5F5F5F5F5F5F5F5F5F5F5F5F5F5F5F5F5F5F5F5F5F5F5F5F5F5F5F5F5F5F5F5F5F5F5F5F5F5F5F5F5F5F5F5F5F5F5F5F5F5F5F5F5F5F5F5F5F5F5F5F5F5F5F5F5F5F5F5F5F5F5F5F5F5F5F5F5F5F5F5F5F5F5F5F5F5F5F5F5F5F5F5F5F5F5F5F5F5F5F5F5F5F5F5
310
F5F5F5F5F5F5F5F5F5F5F5F5F5F5F5F5F5F5F5F5F5F5F5F5F5F5F5F5F5F5F5F5F5F5F5F5F5F5F5F5F5F5F5F5F5F5F5F5F5F5F5F5F5F5F5F5F5F5F5F5F5F5F5F5F5E2F5F5E2E2E2F5F5E2F5F5F5F5F5F5F5F5F5F5F5F5F5F5F5F5F5F5F5F5F5F5F5F5F5F5F5F5F5F5F5F5F5F5F5F5F5F5F5F5F5F5F5F5F5F5F5F5F5F5F5F5F5
310
F5F5F5F5F5F5F5F5F5F5F5F5F5F5F5F5F5F5F5F5F5F5F5F5F5F5F5F5F5F5F5F5F5F5F5F5F5F5F5F5F5F5F5F5F5F5F5F5F5F5F5F5F5F5F5F5F5F5F5F5F5F5F5F5F5F5F5F5F5F5F5F5F5F5F5F5F5F5F5F5F5F5F5F5F5F5F5F5F5F5F5F5F5F5F5F5F5F5F5F5F5F5F5F5F5F5F5F5F5F5F5F5F5F5F5F5F5F5E2F5F5E2E2E2F5F5E2
310
F5F5F5F5F5F5F5F5F5F5F5F5F5F5F5F5F5F5F5F5F5F5F5F5F5F5F5F5F5F5F5F5F5F5F5F5F5F5F5F5F5F5F5F5F5F5F5F5F5F5F5F5F5F5F5F5F5F5F5F5F5F5F5F5F5F5F5F5F5F5F5F5F5F5F5F5F5F5F5F5F5F5F5F5F5F5F5F5F5F5F5F5F5F5F5F5F5F5F5F5F5F5F5F5F5F5F5F5F5F5F5F5F5F5F5F5F5F5F5F5F5F5F5F5F5F5F5
310
F5F5F5F5F5F5F5F5F5F5F5F5F5F5F5F5F5F5F5F5F5F5F5F5F5F5F5F5F5F5F5F5F5F5F5F5F5F5F5F5F5F5F5F5E2F5F5E2E2E2F5F5F5F5F5F5F5F5F5F5F5F5F5F5F5F5F5F5F5F5F5F5F5F5F5F5F5F5F5F5F5F5F5F5F5F5F5F5F5F5F5F5F5F5F5F5F5F5F5F5F5F5F5F5F5F5F5F5F5F5F5F5F5F5F5F5F5F5F5F5F5F5F5F5F5F5F5
310
F5F5F5F5F5F5F5F5F5F5F5F5F5F5F5F5F5F5F5F5F5F5F5F5F5F5F5F5F5F5F5F5F5F5F5F5F5F5F5F5F5F5F5F5F5F5F5F5F5F5F5F5F5F5F5F5F5F5F5F5F5F5F5F5F5F5F5F5F5F5F5F5F5F5F5F5F5F5F5F5F5F5F5F5F5F5F5F5F5F5F5F5F5F5F5F5F5F5F5F5E2E2E2F5F5F5F5F5F5F5F5F5F5F5F5F5F5F5F5F5F5F5F5F5F5F5F5
310
F5F5F5F5F5F5F5F5F5F5F5F5F5F5F5F5F5F5F5F5F5F5F5F5F5F5F5F5F5F5F5F5F5F5F5F5F5F5F5F5F5F5F5F5F5F5F5F5F5F5F5F5F5F5F5F5F5F5F5F5F5F5F5F5F5F5F5F5F5F5F5F5F5F5F5F5F5F5F5F5F5F5F5F5F5F5F5F5F5F5F5F5F5F5F5F5F5F5F5F5F5F5F5F5F5F5F5F5F5F5F5F5F5F5F5F5F5F5F5F5F5F5F5F5F5F5F5
310
F5F5F5F5F5F5F5F5F5F5F5F5F5F5F5F5F5F5F5F5F5F5F5F5F5F5E2E2E2F5F5F5F5F5F5F5F5F5F5F5F5F5F5F5F5F5F5F5F5F5F5F5F5F5F5F5F5F5F5F5F5F5F5F5F5F5F5F5F5F5F5F5F5F5F5F5F5F5F5F5F5F5F5F5F5F5F5F5F5F5F5F5F5F5F5F5F5F5F5F5F5F5F5F5F5F5F5F5F5F5F5F5F5F5F5F5F5F5F5F5F5F5F5F5F5F5F5
310
F5F5F5F5F5F5F5F5F5F5F5F5F5F5F5F5F5F5F5F5F5F5F5F5F5F5F5F5F5F5F5F5F5F5F5F5F5F5F5F5F5F5F5F5F5F5F5F5F5F5F5F5F5F5F5F5F5F5F5F5F5F5F5F5F5F5F5F5F5F5F5F5F5F5F5F5F5F5F5E2E2E2F5F5F5F5F5F5F5F5F5F5F5F5F5F5F5F5F5F5F5F5F5F5F5F5F5F5F5F5F5F5F5F5F5F5F5F5F5F5F5F5F5F5F5F5F5
310
F5F5F5F5F5F5F5F5F5F5F5F5F5F5F5F5F5F5F5F5F5F5F5F5F5F5F5F5F5F5F5F5F5F5F5F5F5F5F5F5F5F5F5F5F5F5F5F5F5F5F5F5F5F5F5F5F5F5F5F5F5F5F5F5F5F5F5F5F5F5F5F5F5F5F5F5F5F5F5F5F5F5F5F5F5F5F5F5F5F5F5F5F5F5F5F5F5F5F5F5F5F5F5F5F5F5F5F5F5F5F5F5F5F5F5F5F5F5F5F5F5F5F5F5F5F5F5
310
F5F5F5F5F5E2E2E2F5F5F5F5F5F5F5F5F5F5F5F5F5F5F5F5F5F5F5F5F5F5F5F5F5F5F5F5F5F5F5F5F5F5F5F5F5F5F5F5F5F5F5F5F5F5F5F5F5F5F5F5F5F5F5F5F5F5F5F5F5F5F5F5F5F5F5F5F5F5F5F5F5F5F5F5F5F5F5F5F5F5F5F5F5F5F5F5F5F5F5F5F5F5F5F5F5F5F5F5F5F5F5F5F5F5F5F5F5F5F5F5F5F5F5F5F5F5F5
310
F5F5F5F5F5F5F5F5F5F5F5F5F5F5F5F5F5F5F5F5F5F5F5F5F5F5F5F5F5F5F5F5F5F5F5F5F5F5F5F5F5F5F5F5F5F5F5F5F5F5F5F5F5F5F5F5F5F5E2E2E2F5F5F5F5F5F5F5F5F5F5F5F5F5F5F5F5F5F5F5F5F5F5F5F5F5F5F5F5F5F5F5F5F5F5F5F5F5F5F5F5F5F5F5F5F5F5F5F5F5F5F5F5F5F5F5F5F5F5F5F5F5F5F5F5F5F5
310
F5F5F5F5F5F5F5F5F5F5F5F5F5F5F5F5F5F5F5F5F5F5F5F5F5F5F5F5F5F5F5F5F5F5F5F5F5F5F5F5F5F5F5F5F5F5F5F5F5F5F5F5F5F5F5F5F5F5F5F5F5F5F5F5F5F5F5F5F5F5F5F5F5F5F5F5F5F5F5F5F5F5F5F5F5F5F5F5F5F5F5F5F5F5F5F5F5F5F5F5F5F5F5F5F5F5F5F5F5F5F5E2E2E2F5F5F5F5F5F5F5F5F5F5F5F5F5
310
F5F5F5F5F5F5F5F5F5F5F5F5F5F5F5F5F5F5F5F5F5F5F5F5F5F5F5F5F5F5F5F5F5F5F5F5F5F5F5F5F5F5F5F5F5F5F5F5F5F5F5F5F5F5F5F5F5F5F5F5F5F5F5F5F5F5F5F5F5F5F5F5F5F5F5F5F5F5F5F5F5F5F5F5F5F5F5F5F5F5F5F5F5F5F5F5F5F5F5F5F5F5F5F5F5F5F5F5F5F5F5F5F5F5F5F5F5F5F5F5F5F5F5F5F5F5F5
310
F5F5F5F5F5F5F5F5F5F5F5F5F5F5F5F5F5F5F5F5F5F5F5F5F5F5F5F5F5F5F5F5F5F5F5F5F5E2E2E2F5F5F5F5F5F5F5F5F5F5F5F5F5F5F5F5F5F5F5F5F5F5F5F5F5F5F5F5F5F5F5F5F5F5F5F5F5F5F5F5F5F5F5F5F5F5F5F5F5F5F5F5F5F5F5F5F5F5F5F5F5F5F5F5F5F5F5F5F5F5F5F5F5F5F5F5F5F5F5F5F5F5F5F5F5F5F5
310
F5F5F5F5F5F5F5F5F5F5F5F5F5F5F5F5F5F5F5F5F5F5F5F5F5F5F5F5F5F5F5F5F5F5F5F5F5F5F5F5F5F5F5F5F5F5F5F5F5F5F5F5F5F5F5F5F5F5F5F5F5F5F5F5F5F5F5F5F5F5F5F5F5F5F5F5F5F5F5F5F5F5F5F5F5F5F5F5F5F5E2E2E2F5F5F5F5F5F5F5F5F5F5F5F5F5F5F5F5F5F5F5F5F5F5F5F5F5F5F5F5F5F5F5F5F5F5
310
F5F5F5F5F5F5F5F5F5F5F5F5F5F5F5F5F5F5F5F5F5F5F5F5F5F5F5F5F5F5F5F5F5F5F5F5F5F5F5F5F5F5F5F5F5F5F5F5F5F5F5F5F5F5F5F5F5F5F5F5F5F5F5F5F5F5F5F5F5F5F5F5F5F5F5F5F5F5F5F5F5F5F5F5F5F5F5F5F5F5F5F5F5F5F5F5F5F5F5F5F5F5F5F5F5F5F5F5F5F5F5F5F5F5F5F5F5F5F5F5F5F5F5F5F5F5F5
310
F5F5F5F5F5F5F5F5F5F5F5F5F5F5F5F5E2E2E2F5F5E2F5F5F5F5F5F5F5F5F5F5F5F5F5F5F5F5F5F5F5F5F5F5F5F5F5F5F5F5F5F5F5F5F5F5F5F5F5F5F5F5F5F5F5F5F5F5F5F5F5F5F5F5F5F5F5F5F5F5F5F5F5F5F5F5F5F5F5F5F5F5F5F5F5F5F5F5F5F5F5F5F5F5F5F5F5F5F5F5F5F5F5F5F5F5F5F5F5F5F5F5F5F5F5F5F5
310
F5F5F5F5F5F5F5F5F5F5F5F5F5F5F5F5F5F5F5F5F5F5F5F5F5F5F5F5F5F5F5F5F5F5F5F5F5F5F5F5F5F5F5F5F5F5F5F5F5F5F5F5F5F5F5F5F5F5F5F5F5F5F5F5F5F5E2F5F5E2E2E2F5F5E2F5F5F5F5F5F5F5F5F5F5F5F5F5F5F5F5F5F5F5F5F5F5F5F5F5F5F5F5F5F5F5F5F5F5F5F5F5F5F5F5F5F5F5F5F5F5F5F5F5F5F5F5
310
F5F5F5F5F5F5F5F5F5F5F5F5F5F5F5F5F5F5F5F5F5F5F5F5F5F5F5F5F5F5F5F5F5F5F5F5F5F5F5F5F5F5F5F5F5F5F5F5F5F5F5F5F5F5F5F5F5F5F5F5F5F5F5F5F5F5F5F5F5F5F5F5F5F5F5F5F5F5F5F5F5F5F5F5F5F5F5F5F5F5F5F5F5F5F5F5F5F5F5F5F5F5F5F5F5F5F5F5F5F5F5F5F5F5F5F5F5F5F5E2F5F5E2E2E2F5F5
310
E2F5F5F5F5F5F5F5F5F5F5F5F5F5F5F5F5F5F5F5F5F5F5F5F5F5F5F5F5F5F5F5F5F5F5F5F5F5F5F5F5F5F5F5F5F5F5F5F5F5F5F5F5F5F5F5F5F5F5F5F5F5F5F5F5F5F5F5F5F5F5F5F5F5F5F5F5F5F5F5F5F5F5F5F5F5F5F5F5F5F5F5F5F5F5F5F5F5F5F5F5F5F5F5F5F5F5F5F5F5F5F5F5F5F5F5F5F5F5F5F5F5F5F5F5F5F5
310
F5F5F5F5F5F5F5F5F5F5F5F5F5F5F5F5F5F5F5F5F5F5F5F5F5F5F5F5F5F5F5F5F5F5F5F5F5F5F5F5F5F5F5F5F5E2F5F5E2E2E2F5F5E2F5F5F5F5F5F5F5F5F5F5F5F5F5F5F5F5F5F5F5F5F5F5F5F5F5F5F5F5F5F5F5F5F5F5F5F5F5F5F5F5F5F5F5F5F5F5F5F5F5F5F5F5F5F5F5F5F5F5F5F5F5F5F5F5F5F5F5F5F5F5F5F5F5
310
F5F5F5F5F5F5F5F5F5F5F5F5F5F5F5F5F5F5F5F5F5F5F5F5F5F5F5F5F5F5F5F5F5F5F5F5F5F5F5F5F5F5F5F5F5F5F5F5F5F5F5F5F5F5F5F5F5F5F5F5F5F5F5F5F5F5F5F5F5F5F5F5F5F5F5F5F5F5F5F5F5F5F5F5F5F5F5F5F5F5F5F5F5F5F5F5F5F5E2F5F5E2E2E2F5F5E2F5F5F5F5F5F5F5F5F5F5F5F5F5F5F5F5F5F5F5F5
310
F5F5F5F5F5F5F5F5F5F5F5F5F5F5F5F5F5F5F5F5F5F5F5F5F5F5F5F5F5F5F5F5F5F5F5F5F5F5F5F5F5F5F5F5F5F5F5F5F5F5F5F5F5F5F5F5F5F5F5F5F5F5F5F5F5F5F5F5F5F5F5F5F5F5F5F5F5F5F5F5F5F5F5F5F5F5F5F5F5F5F5F5F5F5F5F5F5F5F5F5F5F5F5F5F5F5F5F5F5F5F5F5F5F5F5F5F5F5F5F5F5F5F5F5F5F5F5
310
F5F5F5F5F5F5F5F5F5F5F5F5F5F5F5F5F5F5F5F5F5F5F5F5E2F5F5E2E2E2F5F5E2F5F5F5F5F5F5F5F5F5F5F5F5F5F5F5F5F5F5F5F5F5F5F5F5F5F5F5F5F5F5F5F5F5F5F5F5F5F5F5F5F5F5F5F5F5F5F5F5F5F5F5F5F5F5F5F5F5F5F5F5F5F5F5F5F5F5F5F5F5F5F5F5F5F5F5F5F5F5F5F5F5F5F5F5F5F5F5F5F5F5F5F5F5F5
310
F5F5F5F5F5F5F5F5F5F5F5F5F5F5F5F5F5F5F5F5F5F5F5F5F5F5F5F5F5F5F5F5F5F5F5F5F5F5F5F5F5F5F5F5F5F5F5F5F5F5F5F5F5F5F5F5F5F5F5F5F5F5F5F5F5F5F5F5F5F5F5F5F5F5F5F5F5E2F5F5E2E2E2F5F5E2F5F5F5F5F5F5F5F5F5F5F5F5F5F5F5F5F5F5F5F5F5F5F5F5F5F5F5F5F5F5F5F5F5F5F5F5F5F5F5F5F5
310
F5F5F5F5F5F5F5F5F5F5F5F5F5F5F5F5F5F5F5F5F5F5F5F5F5F5F5F5F5F5F5F5F5F5F5F5F5F5F5F5F5F5F5F5F5F5F5F5F5F5F5F5F5F5F5F5F5F5F5F5F5F5F5F5F5F5F5F5F5F5F5F5F5F5F5F5F5F5F5F5F5F5F5F5F5F5F5F5F5F5F5F5F5F5F5F5F5F5F5F5F5F5F5F5F5F5F5F5F5F5F5F5F5F5F5F5F5F5F5F5F5F5F5F5F5F5F5
310
F5F5F5E2F5F5E2E2E2F5F5E2F5F5F5F5F5F5F5F5F5F5F5F5F5F5F5F5F5F5F5F5F5F5F5F5F5F5F5F5F5F5F5F5F5F5F5F5F5F5F5F5F5F5F5F5F5F5F5F5F5F5F5F5F5F5F5F5F5F5F5F5F5F5F5F5F5F5F5F5F5F5F5F5F5F5F5F5F5F5F5F5F5F5F5F5F5F5F5F5F5F5F5F5F5F5F5F5F5F5F5F5F5F5F5F5F5F5F5F5F5F5F5F5F5F5F5
310
F5F5F5F5F5F5F5F5F5F5F5F5F5F5F5F5F5F5F5F5F5F5F5F5F5F5F5F5F5F5F5F5F5F5F5F5F5F5F5F5F5F5F5F5F5F5F5F5F5F5F5F5F5F5F5F5E2F5F5E2E2E2F5F5E2F5F5F5F5F5F5F5F5F5F5F5F5F5F5F5F5F5F5F5F5F5F5F5F5F5F5F5F5F5F5F5F5F5F5F5F5F5F5F5F5F5F5F5F5F5F5F5F5F5F5F5F5F5F5F5F5F5F5F5F5F5F5
310
F5F5F5F5F5F5F5F5F5F5F5F5F5F5F5F5F5F5F5F5F5F5F5F5F5F5F5F5F5F5F5F5F5F5F5F5F5F5F5F5F5F5F5F5F5F5F5F5F5F5F5F5F5F5F5F5F5F5F5F5F5F5F5F5F5F5F5F5F5F5F5F5F5F5F5F5F5F5F5F5F5F5F5F5F5F5F5F5F5F5F5F5F5F5F5F5F5F5F5F5F5F5F5F5F5F5F5F5F5E2F5F5E2E2E2F5F5E2F5F5F5F5F5F5F5F5F5
310
F5F5F5F5F5F5F5F5F5F5F5F5F5F5F5F5F5F5F5F5F5F5F5F5F5F5F5F5F5F5F5F5F5F5F5F5F5F5F5F5F5F5F5F5F5F5F5F5F5F5F5F5F5F5F5F5F5F5F5F5F5F5F5F5F5F5F5F5F5F5F5F5F5F5F5F5F5F5F5F5F5F5F5F5F5F5F5F5F5F5F5F5F5F5F5F5F5F5F5F5F5F5F5F5F5F5F5F5F5F5F5F5F5F5F5F5F5F5F5F5F5F5F5F5F5F5F5
310
F5F5F5F5F5F5F5F5F5F5F5F5F5F5F5F5F5F5F5F5F5F5F5F5F5F5F5F5F5F5F5F5F5F5F5E2F5F5E2E2E2F5F5E2F5F5F5F5F5F5F5F5F5F5F5F5F5F5F5F5F5F5F5F5F5F5F5F5F5F5F5F5F5F5F5F5F5F5F5F5F5F5F5F5F5F5F5F5F5F5F5F5F5F5F5F5F5F5F5F5F5F5F5F5F5F5F5F5F5F5F5F5F5F5F5F5F5F5F5F5F5F5F5F5F5F5F5
310
F5F5F5F5F5F5F5F5F5F5F5F5F5F5F5F5F5F5F5F5F5F5F5F5F5F5F5F5F5F5F5F5F5F5F5F5F5F5F5F5F5F5F5F5F5F5F5F5F5F5F5F5F5F5F5F5F5F5F5F5F5F5F5F5F5F5F5F5F5F5F5F5F5F5F5F5F5F5F5F5F5F5F5F5F5F5F5F5E2F5F5E2E2E2F5F5E2F5F5F5F5F5F5F5F5F5F5F5F5F5F5F5F5F5F5F5F5F5F5F5F5F5F5F5F5F5F5
310
F5F5F5F5F5F5F5F5F5F5F5F5F5F5F5F5F5F5F5F5F5F5F5F5F5F5F5F5F5F5F5F5F5F5F5F5F5F5F5F5F5F5F5F5F5F5F5F5F5F5F5F5F5F5F5F5F5F5F5F5F5F5F5F5F5F5F5F5F5F5F5F5F5F5F5F5F5F5F5F5F5F5F5F5F5F5F5F5F5F5F5F5F5F5F5F5F5F5F5F5F5F5F5F5F5F5F5F5F5F5F5F5F5F5F5F5F5F5F5F5F5F5F5F5F5F5F5
310
F5F5F5F5F5F5F5F5F5F5F5F5F5F5E2F5F5E2E2E2F5F5E2F5F5F5F5F5F5F5F5F5F5F5F5F5F5F5F5F5F5F5F5F5F5F5F5F5F5F5F5F5F5F5F5F5F5F5F5F5F5F5F5F5F5F5F5F5F5F5F5F5F5F5F5F5F5F5F5F5F5F5F5F5F5F5F5F5F5F5F5F5F5F5F5F5F5F5F5F5F5F5F5F5F5F5F5F5F5F5F5F5F5F5F5F5F5F5F5F5F5F5F5F5F5F5F5
310
F5F5F5F5F5F5F5F5F5F5F5F5F5F5F5F5F5F5F5F5F5F5F5F5F5F5F5F5F5F5F5F5F5F5F5F5F5F5F5F5F5F5F5F5F5F5F5F5F5F5F5F5F5F5F5F5F5F5F5F5F5F5F5F5F5F5F5E2F5F5E2E2E2F5F5E2F5F5F5F5F5F5F5F5F5F5F5F5F5F5F5F5F5F5F5F5F5F5F5F5F5F5F5F5F5F5F5F5F5F5F5F5F5F5F5F5F5F5F5F5F5F5F5F5F5F5F5
310
F5F5F5F5F5F5F5F5F5F5F5F5F5F5F5F5F5F5F5F5F5F5F5F5F5F5F5F5F5F5F5F5F5F5F5F5F5F5F5F5F5F5F5F5F5F5F5F5F5F5F5F5F5F5F5F5F5F5F5F5F5F5F5F5F5F5F5F5F5F5F5F5F5F5F5F5F5F5F5F5F5F5F5F5F5F5F5F5F5F5F5F5F5F5F5F5F5F5F5F5F5F5F5F5F5F5F5F5F5F5F5F5F5F5F5F5F5F5F5F5E2F5F5E2E2E2F5
310
F5E2F5F5F5F5F5F5F5F5F5F5F5F5F5F5F5F5F5F5F5F5F5F5F5F5F5F5F5F5F5F5F5F5F5F5F5F5F5F5F5F5F5F5F5F5F5F5F5F5F5F5F5F5F5F5F5F5F5F5F5F5F5F5F5F5F5F5F5F5F5F5F5F5F5F5F5F5F5F5F5F5F5F5F5F5F5F5F5F5F5F5F5F5F5F5F5F5F5F5F5F5F5F5F5F5F5F5F5F5F5F5F5F5F5F5F5F5F5F5F5F5F5F5F5F5F5
310
F5F5F5F5F5F5F5F5F5F5F5F5F5F5F5F5F5F5F5F5F5F5F5F5F5F5F5F5F5F5F5F5F5F5F5F5F5F5F5F5F5F5F5F5F5F5E2F5F5E2E2E2F5F5F5F5F5F5F5F5F5F5F5F5F5F5F5F5F5F5F5F5F5F5F5F5F5F5F5F5F5F5F5F5F5F5F5F5F5F5F5F5F5F5F5F5F5F5F5F5F5F5F5F5F5F5F5F5F5F5F5F5F5F5F5F5F5F5F5F5F5F5F5F5F5F5F5
310
F5F5F5F5F5F5F5F5F5F5F5F5F5F5F5F5F5F5F5F5F5F5F5F5F5F5F5F5F5F5F5F5F5F5F5F5F5F5F5F5F5F5F5F5F5F5F5F5F5F5F5F5F5F5F5F5F5F5F5F5F5F5F5F5F5F5F5F5F5F5F5F5F5F5F5F5F5F5F5F5F5F5F5F5F5F5F5F5F5F5F5F5F5F5F5F5F5F5F5F5F5F5E2E2E2F5F5F5F5F5F5F5F5F5F5F5F5F5F5F5F5F5F5F5F5F5F5
310
F5F5F5F5F5F5F5F5F5F5F5F5F5F5F5F5F5F5F5F5F5F5F5F5F5F5F5F5F5F5F5F5F5F5F5F5F5F5F5F5F5F5F5F5F5F5F5F5F5F5F5F5F5F5F5F5F5F5F5F5F5F5F5F5F5F5F5F5F5F5F5F5F5F5F5F5F5F5F5F5F5F5F5F5F5F5F5F5F5F5F5F5F5F5F5F5F5F5F5F5F5F5F5F5F5F5F5F5F5F5F5F5F5F5F5F5F5F5F5F5F5F5F5F5F5F5F5
310
F5F5F5F5F5F5F5F5F5F5F5F5F5F5F5F5F5F5F5F5F5F5F5F5F5F5F5F5E2E2E2F5F5F5F5F5F5F5F5F5F5F5F5F5F5F5F5F5F5F5F5F5F5F5F5F5F5F5F5F5F5F5F5F5F5F5F5F5F5F5F5F5F5F5F5F5F5F5F5F5F5F5F5F5F5F5F5F5F5F5F5F5F5F5F5F5F5F5F5F5F5F5F5F5F5F5F5F5F5F5F5F5F5F5F5F5F5F5F5F5F5F5F5F5F5F5F5
310
F5F5F5F5F5F5F5F5F5F5F5F5F5F5F5F5F5F5F5F5F5F5F5F5F5F5F5F5F5F5F5F5F5F5F5F5F5F5F5F5F5F5F5F5F5F5F5F5F5F5F5F5F5F5F5F5F5F5F5F5F5F5F5F5F5F5F5F5F5F5F5F5F5F5F5F5F5F5F5F5F5E2E2E2F5F5F5F5F5F5F5F5F5F5F5F5F5F5F5F5F5F5F5F5F5F5F5F5F5F5F5F5F5F5F5F5F5F5F5F5F5F5F5F5F5F5F5
310
F5F5F5F5F5F5F5F5F5F5F5F5F5F5F5F5F5F5F5F5F5F5F5F5F5F5F5F5F5F5F5F5F5F5F5F5F5F5F5F5F5F5F5F5F5F5F5F5F5F5F5F5F5F5F5F5F5F5F5F5F5F5F5F5F5F5F5F5F5F5F5F5F5F5F5F5F5F5F5F5F5F5F5F5F5F5F5F5F5F5F5F5F5F5F5F5F5F5F5F5F5F5F5F5F5F5F5F5F5F5F5F5F5F5F5F5F5F5F5F5F5F5F5F5F5F5F5
310
F5F5F5F5F5F5F5E2E2E2F5F5F5F5F5F5F5F5F5F5F5F5F5F5F5F5F5F5F5F5F5F5F5F5F5F5F5F5F5F5F5F5F5F5F5F5F5F5F5F5F5F5F5F5F5F5F5F5F5F5F5F5F5F5F5F5F5F5F5F5F5F5F5F5F5F5F5F5F5F5F5F5F5F5F5F5F5F5F5F5F5F5F5F5F5F5F5F5F5F5F5F5F5F5F5F5F5F5F5F5F5F5F5F5F5F5F5F5F5F5F5F5F5F5F5F5F5
310
F5F5F5F5F5F5F5F5F5F5F5F5F5F5F5F5F5F5F5F5F5F5F5F5F5F5F5F5F5F5F5F5F5F5F5F5F5F5F5F5F5F5F5F5F5F5F5F5F5F5F5F5F5F5F5F5F5F5F5F5E2E2E2F5F5F5F5F5F5F5F5F5F5F5F5F5F5F5F5F5F5F5F5F5F5F5F5F5F5F5F5F5F5F5F5F5F5F5F5F5F5F5F5F5F5F5F5F5F5F5F5F5F5F5F5F5F5F5F5F5F5F5F5F5F5F5F5
310
F5F5F5F5F5F5F5F5F5F5F5F5F5F5F5F5F5F5F5F5F5F5F5F5F5F5F5F5F5F5F5F5F5F5F5F5F5F5F5F5F5F5F5F5F5F5F5F5F5F5F5F5F5F5F5F5F5F5F5F5F5F5F5F5F5F5F5F5F5F5F5F5F5F5F5F5F5F5F5F5F5F5F5F5F5F5F5F5F5F5F5F5F5F5F5F5F5F5F5F5F5F5F5F5F5F5F5F5F5F5F5F5F5E2E2E2F5F5F5F5F5F5F5F5F5F5F5
310
F5F5F5F5F5F5F5F5F5F5F5F5F5F5F5F5F5F5F5F5F5F5F5F5F5F5F5F5F5F5F5F5F5F5F5F5F5F5F5F5F5F5F5F5F5F5F5F5F5F5F5F5F5F5F5F5F5F5F5F5F5F5F5F5F5F5F5F5F5F5F5F5F5F5F5F5F5F5F5F5F5F5F5F5F5F5F5F5F5F5F5F5F5F5F5F5F5F5F5F5F5F5F5F5F5F5F5F5F5F5F5F5F5F5F5F5F5F5F5F5F5F5F5F5F5F5F5
310
F5F5F5F5F5F5F5F5F5F5F5F5F5F5F5F5F5F5F5F5F5F5F5F5F5F5F5F5F5F5F5F5F5F5F5F5F5F5F5E2E2E2F5F5F5F5F5F5F5F5F5F5F5F5F5F5F5F5F5F5F5F5F5F5F5F5F5F5F5F5F5F5F5F5F5F5F5F5F5F5F5F5F5F5F5F5F5F5F5F5F5F5F5F5F5F5F5F5F5F5F5F5F5F5F5F5F5F5F5F5F5F5F5F5F5F5F5F5F5F5F5F5F5F5F5F5F5
310
F5F5F5F5F5F5F5F5F5F5F5F5F5F5F5F5F5F5F5F5F5F5F5F5F5F5F5F5F5F5F5F5F5F5F5F5F5F5F5F5F5F5F5F5F5F5F5F5F5F5F5F5F5F5F5F5F5F5F5F5F5F5F5F5F5F5F5F5F5F5F5F5F5F5F5F5F5F5F5F5F5F5F5F5F5F5F5F5F5F5F5F5E2E2E2F5F5E2F5F5F5F5F5F5F5F5F5F5F5F5F5F5F5F5F5F5F5F5F5F5F5F5F5F5F5F5F5
310
F5F5F5F5F5F5F5F5F5F5F5F5F5F5F5F5F5F5F5F5F5F5F5F5F5F5F5F5F5F5F5F5F5F5F5F5F5F5F5F5F5F5F5F5F5F5F5F5F5F5F5F5F5F5F5F5F5F5F5F5F5F5F5F5F5F5F5F5F5F5F5F5F5F5F5F5F5F5F5F5F5F5F5F5F5F5F5F5F5F5F5F5F5F5F5F5F5F5F5F5F5F5F5F5F5F5F5F5F5F5F5F5F5F5F5F5F5F5F5F5F5F5F5F5F5F5F5
310
F5F5F5F5F5F5F5F5F5F5F5F5F5F5F5E2F5F5E2E2E2F5F5E2F5F5F5F5F5F5F5F5F5F5F5F5F5F5F5F5F5F5F5F5F5F5F5F5F5F5F5F5F5F5F5F5F5F5F5F5F5F5F5F5F5F5F5F5F5F5F5F5F5F5F5F5F5F5F5F5F5F5F5F5F5F5F5F5F5F5F5F5F5F5F5F5F5F5F5F5F5F5F5F5F5F5F5F5F5F5F5F5F5F5F5F5F5F5F5F5F5F5F5F5F5F5F5
310
F5F5F5F5F5F5F5F5F5F5F5F5F5F5F5F5F5F5F5F5F5F5F5F5F5F5F5F5F5F5F5F5F5F5F5F5F5F5F5F5F5F5F5F5F5F5F5F5F5F5F5F5F5F5F5F5F5F5F5F5F5F5F5F5F5F5F5F5E2F5F5E2E2E2F5F5E2F5F5F5F5F5F5F5F5F5F5F5F5F5F5F5F5F5F5F5F5F5F5F5F5F5F5F5F5F5F5F5F5F5F5F5F5F5F5F5F5F5F5F5F5F5F5F5F5F5F5
310
F5F5F5F5F5F5F5F5F5F5F5F5F5F5F5F5F5F5F5F5F5F5F5F5F5F5F5F5F5F5F5F5F5F5F5F5F5F5F5F5F5F5F5F5F5F5F5F5F5F5F5F5F5F5F5F5F5F5F5F5F5F5F5F5F5F5F5F5F5F5F5F5F5F5F5F5F5F5F5F5F5F5F5F5F5F5F5F5F5F5F5F5F5F5F5F5F5F5F5F5F5F5F5F5F5F5F5F5F5F5F5F5F5F5F5F5F5F5F5F5F5E2F5F5E2E2E2
310
F5F5E2F5F5F5F5F5F5F5F5F5F5F5F5F5F5F5F5F5F5F5F5F5F5F5F5F5F5F5F5F5F5F5F5F5F5F5F5F5F5F5F5F5F5F5F5F5F5F5F5F5F5F5F5F5F5F5F5F5F5F5F5F5F5F5F5F5F5F5F5F5F5F5F5F5F5F5F5F5F5F5F5F5F5F5F5F5F5F5F5F5F5F5F5F5F5F5F5F5F5F5F5F5F5F5F5F5F5F5F5F5F5F5F5F5F5F5F5F5F5F5F5F5F5F5F5
310
F5F5F5F5F5F5F5F5F5F5F5F5F5F5F5F5F5F5F5F5F5F5F5F5F5F5F5F5F5F5F5F5F5F5F5F5F5F5F5F5F5F5F5F5F5F5F5E2F5F5E2E2E2F5F5E2F5F5F5F5F5F5F5F5F5F5F5F5F5F5F5F5F5F5F5F5F5F5F5F5F5F5F5F5F5F5F5F5F5F5F5F5F5F5F5F5F5F5F5F5F5F5F5F5F5F5F5F5F5F5F5F5F5F5F5F5F5F5F5F5F5F5F5F5F5F5F5
310
F5F5F5F5F5F5F5F5F5F5F5F5F5F5F5F5F5F5F5F5F5F5F5F5F5F5F5F5F5F5F5F5F5F5F5F5F5F5F5F5F5F5F5F5F5F5F5F5F5F5F5F5F5F5F5F5F5F5F5F5F5F5F5F5F5F5F5F5F5F5F5F5F5F5F5F5F5F5F5F5F5F5F5F5F5F5F5F5F5F5F5F5F5F5F5F5F5F5F5F5E2F5F5E2E2E2F5F5E2F5F5F5F5F5F5F5F5F5F5F5F5F5F5F5F5F5F5
310
F5F5F5F5F5F5F5F5F5F5F5F5F5F5F5F5F5F5F5F5F5F5F5F5F5F5F5F5F5F5F5F5F5F5F5F5F5F5F5F5F5F5F5F5F5F5F5F5F5F5F5F5F5F5F5F5F5F5F5F5F5F5F5F5F5F5F5F5F5F5F5F5F5F5F5F5F5F5F5F5F5F5F5F5F5F5F5F5F5F5F5F5F5F5F5F5F5F5F5F5F5F5F5F5F5F5F5F5F5F5F5F5F5F5F5F5F5F5F5F5F5F5F5F5F5F5F5
310
F5F5F5F5F5F5F5F5F5F5F5F5F5F5F5F5F5F5F5F5F5F5F5F5F5F5E2F5F5E2E2E2F5F5E2F5F5F5F5F5F5F5F5F5F5F5F5F5F5F5F5F5F5F5F5F5F5F5F5F5F5F5F5F5F5F5F5F5F5F5F5F5F5F5F5F5F5F5F5F5F5F5F5F5F5F5F5F5F5F5F5F5F5F5F5F5F5F5F5F5F5F5F5F5F5F5F5F5F5F5F5F5F5F5F5F5F5F5F5F5F5F5F5F5F5F5F5
310
F5F5F5F5F5F5F5F5F5F5F5F5F5F5F5F5F5F5F5F5F5F5F5F5F5F5F5F5F5F5F5F5F5F5F5F5F5F5F5F5F5F5F5F5F5F5F5F5F5F5F5F5F5F5F5F5F5F5F5F5F5F5F5F5F5F5F5F5F5F5F5F5F5F5F5F5F5F5F5E2F5F5E2E2E2F5F5E2F5F5F5F5F5F5F5F5F5F5F5F5F5F5F5F5F5F5F5F5F5F5F5F5F5F5F5F5F5F5F5F5F5F5F5F5F5F5F5
310
F5F5F5F5F5F5F5F5F5F5F5F5F5F5F5F5F5F5F5F5F5F5F5F5F5F5F5F5F5F5F5F5F5F5F5F5F5F5F5F5F5F5F5F5F5F5F5F5F5F5F5F5F5F5F5F5F5F5F5F5F5F5F5F5F5F5F5F5F5F5F5F5F5F5F5F5F5F5F5F5F5F5F5F5F5F5F5F5F5F5F5F5F5F5F5F5F5F5F5F5F5F5F5F5F5F5F5F5F5F5F5F5F5F5F5F5F5F5F5F5F5F5F5F5F5F5F5
310
F5F5F5F5F5E2F5F5E2E2E2F5F5E2F5F5F5F5F5F5F5F5F5F5F5F5F5F5F5F5F5F5F5F5F5F5F5F5F5F5F5F5F5F5F5F5F5F5F5F5F5F5F5F5F5F5F5F5F5F5F5F5F5F5F5F5F5F5F5F5F5F5F5F5F5F5F5F5F5F5F5F5F5F5F5F5F5F5F5F5F5F5F5F5F5F5F5F5F5F5F5F5F5F5F5F5F5F5F5F5F5F5F5F5F5F5F5F5F5F5F5F5F5F5F5F5F5
310
F5F5F5F5F5F5F5F5F5F5F5F5F5F5F5F5F5F5F5F5F5F5F5F5F5F5F5F5F5F5F5F5F5F5F5F5F5F5F5F5F5F5F5F5F5F5F5F5F5F5F5F5F5F5F5F5F5F5E2F5F5E2E2E2F5F5E2F5F5F5F5F5F5F5F5F5F5F5F5F5F5F5F5F5F5F5F5F5F5F5F5F5F5F5F5F5F5F5F5F5F5F5F5F5F5F5F5F5F5F5F5F5F5F5F5F5F5F5F5F5F5F5F5F5F5F5F5
310
F5F5F5F5F5F5F5F5F5F5F5F5F5F5F5F5F5F5F5F5F5F5F5F5F5F5F5F5F5F5F5F5F5F5F5F5F5F5F5F5F5F5F5F5F5F5F5F5F5F5F5F5F5F5F5F5F5F5F5F5F5F5F5F5F5F5F5F5F5F5F5F5F5F5F5F5F5F5F5F5F5F5F5F5F5F5F5F5F5F5F5F5F5F5F5F5F5F5F5F5F5F5F5F5F5F5F5F5F5F5F5E2F5F5E2E2E2F5F5E2F5F5F5F5F5F5F5
310
F5F5F5F5F5F5F5F5F5F5F5F5F5F5F5F5F5F5F5F5F5F5F5F5F5F5F5F5F5F5F5F5F5F5F5F5F5F5F5F5F5F5F5F5F5F5F5F5F5F5F5F5F5F5F5F5F5F5F5F5F5F5F5F5F5F5F5F5F5F5F5F5F5F5F5F5F5F5F5F5F5F5F5F5F5F5F5F5F5F5F5F5F5F5F5F5F5F5F5F5F5F5F5F5F5F5F5F5F5F5F5F5F5F5F5F5F5F5F5F5F5F5F5F5F5F5F5
310
F5F5F5F5F5F5F5F5F5F5F5F5F5F5F5F5F5F5F5F5F5F5F5F5F5F5F5F5F5F5F5F5F5F5F5F5F5E2F5F5E2E2E2F5F5E2F5F5F5F5F5F5F5F5F5F5F5F5F5F5F5F5F5F5F5F5F5F5F5F5F5F5F5F5F5F5F5F5F5F5F5F5F5F5F5F5F5F5F5F5F5F5F5F5F5F5F5F5F5F5F5F5F5F5F5F5F5F5F5F5F5F5F5F5F5F5F5F5F5F5F5F5F5F5F5F5F5
310
F5F5F5F5F5F5F5F5F5F5F5F5F5F5F5F5F5F5F5F5F5F5F5F5F5F5F5F5F5F5F5F5F5F5F5F5F5F5F5F5F5F5F5F5F5F5F5F5F5F5F5F5F5F5F5F5F5F5F5F5F5F5F5F5F5F5F5F5F5F5F5F5F5F5F5F5F5F5F5F5F5F5F5F5F5F5F5F5F5F5E2F5F5E2E2E2F5F5E2F5F5F5F5F5F5F5F5F5F5F5F5F5F5F5F5F5F5F5F5F5F5F5F5F5F5F5F5
310
F5F5F5F5F5F5F5F5F5F5F5F5F5F5F5F5F5F5F5F5F5F5F5F5F5F5F5F5F5F5F5F5F5F5F5F5F5F5F5F5F5F5F5F5F5F5F5F5F5F5F5F5F5F5F5F5F5F5F5F5F5F5F5F5F5F5F5F5F5F5F5F5F5F5F5F5F5F5F5F5F5F5F5F5F5F5F5F5F5F5F5F5F5F5F5F5F5F5F5F5F5F5F5F5F5F5F5F5F5F5F5F5F5F5F5F5F5F5F5F5F5F5F5F5F5F5F5
310
F5F5F5F5F5F5F5F5F5F5F5F5F5F5F5F5E2F5F5E2E2E2F5F5E2F5F5F5F5F5F5F5F5F5F5F5F5F5F5F5F5F5F5F5F5F5F5F5F5F5F5F5F5F5F5F5F5F5F5F5F5F5F5F5F5F5F5F5F5F5F5F5F5F5F5F5F5F5F5F5F5F5F5F5F5F5F5F5F5F5F5F5F5F5F5F5F5F5F5F5F5F5F5F5F5F5F5F5F5F5F5F5F5F5F5F5F5F5F5F5F5F5F5F5F5F5F5
310
F5F5F5F5F5F5F5F5F5F5F5F5F5F5F5F5F5F5F5F5F5F5F5F5F5F5F5F5F5F5F5F5F5F5F5F5F5F5F5F5F5F5F5F5F5F5F5F5F5F5F5F5F5F5F5F5F5F5F5F5F5F5F5F5F5F5F5F5F5E2F5F5E2E2E2F5F5E2F5F5F5F5F5F5F5F5F5F5F5F5F5F5F5F5F5F5F5F5F5F5F5F5F5F5F5F5F5F5F5F5F5F5F5F5F5F5F5F5F5F5F5F5F5F5F5F5F5
310
F5F5F5F5F5F5F5F5F5F5F5F5F5F5F5F5F5F5F5F5F5F5F5F5F5F5F5F5F5F5F5F5F5F5F5F5F5F5F5F5F5F5F5F5F5F5F5F5F5F5F5F5F5F5F5F5F5F5F5F5F5F5F5F5F5F5F5F5F5F5F5F5F5F5F5F5F5F5F5F5F5F5F5F5F5F5F5F5F5F5F5F5F5F5F5F5F5F5F5F5F5F5F5F5F5F5F5F5F5F5F5F5F5F5F5F5F5F5F5F5F5F5E2F5F5E2E2
310
E2F5F5F5F5F5F5F5F5F5F5F5F5F5F5F5F5F5F5F5F5F5F5F5F5F5F5F5F5F5F5F5F5F5F5F5F5F5F5F5F5F5F5F5F5F5F5F5F5F5F5F5F5F5F5F5F5F5F5F5F5F5F5F5F5F5F5F5F5F5F5F5F5F5F5F5F5F5F5F5F5F5F5F5F5F5F5F5F5F5F5F5F5F5F5F5F5F5F5F5F5F5F5F5F5F5F5F5F5F5F5F5F5F5F5F5F5F5F5F5F5F5F5F5F5F5F5
310
F5F5F5F5F5F5F5F5F5F5F5F5F5F5F5F5F5F5F5F5F5F5F5F5F5F5F5F5F5F5F5F5F5F5F5F5F5F5F5F5F5F5F5F5F5F5F5F5F5F5F5E2E2E2F5F5F5F5F5F5F5F5F5F5F5F5F5F5F5F5F5F5F5F5F5F5F5F5F5F5F5F5F5F5F5F5F5F5F5F5F5F5F5F5F5F5F5F5F5F5F5F5F5F5F5F5F5F5F5F5F5F5F5F5F5F5F5F5F5F5F5F5F5F5F5F5F5
310
F5F5F5F5F5F5F5F5F5F5F5F5F5F5F5F5F5F5F5F5F5F5F5F5F5F5F5F5F5F5F5F5F5F5F5F5F5F5F5F5F5F5F5F5F5F5F5F5F5F5F5F5F5F5F5F5F5F5F5F5F5F5F5F5F5F5F5F5F5F5F5F5F5F5F5F5F5F5F5F5F5F5F5F5F5F5F5F5F5F5F5F5F5F5F5F5F5F5F5F5F5F5F5F5E2E2E2F5F5F5F5F5F5F5F5F5F5F5F5F5F5F5F5F5F5F5F5
310
F5F5F5F5F5F5F5F5F5F5F5F5F5F5F5F5F5F5F5F5F5F5F5F5F5F5F5F5F5F5F5F5F5F5F5F5F5F5F5F5F5F5F5F5F5F5F5F5F5F5F5F5F5F5F5F5F5F5F5F5F5F5F5F5F5F5F5F5F5F5F5F5F5F5F5F5F5F5F5F5F5F5F5F5F5F5F5F5F5F5F5F5F5F5F5F5F5F5F5F5F5F5F5F5F5F5F5F5F5F5F5F5F5F5F5F5F5F5F5F5F5F5F5F5F5F5F5
310
F5F5F5F5F5F5F5F5F5F5F5F5F5F5F5F5F5F5F5F5F5F5F5F5F5F5F5F5F5F5E2E2E2F5F5F5F5F5F5F5F5F5F5F5F5F5F5F5F5F5F5F5F5F5F5F5F5F5F5F5F5F5F5F5F5F5F5F5F5F5F5F5F5F5F5F5F5F5F5F5F5F5F5F5F5F5F5F5F5F5F5F5F5F5F5F5F5F5F5F5F5F5F5F5F5F5F5F5F5F5F5F5F5F5F5F5F5F5F5F5F5F5F5F5F5F5F5
310
F5F5F5F5F5F5F5F5F5F5F5F5F5F5F5F5F5F5F5F5F5F5F5F5F5F5F5F5F5F5F5F5F5F5F5F5F5F5F5F5F5F5F5F5F5F5F5F5F5F5F5F5F5F5F5F5F5F5F5F5F5F5F5F5F5F5F5F5F5F5F5F5F5F5F5F5F5F5F5F5F5F5F5E2E2E2F5F5F5F5F5F5F5F5F5F5F5F5F5F5F5F5F5F5F5F5F5F5F5F5F5F5F5F5F5F5F5F5F5F5F5F5F5F5F5F5F5
310
F5F5F5F5F5F5F5F5F5F5F5F5F5F5F5F5F5F5F5F5F5F5F5F5F5F5F5F5F5F5F5F5F5F5F5F5F5F5F5F5F5F5F5F5F5F5F5F5F5F5F5F5F5F5F5F5F5F5F5F5F5F5F5F5F5F5F5F5F5F5F5F5F5F5F5F5F5F5F5F5F5F5F5F5F5F5F5F5F5F5F5F5F5F5F5F5F5F5F5F5F5F5F5F5F5F5F5F5F5F5F5F5F5F5F5F5F5F5F5F5F5F5F5F5F5F5F5
310
F5F5F5F5F5F5F5F5F5E2E2E2F5F5F5F5F5F5F5F5F5F5F5F5F5F5F5F5F5F5F5F5F5F5F5F5F5F5F5F5F5F5F5F5F5F5F5F5F5F5F5F5F5F5F5F5F5F5F5F5F5F5F5F5F5F5F5F5F5F5F5F5F5F5F5F5F5F5F5F5F5F5F5F5F5F5F5F5F5F5F5F5F5F5F5F5F5F5F5F5F5F5F5F5F5F5F5F5F5F5F5F5F5F5F5F5F5F5F5F5F5F5F5F5F5F5F5
310
F5F5F5F5F5F5F5F5F5F5F5F5F5F5F5F5F5F5F5F5F5F5F5F5F5F5F5F5F5F5F5F5F5F5F5F5F5F5F5F5F5F5F5F5F5F5F5F5F5F5F5F5F5F5F5F5F5F5F5F5F5F5E2E2E2F5F5F5F5F5F5F5F5F5F5F5F5F5F5F5F5F5F5F5F5F5F5F5F5F5F5F5F5F5F5F5F5F5F5F5F5F5F5F5F5F5F5F5F5F5F5F5F5F5F5F5F5F5F5F5F5F5F5F5F5F5F5
310
F5F5F5F5F5F5F5F5F5F5F5F5F5F5F5F5F5F5F5F5F5F5F5F5F5F5F5F5F5F5F5F5F5F5F5F5F5F5F5F5F5F5F5F5F5F5F5F5F5F5F5F5F5F5F5F5F5F5F5F5F5F5F5F5F5F5F5F5F5F5F5F5F5F5F5F5F5F5F5F5F5F5F5F5F5F5F5F5F5F5F5F5F5F5F5F5F5F5F5F5F5F5F5F5F5F5F5F5F5F5F5F5F5F5F5E2E2E2F5F5F5F5F5F5F5F5F5
310
F5F5F5F5F5F5F5F5F5F5F5F5F5F5F5F5F5F5F5F5F5F5F5F5F5F5F5F5F5F5F5F5F5F5F5F5F5F5F5F5F5F5F5F5F5F5F5F5F5F5F5F5F5F5F5F5F5F5F5F5F5F5F5F5F5F5F5F5F5F5F5F5F5F5F5F5F5F5F5F5F5F5F5F5F5F5F5F5F5F5F5F5F5F5F5F5F5F5F5F5F5F5F5F5F5F5F5F5F5F5F5F5F5F5F5F5F5F5F5F5F5F5F5F5F5F5F5
310
F5F5F5F5F5F5F5F5F5F5F5F5F5F5F5F5F5F5F5F5F5F5F5F5F5F5F5F5F5F5F5F5F5F5F5F5F5F5F5F5F5E2E2E2F5F5F5F5F5F5F5F5F5F5F5F5F5F5F5F5F5F5F5F5F5F5F5F5F5F5F5F5F5F5F5F5F5F5F5F5F5F5F5F5F5F5F5F5F5F5F5F5F5F5F5F5F5F5F5F5F5F5F5F5F5F5F5F5F5F5F5F5F5F5F5F5F5F5F5F5F5F5F5F5F5F5F5
310
F5F5F5F5F5F5F5F5F5F5F5F5F5F5F5F5F5F5F5F5F5F5F5F5F5F5F5F5F5F5F5F5F5F5F5F5F5F5F5F5F5F5F5F5F5F5F5F5F5F5F5F5F5F5F5F5F5F5F5F5F5F5F5F5F5F5F5F5F5F5F5F5F5F5F5F5F5F5F5F5F5F5F5F5F5F5F5F5F5F5F5F5F5F5E2E2E2F5F5E2F5F5F5F5F5F5F5F5F5F5F5F5F5F5F5F5F5F5F5F5F5F5F5F5F5F5F5
310
F5F5F5F5F5F5F5F5F5F5F5F5F5F5F5F5F5F5F5F5F5F5F5F5F5F5F5F5F5F5F5F5F5F5F5F5F5F5F5F5F5F5F5F5F5F5F5F5F5F5F5F5F5F5F5F5F5F5F5F5F5F5F5F5F5F5F5F5F5F5F5F5F5F5F5F5F5F5F5F5F5F5F5F5F5F5F5F5F5F5F5F5F5F5F5F5F5F5F5F5F5F5F5F5F5F5F5F5F5F5F5F5F5F5F5F5F5F5F5F5F5F5F5F5F5F5F5
310
F5F5F5F5F5F5F5F5F5F5F5F5F5F5F5F5F5E2F5F5E2E2E2F5F5E2F5F5F5F5F5F5F5F5F5F5F5F5F5F5F5F5F5F5F5F5F5F5F5F5F5F5F5F5F5F5F5F5F5F5F5F5F5F5F5F5F5F5F5F5F5F5F5F5F5F5F5F5F5F5F5F5F5F5F5F5F5F5F5F5F5F5F5F5F5F5F5F5F5F5F5F5F5F5F5F5F5F5F5F5F5F5F5F5F5F5F5F5F5F5F5F5F5F5F5F5F5
310
F5F5F5F5F5F5F5F5F5F5F5F5F5F5F5F5F5F5F5F5F5F5F5F5F5F5F5F5F5F5F5F5F5F5F5F5F5F5F5F5F5F5F5F5F5F5F5F5F5F5F5F5F5F5F5F5F5F5F5F5F5F5F5F5F5F5F5F5F5F5E2F5F5E2E2E2F5F5E2F5F5F5F5F5F5F5F5F5F5F5F5F5F5F5F5F5F5F5F5F5F5F5F5F5F5F5F5F5F5F5F5F5F5F5F5F5F5F5F5F5F5F5F5F5F5F5F5
310
F5F5F5F5F5F5F5F5F5F5F5F5F5F5F5F5F5F5F5F5F5F5F5F5F5F5F5F5F5F5F5F5F5F5F5F5F5F5F5F5F5F5F5F5F5F5F5F5F5F5F5F5F5F5F5F5F5F5F5F5F5F5F5F5F5F5F5F5F5F5F5F5F5F5F5F5F5F5F5F5F5F5F5F5F5F5F5F5F5F5F5F5F5F5F5F5F5F5F5F5F5F5F5F5F5F5F5F5F5F5F5F5F5F5F5F5F5F5F5F5F5F5F5E2F5F5E2
310
E2E2F5F5E2F5F5F5F5F5F5F5F5F5F5F5F5F5F5F5F5F5F5F5F5F5F5F5F5F5F5F5F5F5F5F5F5F5F5F5F5F5F5F5F5F5F5F5F5F5F5F5F5F5F5F5F5F5F5F5F5F5F5F5F5F5F5F5F5F5F5F5F5F5F5F5F5F5F5F5F5F5F5F5F5F5F5F5F5F5F5F5F5F5F5F5F5F5F5F5F5F5F5F5F5F5F5F5F5F5F5F5F5F5F5F5F5F5F5F5F5F5F5F5F5F5F5
310
F5F5F5F5F5F5F5F5F5F5F5F5F5F5F5F5F5F5F5F5F5F5F5F5F5F5F5F5F5F5F5F5F5F5F5F5F5F5F5F5F5F5F5F5F5F5F5F5F5E2F5F5E2E2E2F5F5E2F5F5F5F5F5F5F5F5F5F5F5F5F5F5F5F5F5F5F5F5F5F5F5F5F5F5F5F5F5F5F5F5F5F5F5F5F5F5F5F5F5F5F5F5F5F5F5F5F5F5F5F5F5F5F5F5F5F5F5F5F5F5F5F5F5F5F5F5F5
310
F5F5F5F5F5F5F5F5F5F5F5F5F5F5F5F5F5F5F5F5F5F5F5F5F5F5F5F5F5F5F5F5F5F5F5F5F5F5F5F5F5F5F5F5F5F5F5F5F5F5F5F5F5F5F5F5F5F5F5F5F5F5F5F5F5F5F5F5F5F5F5F5F5F5F5F5F5F5F5F5F5F5F5F5F5F5F5F5F5F5F5F5F5F5F5F5F5F5F5F5F5F5E2F5F5E2E2E2F5F5E2F5F5F5F5F5F5F5F5F5F5F5F5F5F5F5F5
310
F5F5F5F5F5F5F5F5F5F5F5F5F5F5F5F5F5F5F5F5F5F5F5F5F5F5F5F5F5F5F5F5F5F5F5F5F5F5F5F5F5F5F5F5F5F5F5F5F5F5F5F5F5F5F5F5F5F5F5F5F5F5F5F5F5F5F5F5F5F5F5F5F5F5F5F5F5F5F5F5F5F5F5F5F5F5F5F5F5F5F5F5F5F5F5F5F5F5F5F5F5F5F5F5F5F5F5F5F5F5F5F5F5F5F5F5F5F5F5F5F5F5F5F5F5F5F5
310
F5F5F5F5F5F5F5F5F5F5F5F5F5F5F5F5F5F5F5F5F5F5F5F5F5F5F5F5E2F5F5E2E2E2F5F5E2F5F5F5F5F5F5F5F5F5F5F5F5F5F5F5F5F5F5F5F5F5F5F5F5F5F5F5F5F5F5F5F5F5F5F5F5F5F5F5F5F5F5F5F5F5F5F5F5F5F5F5F5F5F5F5F5F5F5F5F5F5F5F5F5F5F5F5F5F5F5F5F5F5F5F5F5F5F5F5F5F5F5F5F5F5F5F5F5F5F5
310
F5F5F5F5F5F5F5F5F5F5F5F5F5F5F5F5F5F5F5F5F5F5F5F5F5F5F5F5F5F5F5F5F5F5F5F5F5F5F5F5F5F5F5F5F5F5F5F5F5F5F5F5F5F5F5F5F5F5F5F5F5F5F5F5F5F5F5F5F5F5F5F5F5F5F5F5F5F5F5F5F5E2F5F5E2E2E2F5F5E2F5F5F5F5F5F5F5F5F5F5F5F5F5F5F5F5F5F5F5F5F5F5F5F5F5F5F5F5F5F5F5F5F5F5F5F5F5
310
F5F5F5F5F5F5F5F5F5F5F5F5F5F5F5F5F5F5F5F5F5F5F5F5F5F5F5F5F5F5F5F5F5F5F5F5F5F5F5F5F5F5F5F5F5F5F5F5F5F5F5F5F5F5F5F5F5F5F5F5F5F5F5F5F5F5F5F5F5F5F5F5F5F5F5F5F5F5F5F5F5F5F5F5F5F5F5F5F5F5F5F5F5F5F5F5F5F5F5F5F5F5F5F5F5F5F5F5F5F5F5F5F5F5F5F5F5F5F5F5F5F5F5F5F5F5F5
310
F5F5F5F5F5F5F5E2F5F5E2E2E2F5F5E2F5F5F5F5F5F5F5F5F5F5F5F5F5F5F5F5F5F5F5F5F5F5F5F5F5F5F5F5F5F5F5F5F5F5F5F5F5F5F5F5F5F5F5F5F5F5F5F5F5F5F5F5F5F5F5F5F5F5F5F5F5F5F5F5F5F5F5F5F5F5F5F5F5F5F5F5F5F5F5F5F5F5F5F5F5F5F5F5F5F5F5F5F5F5F5F5F5F5F5F5F5F5F5F5F5F5F5F5F5F5F5
310
F5F5F5F5F5F5F5F5F5F5F5F5F5F5F5F5F5F5F5F5F5F5F5F5F5F5F5F5F5F5F5F5F5F5F5F5F5F5F5F5F5F5F5F5F5F5F5F5F5F5F5F5F5F5F5F5F5F5F5F5E2F5F5E2E2E2F5F5E2F5F5F5F5F5F5F5F5F5F5F5F5F5F5F5F5F5F5F5F5F5F5F5F5F5F5F5F5F5F5F5F5F5F5F5F5F5F5F5F5F5F5F5F5F5F5F5F5F5F5F5F5F5F5F5F5F5F5
310
F5F5F5F5F5F5F5F5F5F5F5F5F5F5F5F5F5F5F5F5F5F5F5F5F5F5F5F5F5F5F5F5F5F5F5F5F5F5F5F5F5F5F5F5F5F5F5F5F5F5F5F5F5F5F5F5F5F5F5F5F5F5F5F5F5F5F5F5F5F5F5F5F5F5F5F5F5F5F5F5F5F5F5F5F5F5F5F5F5F5F5F5F5F5F5F5F5F5F5F5F5F5F5F5F5F5F5F5F5F5F5F5F5E2F5F5E2E2E2F5F5E2F5F5F5F5F5
310
F5F5F5F5F5F5F5F5F5F5F5F5F5F5F5F5F5F5F5F5F5F5F5F5F5F5F5F5F5F5F5F5F5F5F5F5F5F5F5F5F5F5F5F5F5F5F5F5F5F5F5F5F5F5F5F5F5F5F5F5F5F5F5F5F5F5F5F5F5F5F5F5F5F5F5F5F5F5F5F5F5F5F5F5F5F5F5F5F5F5F5F5F5F5F5F5F5F5F5F5F5F5F5F5F5F5F5F5F5F5F5F5F5F5F5F5F5F5F5F5F5F5F5F5F5F5F5
310
F5F5F5F5F5F5F5F5F5F5F5F5F5F5F5F5F5F5F5F5F5F5F5F5F5F5F5F5F5F5F5F5F5F5F5F5F5F5F5E2F5F5E2E2E2F5F5E2F5F5F5F5F5F5F5F5F5F5F5F5F5F5F5F5F5F5F5F5F5F5F5F5F5F5F5F5F5F5F5F5F5F5F5F5F5F5F5F5F5F5F5F5F5F5F5F5F5F5F5F5F5F5F5F5F5F5F5F5F5F5F5F5F5F5F5F5F5F5F5F5F5F5F5F5F5F5F5
310
F5F5F5F5F5F5F5F5F5F5F5F5F5F5F5F5F5F5F5F5F5F5F5F5F5F5F5F5F5F5F5F5F5F5F5F5F5F5F5F5F5F5F5F5F5F5F5F5F5F5F5F5F5F5F5F5F5F5F5F5F5F5F5F5F5F5F5F5F5F5F5F5F5F5F5F5F5F5F5F5F5F5F5F5F5F5F5F5F5F5F5F5E2F5F5E2E2E2F5F5E2F5F5F5F5F5F5F5F5F5F5F5F5F5F5F5F5F5F5F5F5F5F5F5F5F5F5
310
F5F5F5F5F5F5F5F5F5F5F5F5F5F5F5F5F5F5F5F5F5F5F5F5F5F5F5F5F5F5F5F5F5F5F5F5F5F5F5F5F5F5F5F5F5F5F5F5F5F5F5F5F5F5F5F5F5F5F5F5F5F5F5F5F5F5F5F5F5F5F5F5F5F5F5F5F5F5F5F5F5F5F5F5F5F5F5F5F5F5F5F5F5F5F5F5F5F5F5F5F5F5F5F5F5F5F5F5F5F5F5F5F5F5F5F5F5F5F5F5F5F5F5F5F5F5F5
310
F5F5F5F5F5F5F5F5F5F5F5F5F5F5F5F5F5F5E2F5F5E2E2E2F5F5E2F5F5F5F5F5F5F5F5F5F5F5F5F5F5F5F5F5F5F5F5F5F5F5F5F5F5F5F5F5F5F5F5F5F5F5F5F5F5F5F5F5F5F5F5F5F5F5F5F5F5F5F5F5F5F5F5F5F5F5F5F5F5F5F5F5F5F5F5F5F5F5F5F5F5F5F5F5F5F5F5F5F5F5F5F5F5F5F5F5F5F5F5F5F5F5F5F5F5F5F5
310
F5F5F5F5F5F5F5F5F5F5F5F5F5F5F5F5F5F5F5F5F5F5F5F5F5F5F5F5F5F5F5F5F5F5F5F5F5F5F5F5F5F5F5F5F5F5F5F5F5F5F5F5F5F5F5F5F5F5F5F5F5F5F5F5F5F5F5F5F5F5F5E2F5F5E2E2E2F5F5E2F5F5F5F5F5F5F5F5F5F5F5F5F5F5F5F5F5F5F5F5F5F5F5F5F5F5F5F5F5F5F5F5F5F5F5F5F5F5F5F5F5F5F5F5F5F5F5
310
F5F5F5F5F5F5F5F5F5F5F5F5F5F5F5F5F5F5F5F5F5F5F5F5F5F5F5F5F5F5F5F5F5F5F5F5F5F5F5F5F5F5F5F5F5F5F5F5F5F5F5F5F5F5F5F5F5F5F5F5F5F5F5F5F5F5F5F5F5F5F5F5F5F5F5F5F5F5F5F5F5F5F5F5F5F5F5F5F5F5F5F5F5F5F5F5F5F5F5F5F5F5F5F5F5F5F5F5F5F5F5F5F5F5F5F5F5F5F5F5F5F5F5F5E2F5F5
310
E2E2E2F5F5F5F5F5F5F5F5F5F5F5F5F5F5F5F5F5F5F5F5F5F5F5F5F5F5F5F5F5F5F5F5F5F5F5F5F5F5F5F5F5F5F5F5F5F5F5F5F5F5F5F5F5F5F5F5F5F5F5F5F5F5F5F5F5F5F5F5F5F5F5F5F5F5F5F5F5F5F5F5F5F5F5F5F5F5F5F5F5F5F5F5F5F5F5F5F5F5F5F5F5F5F5F5F5F5F5F5F5F5F5F5F5F5F5F5F5F5F5F5F5F5F5F5
310
F5F5F5F5F5F5F5F5F5F5F5F5F5F5F5F5F5F5F5F5F5F5F5F5F5F5F5F5F5F5F5F5F5F5F5F5F5F5F5F5F5F5F5F5F5F5F5F5F5F5F5F5F5E2E2E2F5F5F5F5F5F5F5F5F5F5F5F5F5F5F5F5F5F5F5F5F5F5F5F5F5F5F5F5F5F5F5F5F5F5F5F5F5F5F5F5F5F5F5F5F5F5F5F5F5F5F5F5F5F5F5F5F5F5F5F5F5F5F5F5F5F5F5F5F5F5F5
310
F5F5F5F5F5F5F5F5F5F5F5F5F5F5F5F5F5F5F5F5F5F5F5F5F5F5F5F5F5F5F5F5F5F5F5F5F5F5F5F5F5F5F5F5F5F5F5F5F5F5F5F5F5F5F5F5F5F5F5F5F5F5F5F5F5F5F5F5F5F5F5F5F5F5F5F5F5F5F5F5F5F5F5F5F5F5F5F5F5F5F5F5F5F5F5F5F5F5F5F5F5F5F5F5F5F5E2E2E2F5F5F5F5F5F5F5F5F5F5F5F5F5F5F5F5F5F5
310
F5F5F5F5F5F5F5F5F5F5F5F5F5F5F5F5F5F5F5F5F5F5F5F5F5F5F5F5F5F5F5F5F5F5F5F5F5F5F5F5F5F5F5F5F5F5F5F5F5F5F5F5F5F5F5F5F5F5F5F5F5F5F5F5F5F5F5F5F5F5F5F5F5F5F5F5F5F5F5F5F5F5F5F5F5F5F5F5F5F5F5F5F5F5F5F5F5F5F5F5F5F5F5F5F5F5F5F5F5F5F5F5F5F5F5F5F5F5F5F5F5F5F5F5F5F5F5
310
F5F5F5F5F5F5F5F5F5F5F5F5F5F5F5F5F5F5F5F5F5F5F5F5F5F5F5F5F5F5F5F5E2E2E2F5F5F5F5F5F5F5F5F5F5F5F5F5F5F5F5F5F5F5F5F5F5F5F5F5F5F5F5F5F5F5F5F5F5F5F5F5F5F5F5F5F5F5F5F5F5F5F5F5F5F5F5F5F5F5F5F5F5F5F5F5F5F5F5F5F5F5F5F5F5F5F5F5F5F5F5F5F5F5F5F5F5F5F5F5F5F5F5F5F5F5F5
310
F5F5F5F5F5F5F5F5F5F5F5F5F5F5F5F5F5F5F5F5F5F5F5F5F5F5F5F5F5F5F5F5F5F5F5F5F5F5F5F5F5F5F5F5F5F5F5F5F5F5F5F5F5F5F5F5F5F5F5F5F5F5F5F5F5F5F5F5F5F5F5F5F5F5F5F5F5F5F5F5F5F5F5F5F5E2E2E2F5F5F5F5F5F5F5F5F5F5F5F5F5F5F5F5F5F5F5F5F5F5F5F5F5F5F5F5F5F5F5F5F5F5F5F5F5F5F5
310
F5F5F5F5F5F5F5F5F5F5F5F5F5F5F5F5F5F5F5F5F5F5F5F5F5F5F5F5F5F5F5F5F5F5F5F5F5F5F5F5F5F5F5F5F5F5F5F5F5F5F5F5F5F5F5F5F5F5F5F5F5F5F5F5F5F5F5F5F5F5F5F5F5F5F5F5F5F5F5F5F5F5F5F5F5F5F5F5F5F5F5F5F5F5F5F5F5F5F5F5F5F5F5F5F5F5F5F5F5F5F5F5F5F5F5F5F5F5F5F5F5F5F5F5F5F5F5
310
F5F5F5F5F5F5F5F5F5F5F5E2E2E2F5F5F5F5F5F5F5F5F5F5F5F5F5F5F5F5F5F5F5F5F5F5F5F5F5F5F5F5F5F5F5F5F5F5F5F5F5F5F5F5F5F5F5F5F5F5F5F5F5F5F5F5F5F5F5F5F5F5F5F5F5F5F5F5F5F5F5F5F5F5F5F5F5F5F5F5F5F5F5F5F5F5F5F5F5F5F5F5F5F5F5F5F5F5F5F5F5F5F5F5F5F5F5F5F5F5F5F5F5F5F5F5F5
310
F5F5F5F5F5F5F5F5F5F5F5F5F5F5F5F5F5F5F5F5F5F5F5F5F5F5F5F5F5F5F5F5F5F5F5F5F5F5F5F5F5F5F5F5F5F5F5F5F5F5F5F5F5F5F5F5F5F5F5F5F5F5F5F5E2E2E2F5F5F5F5F5F5F5F5F5F5F5F5F5F5F5F5F5F5F5F5F5F5F5F5F5F5F5F5F5F5F5F5F5F5F5F5F5F5F5F5F5F5F5F5F5F5F5F5F5F5F5F5F5F5F5F5F5F5F5F5
310
F5F5F5F5F5F5F5F5F5F5F5F5F5F5F5F5F5F5F5F5F5F5F5F5F5F5F5F5F5F5F5F5F5F5F5F5F5F5F5F5F5F5F5F5F5F5F5F5F5F5F5F5F5F5F5F5F5F5F5F5F5F5F5F5F5F5F5F5F5F5F5F5F5F5F5F5F5F5F5F5F5F5F5F5F5F5F5F5F5F5F5F5F5F5F5F5F5F5F5F5F5F5F5F5F5F5F5F5F5F5F5F5F5F5F5F5F5E2E2E2F5F5F5F5F5F5F5
310
F5F5F5F5F5F5F5F5F5F5F5F5F5F5F5F5F5F5F5F5F5F5F5F5F5F5F5F5F5F5F5F5F5F5F5F5F5F5F5F5F5F5F5F5F5F5F5F5F5F5F5F5F5F5F5F5F5F5F5F5F5F5F5F5F5F5F5F5F5F5F5F5F5F5F5F5F5F5F5F5F5F5F5F5F5F5F5F5F5F5F5F5F5F5F5F5F5F5F5F5F5F5F5F5F5F5F5F5F5F5F5F5F5F5F5F5F5F5F5F5F5F5F5F5F5F5F5
310
F5F5F5F5F5F5F5F5F5F5F5F5F5F5F5F5F5F5F5F5F5F5F5F5F5F5F5F5F5F5F5F5F5F5F5F5F5F5F5F5F5F5F5E2E2E2F5F5E2F5F5F5F5F5F5F5F5F5F5F5F5F5F5F5F5F5F5F5F5F5F5F5F5F5F5F5F5F5F5F5F5F5F5F5F5F5F5F5F5F5F5F5F5F5F5F5F5F5F5F5F5F5F5F5F5F5F5F5F5F5F5F5F5F5F5F5F5F5F5F5F5F5F5F5F5F5F5
310
F5F5F5F5F5F5F5F5F5F5F5F5F5F5F5F5F5F5F5F5F5F5F5F5F5F5F5F5F5F5F5F5F5F5F5F5F5F5F5F5F5F5F5F5F5F5F5F5F5F5F5F5F5F5F5F5F5F5F5F5F5F5F5F5F5F5F5F5F5F5F5F5F5F5F5F5F5F5F5F5F5F5F5F5F5F5F5F5F5F5F5F5F5E2F5F5E2E2E2F5F5E2F5F5F5F5F5F5F5F5F5F5F5F5F5F5F5F5F5F5F5F5F5F5F5F5F5
310
F5F5F5F5F5F5F5F5F5F5F5F5F5F5F5F5F5F5F5F5F5F5F5F5F5F5F5F5F5F5F5F5F5F5F5F5F5F5F5F5F5F5F5F5F5F5F5F5F5F5F5F5F5F5F5F5F5F5F5F5F5F5F5F5F5F5F5F5F5F5F5F5F5F5F5F5F5F5F5F5F5F5F5F5F5F5F5F5F5F5F5F5F5F5F5F5F5F5F5F5F5F5F5F5F5F5F5F5F5F5F5F5F5F5F5F5F5F5F5F5F5F5F5F5F5F5F5
310
F5F5F5F5F5F5F5F5F5F5F5F5F5F5F5F5F5F5F5E2F5F5E2E2E2F5F5E2F5F5F5F5F5F5F5F5F5F5F5F5F5F5F5F5F5F5F5F5F5F5F5F5F5F5F5F5F5F5F5F5F5F5F5F5F5F5F5F5F5F5F5F5F5F5F5F5F5F5F5F5F5F5F5F5F5F5F5F5F5F5F5F5F5F5F5F5F5F5F5F5F5F5F5F5F5F5F5F5F5F5F5F5F5F5F5F5F5F5F5F5F5F5F5F5F5F5F5
310
F5F5F5F5F5F5F5F5F5F5F5F5F5F5F5F5F5F5F5F5F5F5F5F5F5F5F5F5F5F5F5F5F5F5F5F5F5F5F5F5F5F5F5F5F5F5F5F5F5F5F5F5F5F5F5F5F5F5F5F5F5F5F5F5F5F5F5F5F5F5F5F5E2F5F5E2E2E2F5F5E2F5F5F5F5F5F5F5F5F5F5F5F5F5F5F5F5F5F5F5F5F5F5F5F5F5F5F5F5F5F5F5F5F5F5F5F5F5F5F5F5F5F5F5F5F5F5
310
F5F5F5F5F5F5F5F5F5F5F5F5F5F5F5F5F5F5F5F5F5F5F5F5F5F5F5F5F5F5F5F5F5F5F5F5F5F5F5F5F5F5F5F5F5F5F5F5F5F5F5F5F5F5F5F5F5F5F5F5F5F5F5F5F5F5F5F5F5F5F5F5F5F5F5F5F5F5F5F5F5F5F5F5F5F5F5F5F5F5F5F5F5F5F5F5F5F5F5F5F5F5F5F5F5F5F5F5F5F5F5F5F5F5F5F5F5F5F5F5F5F5F5F5F5E2F5
310
F5E2E2E2F5F5E2F5F5F5F5F5F5F5F5F5F5F5F5F5F5F5F5F5F5F5F5F5F5F5F5F5F5F5F5F5F5F5F5F5F5F5F5F5F5F5F5F5F5F5F5F5F5F5F5F5F5F5F5F5F5F5F5F5F5F5F5F5F5F5F5F5F5F5F5F5F5F5F5F5F5F5F5F5F5F5F5F5F5F5F5F5F5F5F5F5F5F5F5F5F5F5F5F5F5F5F5F5F5F5F5F5F5F5F5F5F5F5F5F5F5F5F5F5F5F5F5
310
F5F5F5F5F5F5F5F5F5F5F5F5F5F5F5F5F5F5F5F5F5F5F5F5F5F5F5F5F5F5F5F5F5F5F5F5F5F5F5F5F5F5F5F5F5F5F5F5F5F5F5E2F5F5E2E2E2F5F5E2F5F5F5F5F5F5F5F5F5F5F5F5F5F5F5F5F5F5F5F5F5F5F5F5F5F5F5F5F5F5F5F5F5F5F5F5F5F5F5F5F5F5F5F5F5F5F5F5F5F5F5F5F5F5F5F5F5F5F5F5F5F5F5F5F5F5F5
310
F5F5F5F5F5F5F5F5F5F5F5F5F5F5F5F5F5F5F5F5F5F5F5F5F5F5F5F5F5F5F5F5F5F5F5F5F5F5F5F5F5F5F5F5F5F5F5F5F5F5F5F5F5F5F5F5F5F5F5F5F5F5F5F5F5F5F5F5F5F5F5F5F5F5F5F5F5F5F5F5F5F5F5F5F5F5F5F5F5F5F5F5F5F5F5F5F5F5F5F5F5F5F5F5E2F5F5E2E2E2F5F5E2F5F5F5F5F5F5F5F5F5F5F5F5F5F5
310
F5F5F5F5F5F5F5F5F5F5F5F5F5F5F5F5F5F5F5F5F5F5F5F5F5F5F5F5F5F5F5F5F5F5F5F5F5F5F5F5F5F5F5F5F5F5F5F5F5F5F5F5F5F5F5F5F5F5F5F5F5F5F5F5F5F5F5F5F5F5F5F5F5F5F5F5F5F5F5F5F5F5F5F5F5F5F5F5F5F5F5F5F5F5F5F5F5F5F5F5F5F5F5F5F5F5F5F5F5F5F5F5F5F5F5F5F5F5F5F5F5F5F5F5F5F5F5
310
F5F5F5F5F5F5F5F5F5F5F5F5F5F5F5F5F5F5F5F5F5F5F5F5F5F5F5F5F5F5E2F5F5E2E2E2F5F5E2F5F5F5F5F5F5F5F5F5F5F5F5F5F5F5F5F5F5F5F5F5F5F5F5F5F5F5F5F5F5F5F5F5F5F5F5F5F5F5F5F5F5F5F5F5F5F5F5F5F5F5F5F5F5F5F5F5F5F5F5F5F5F5F5F5F5F5F5F5F5F5F5F5F5F5F5F5F5F5F5F5F5F5F5F5F5F5F5
310
F5F5F5F5F5F5F5F5F5F5F5F5F5F5F5F5F5F5F5F5F5F5F5F5F5F5F5F5F5F5F5F5F5F5F5F5F5F5F5F5F5F5F5F5F5F5F5F5F5F5F5F5F5F5F5F5F5F5F5F5F5F5F5F5F5F5F5F5F5F5F5F5F5F5F5F5F5F5F5F5F5F5F5E2F5F5E2E2E2F5F5E2F5F5F5F5F5F5F5F5F5F5F5F5F5F5F5F5F5F5F5F5F5F5F5F5F5F5F5F5F5F5F5F5F5F5F5
310
F5F5F5F5F5F5F5F5F5F5F5F5F5F5F5F5F5F5F5F5F5F5F5F5F5F5F5F5F5F5F5F5F5F5F5F5F5F5F5F5F5F5F5F5F5F5F5F5F5F5F5F5F5F5F5F5F5F5F5F5F5F5F5F5F5F5F5F5F5F5F5F5F5F5F5F5F5F5F5F5F5F5F5F5F5F5F5F5F5F5F5F5F5F5F5F5F5F5F5F5F5F5F5F5F5F5F5F5F5F5F5F5F5F5F5F5F5F5F5F5F5F5F5F5F5F5F5
310
F5F5F5F5F5F5F5F5F5E2F5F5E2E2E2F5F5E2F5F5F5F5F5F5F5F5F5F5F5F5F5F5F5F5F5F5F5F5F5F5F5F5F5F5F5F5F5F5F5F5F5F5F5F5F5F5F5F5F5F5F5F5F5F5F5F5F5F5F5F5F5F5F5F5F5F5F5F5F5F5F5F5F5F5F5F5F5F5F5F5F5F5F5F5F5F5F5F5F5F5F5F5F5F5F5F5F5F5F5F5F5F5F5F5F5F5F5F5F5F5F5F5F5F5F5F5F5
310
F5F5F5F5F5F5F5F5F5F5F5F5F5F5F5F5F5F5F5F5F5F5F5F5F5F5F5F5F5F5F5F5F5F5F5F5F5F5F5F5F5F5F5F5F5F5F5F5F5F5F5F5F5F5F5F5F5F5F5F5F5F5E2F5F5E2E2E2F5F5E2F5F5F5F5F5F5F5F5F5F5F5F5F5F5F5F5F5F5F5F5F5F5F5F5F5F5F5F5F5F5F5F5F5F5F5F5F5F5F5F5F5F5F5F5F5F5F5F5F5F5F5F5F5F5F5F5
310
F5F5F5F5F5F5F5F5F5F5F5F5F5F5F5F5F5F5F5F5F5F5F5F5F5F5F5F5F5F5F5F5F5F5F5F5F5F5F5F5F5F5F5F5F5F5F5F5F5F5F5F5F5F5F5F5F5F5F5F5F5F5F5F5F5F5F5F5F5F5F5F5F5F5F5F5F5F5F5F5F5F5F5F5F5F5F5F5F5F5F5F5F5F5F5F5F5F5F5F5F5F5F5F5F5F5F5F5F5F5F5F5F5F5F5E2F5F5E2E2E2F5F5E2F5F5F5
310
F5F5F5F5F5F5F5F5F5F5F5F5F5F5F5F5F5F5F5F5F5F5F5F5F5F5F5F5F5F5F5F5F5F5F5F5F5F5F5F5F5F5F5F5F5F5F5F5F5F5F5F5F5F5F5F5F5F5F5F5F5F5F5F5F5F5F5F5F5F5F5F5F5F5F5F5F5F5F5F5F5F5F5F5F5F5F5F5F5F5F5F5F5F5F5F5F5F5F5F5F5F5F5F5F5F5F5F5F5F5F5F5F5F5F5F5F5F5F5F5F5F5F5F5F5F5F5
310
F5F5F5F5F5F5F5F5F5F5F5F5F5F5F5F5F5F5F5F5F5F5F5F5F5F5F5F5F5F5F5F5F5F5F5F5F5F5F5F5F5E2F5F5E2E2E2F5F5E2F5F5F5F5F5F5F5F5F5F5F5F5F5F5F5F5F5F5F5F5F5F5F5F5F5F5F5F5F5F5F5F5F5F5F5F5F5F5F5F5F5F5F5F5F5F5F5F5F5F5F5F5F5F5F5F5F5F5F5F5F5F5F5F5F5F5F5F5F5F5F5F5F5F5F5F5F5
310
F5F5F5F5F5F5F5F5F5F5F5F5F5F5F5F5F5F5F5F5F5F5F5F5F5F5F5F5F5F5F5F5F5F5F5F5F5F5F5F5F5F5F5F5F5F5F5F5F5F5F5F5F5F5F5F5F5F5F5F5F5F5F5F5F5F5F5F5F5F5F5F5F5F5F5F5F5F5F5F5F5F5F5F5F5F5F5F5F5F5F5F5F5F5E2F5F5E2E2E2F5F5E2F5F5F5F5F5F5F5F5F5F5F5F5F5F5F5F5F5F5F5F5F5F5F5F5
310
F5F5F5F5F5F5F5F5F5F5F5F5F5F5F5F5F5F5F5F5F5F5F5F5F5F5F5F5F5F5F5F5F5F5F5F5F5F5F5F5F5F5F5F5F5F5F5F5F5F5F5F5F5F5F5F5F5F5F5F5F5F5F5F5F5F5F5F5F5F5F5F5F5F5F5F5F5F5F5F5F5F5F5F5F5F5F5F5F5F5F5F5F5F5F5F5F5F5F5F5F5F5F5F5F5F5F5F5F5F5F5F5F5F5F5F5F5F5F5F5F5F5F5F5F5F5F5
310
F5F5F5F5F5F5F5F5F5F5F5F5F5F5F5F5F5F5F5F5E2F5F5E2E2E2F5F5E2F5F5F5F5F5F5F5F5F5F5F5F5F5F5F5F5F5F5F5F5F5F5F5F5F5F5F5F5F5F5F5F5F5F5F5F5F5F5F5F5F5F5F5F5F5F5F5F5F5F5F5F5F5F5F5F5F5F5F5F5F5F5F5F5F5F5F5F5F5F5F5F5F5F5F5F5F5F5F5F5F5F5F5F5F5F5F5F5F5F5F5F5F5F5F5F5F5F5
310
F5F5F5F5F5F5F5F5F5F5F5F5F5F5F5F5F5F5F5F5F5F5F5F5F5F5F5F5F5F5F5F5F5F5F5F5F5F5F5F5F5F5F5F5F5F5F5F5F5F5F5F5F5F5F5F5F5F5F5F5F5F5F5F5F5F5F5F5F5F5F5F5F5E2F5F5E2E2E2F5F5F5F5F5F5F5F5F5F5F5F5F5F5F5F5F5F5F5F5F5F5F5F5F5F5F5F5F5F5F5F5F5F5F5F5F5F5F5F5F5F5F5F5F5F5F5F5
310
F5F5F5F5F5F5F5F5F5F5F5F5F5F5F5F5F5F5F5F5F5F5F5F5F5F5F5F5F5F5F5F5F5F5F5F5F5F5F5F5F5F5F5F5F5F5F5F5F5F5F5F5F5F5F5F5F5F5F5F5F5F5F5F5F5F5F5F5F5F5F5F5F5F5F5F5F5F5F5F5F5F5F5F5F5F5F5F5F5F5F5F5F5F5F5F5F5F5F5F5F5F5F5F5F5F5F5F5F5F5F5F5F5F5F5F5F5F5F5F5F5F5F5F5F5F5F5
310
F5F5E2E2E2F5F5F5F5F5F5F5F5F5F5F5F5F5F5F5F5F5F5F5F5F5F5F5F5F5F5F5F5F5F5F5F5F5F5F5F5F5F5F5F5F5F5F5F5F5F5F5F5F5F5F5F5F5F5F5F5F5F5F5F5F5F5F5F5F5F5F5F5F5F5F5F5F5F5F5F5F5F5F5F5F5F5F5F5F5F5F5F5F5F5F5F5F5F5F5F5F5F5F5F5F5F5F5F5F5F5F5F5F5F5F5F5F5F5F5F5F5F5F5F5F5F5
310
F5F5F5F5F5F5F5F5F5F5F5F5F5F5F5F5F5F5F5F5F5F5F5F5F5F5F5F5F5F5F5F5F5F5F5F5F5F5F5F5F5F5F5F5F5F5F5F5F5F5F5F5F5F5F5E2E2E2F5F5F5F5F5F5F5F5F5F5F5F5F5F5F5F5F5F5F5F5F5F5F5F5F5F5F5F5F5F5F5F5F5F5F5F5F5F5F5F5F5F5F5F5F5F5F5F5F5F5F5F5F5F5F5F5F5F5F5F5F5F5F5F5F5F5F5F5F5
310
F5F5F5F5F5F5F5F5F5F5F5F5F5F5F5F5F5F5F5F5F5F5F5F5F5F5F5F5F5F5F5F5F5F5F5F5F5F5F5F5F5F5F5F5F5F5F5F5F5F5F5F5F5F5F5F5F5F5F5F5F5F5F5F5F5F5F5F5F5F5F5F5F5F5F5F5F5F5F5F5F5F5F5F5F5F5F5F5F5F5F5F5F5F5F5F5F5F5F5F5F5F5F5F5F5F5F5F5E2E2E2F5F5F5F5F5F5F5F5F5F5F5F5F5F5F5F5
310
F5F5F5F5F5F5F5F5F5F5F5F5F5F5F5F5F5F5F5F5F5F5F5F5F5F5F5F5F5F5F5F5F5F5F5F5F5F5F5F5F5F5F5F5F5F5F5F5F5F5F5F5F5F5F5F5F5F5F5F5F5F5F5F5F5F5F5F5F5F5F5F5F5F5F5F5F5F5F5F5F5F5F5F5F5F5F5F5F5F5F5F5F5F5F5F5F5F5F5F5F5F5F5F5F5F5F5F5F5F5F5F5F5F5F5F5F5F5F5F5F5F5F5F5F5F5F5
310
F5F5F5F5F5F5F5F5F5F5F5F5F5F5F5F5F5F5F5F5F5F5F5F5F5F5F5F5F5F5F5F5F5F5E2E2E2F5F5F5F5F5F5F5F5F5F5F5F5F5F5F5F5F5F5F5F5F5F5F5F5F5F5F5F5F5F5F5F5F5F5F5F5F5F5F5F5F5F5F5F5F5F5F5F5F5F5F5F5F5F5F5F5F5F5F5F5F5F5F5F5F5F5F5F5F5F5F5F5F5F5F5F5F5F5F5F5F5F5F5F5F5F5F5F5F5F5
310
F5F5F5F5F5F5F5F5F5F5F5F5F5F5F5F5F5F5F5F5F5F5F5F5F5F5F5F5F5F5F5F5F5F5F5F5F5F5F5F5F5F5F5F5F5F5F5F5F5F5F5F5F5F5F5F5F5F5F5F5F5F5F5F5F5F5F5F5F5F5F5F5F5F5F5F5F5F5F5F5F5F5F5F5F5F5F5E2E2E2F5F5F5F5F5F5F5F5F5F5F5F5F5F5F5F5F5F5F5F5F5F5F5F5F5F5F5F5F5F5F5F5F5F5F5F5F5
310
F5F5F5F5F5F5F5F5F5F5F5F5F5F5F5F5F5F5F5F5F5F5F5F5F5F5F5F5F5F5F5F5F5F5F5F5F5F5F5F5F5F5F5F5F5F5F5F5F5F5F5F5F5F5F5F5F5F5F5F5F5F5F5F5F5F5F5F5F5F5F5F5F5F5F5F5F5F5F5F5F5F5F5F5F5F5F5F5F5F5F5F5F5F5F5F5F5F5F5F5F5F5F5F5F5F5F5F5F5F5F5F5F5F5F5F5F5F5F5F5F5F5F5F5F5F5F5
310
F5F5F5F5F5F5F5F5F5F5F5F5F5E2E2E2F5F5F5F5F5F5F5F5F5F5F5F5F5F5F5F5F5F5F5F5F5F5F5F5F5F5F5F5F5F5F5F5F5F5F5F5F5F5F5F5F5F5F5F5F5F5F5F5F5F5F5F5F5F5F5F5F5F5F5F5F5F5F5F5F5F5F5F5F5F5F5F5F5F5F5F5F5F5F5F5F5F5F5F5F5F5F5F5F5F5F5F5F5F5F5F5F5F5F5F5F5F5F5F5F5F5F5F5F5F5F5
310
F5F5F5F5F5F5F5F5F5F5F5F5F5F5F5F5F5F5F5F5F5F5F5F5F5F5F5F5F5F5F5F5F5F5F5F5F5F5F5F5F5F5F5F5F5F5F5F5F5F5F5F5F5F5F5F5F5F5F5F5F5F5F5F5F5F5E2E2E2F5F5F5F5F5F5F5F5F5F5F5F5F5F5F5F5F5F5F5F5F5F5F5F5F5F5F5F5F5F5F5F5F5F5F5F5F5F5F5F5F5F5F5F5F5F5F5F5F5F5F5F5F5F5F5F5F5F5
310
F5F5F5F5F5F5F5F5F5F5F5F5F5F5F5F5F5F5F5F5F5F5F5F5F5F5F5F5F5F5F5F5F5F5F5F5F5F5F5F5F5F5F5F5F5F5F5F5F5F5F5F5F5F5F5F5F5F5F5F5F5F5F5F5F5F5F5F5F5F5F5F5F5F5F5F5F5F5F5F5F5F5F5F5F5F5F5F5F5F5F5F5F5F5F5F5F5F5F5F5F5F5F5F5F5F5F5F5F5F5F5F5F5F5F5F5F5F5F5E2E2E2F5F5F5F5F5
310
F5F5F5F5F5F5F5F5F5F5F5F5F5F5F5F5F5F5F5F5F5F5F5F5F5F5F5F5F5F5F5F5F5F5F5F5F5F5F5F5F5F5F5F5F5F5F5F5F5F5F5F5F5F5F5F5F5F5F5F5F5F5F5F5F5F5F5F5F5F5F5F5F5F5F5F5F5F5F5F5F5F5F5F5F5F5F5F5F5F5F5F5F5F5F5F5F5F5F5F5F5F5F5F5F5F5F5F5F5F5F5F5F5F5F5F5F5F5F5F5F5F5F5F5F5F5F5
310
F5F5F5F5F5F5F5F5F5F5F5F5F5F5F5F5F5F5F5F5F5F5F5F5F5F5F5F5F5F5F5F5F5F5F5F5F5F5F5F5F5F5F5F5F5E2E2E2F5F5E2F5F5F5F5F5F5F5F5F5F5F5F5F5F5F5F5F5F5F5F5F5F5F5F5F5F5F5F5F5F5F5F5F5F5F5F5F5F5F5F5F5F5F5F5F5F5F5F5F5F5F5F5F5F5F5F5F5F5F5F5F5F5F5F5F5F5F5F5F5F5F5F5F5F5F5F5
310
F5F5F5F5F5F5F5F5F5F5F5F5F5F5F5F5F5F5F5F5F5F5F5F5F5F5F5F5F5F5F5F5F5F5F5F5F5F5F5F5F5F5F5F5F5F5F5F5F5F5F5F5F5F5F5F5F5F5F5F5F5F5F5F5F5F5F5F5F5F5F5F5F5F5F5F5F5F5F5F5F5F5F5F5F5F5F5F5F5F5F5F5F5F5F5E2F5F5E2E2E2F5F5E2F5F5F5F5F5F5F5F5F5F5F5F5F5F5F5F5F5F5F5F5F5F5F5
310
F5F5F5F5F5F5F5F5F5F5F5F5F5F5F5F5F5F5F5F5F5F5F5F5F5F5F5F5F5F5F5F5F5F5F5F5F5F5F5F5F5F5F5F5F5F5F5F5F5F5F5F5F5F5F5F5F5F5F5F5F5F5F5F5F5F5F5F5F5F5F5F5F5F5F5F5F5F5F5F5F5F5F5F5F5F5F5F5F5F5F5F5F5F5F5F5F5F5F5F5F5F5F5F5F5F5F5F5F5F5F5F5F5F5F5F5F5F5F5F5F5F5F5F5F5F5F5
310
F5F5F5F5F5F5F5F5F5F5F5F5F5F5F5F5F5F5F5F5F5E2F5F5E2E2E2F5F5E2F5F5F5F5F5F5F5F5F5F5F5F5F5F5F5F5F5F5F5F5F5F5F5F5F5F5F5F5F5F5F5F5F5F5F5F5F5F5F5F5F5F5F5F5F5F5F5F5F5F5F5F5F5F5F5F5F5F5F5F5F5F5F5F5F5F5F5F5F5F5F5F5F5F5F5F5F5F5F5F5F5F5F5F5F5F5F5F5F5F5F5F5F5F5F5F5F5
310
F5F5F5F5F5F5F5F5F5F5F5F5F5F5F5F5F5F5F5F5F5F5F5F5F5F5F5F5F5F5F5F5F5F5F5F5F5F5F5F5F5F5F5F5F5F5F5F5F5F5F5F5F5F5F5F5F5F5F5F5F5F5F5F5F5F5F5F5F5F5F5F5F5F5E2F5F5E2E2E2F5F5E2F5F5F5F5F5F5F5F5F5F5F5F5F5F5F5F5F5F5F5F5F5F5F5F5F5F5F5F5F5F5F5F5F5F5F5F5F5F5F5F5F5F5F5F5
310
F5F5F5F5F5F5F5F5F5F5F5F5F5F5F5F5F5F5F5F5F5F5F5F5F5F5F5F5F5F5F5F5F5F5F5F5F5F5F5F5F5F5F5F5F5F5F5F5F5F5F5F5F5F5F5F5F5F5F5F5F5F5F5F5F5F5F5F5F5F5F5F5F5F5F5F5F5F5F5F5F5F5F5F5F5F5F5F5F5F5F5F5F5F5F5F5F5F5F5F5F5F5F5F5F5F5F5F5F5F5F5F5F5F5F5F5F5F5F5F5F5F5F5F5F5F5F5
310
E2F5F5E2E2E2F5F5E2F5F5F5F5F5F5F5F5F5F5F5F5F5F5F5F5F5F5F5F5F5F5F5F5F5F5F5F5F5F5F5F5F5F5F5F5F5F5F5F5F5F5F5F5F5F5F5F5F5F5F5F5F5F5F5F5F5F5F5F5F5F5F5F5F5F5F5F5F5F5F5F5F5F5F5F5F5F5F5F5F5F5F5F5F5F5F5F5F5F5F5F5F5F5F5F5F5F5F5F5F5F5F5F5F5F5F5F5F5F5F5F5F5F5F5F5F5F5
310
F5F5F5F5F5F5F5F5F5F5F5F5F5F5F5F5F5F5F5F5F5F5F5F5F5F5F5F5F5F5F5F5F5F5F5F5F5F5F5F5F5F5F5F5F5F5F5F5F5F5F5F5F5E2F5F5E2E2E2F5F5E2F5F5F5F5F5F5F5F5F5F5F5F5F5F5F5F5F5F5F5F5F5F5F5F5F5F5F5F5F5F5F5F5F5F5F5F5F5F5F5F5F5F5F5F5F5F5F5F5F5F5F5F5F5F5F5F5F5F5F5F5F5F5F5F5F5
310
F5F5F5F5F5F5F5F5F5F5F5F5F5F5F5F5F5F5F5F5F5F5F5F5F5F5F5F5F5F5F5F5F5F5F5F5F5F5F5F5F5F5F5F5F5F5F5F5F5F5F5F5F5F5F5F5F5F5F5F5F5F5F5F5F5F5F5F5F5F5F5F5F5F5F5F5F5F5F5F5F5F5F5F5F5F5F5F5F5F5F5F5F5F5F5F5F5F5F5F5F5F5F5F5F5F5E2F5F5E2E2E2F5F5E2F5F5F5F5F5F5F5F5F5F5F5F5
310
F5F5F5F5F5F5F5F5F5F5F5F5F5F5F5F5F5F5F5F5F5F5F5F5F5F5F5F5F5F5F5F5F5F5F5F5F5F5F5F5F5F5F5F5F5F5F5F5F5F5F5F5F5F5F5F5F5F5F5F5F5F5F5F5F5F5F5F5F5F5F5F5F5F5F5F5F5F5F5F5F5F5F5F5F5F5F5F5F5F5F5F5F5F5F5F5F5F5F5F5F5F5F5F5F5F5F5F5F5F5F5F5F5F5F5F5F5F5F5F5F5F5F5F5F5F5F5
310
F5F5F5F5F5F5F5F5F5F5F5F5F5F5F5F5F5F5F5F5F5F5F5F5F5F5F5F5F5F5F5F5E2F5F5E2E2E2F5F5E2E2E2E2E2E2E2E2F5F5F5F5F5F5F5F5F5E2E2E2E2E2E2E2E2E2E2E2E2E2E2E2E2F5F5F5F5F5F5F5F5F5E2E2E2E2E2E2E2E2E2E2E2E2E2E2E2E2F5F5F5F5F5F5F5F5E2E2E2E2E2E2E2E2E2E2E2E2E2E2E2E2F5F5F5F5F5
310
F5F5F5F5E2E2E2E2E2E2E2E2E2E2E2E2E2E2E2E2F5F5F5F5F5F5F5F5E2E2E2E2E2E2E2E2E2E2E2E2E2E2E2E2F5F5F5F5F5F5F5F5F5E2E2E2E2E2E2E2E2E2E2E2E2E2E2E2E2F5F5F5F5F5F5F5F5F5E2E2E2E2E2E2E2E2F5F5E2E2E2F5F5F5F5F5F5F5F5F5F5F5F5F5F5F5F5F5F5F5F5F5F5F5F5F5F5F5F5F5F5F5F5F5F5F5F5
310
F5F5F5F5F5F5F5F5F5F5F5F5F5F5F5F5F5F5F5F5F5F5F5F5F5F5F5F5F5F5F5F5F5F5F5F5F5F5F5F5F5F5F5F5F5F5F5F5F5F5F5F5F5F5F5F5F5F5F5F5F5F5F5F5F5F5F5F5F5F5F5F5F5F5F5F5F5F5F5F5F5F5F5F5F5F5F5F5F5F5F5F5F5F5F5F5F5F5F5F5F5F5F5F5F5F5F5F5F5F5F5F5F5F5F5F5F5F5F5F5F5F5F5F5F5F5F5
310
F5F5F5F5F5F5F5F5F5F5F5F5F5F5E2E2E2F5F5F5F5F5F5F5F5F5F5F5F5F5F5F5F5F5F5F5F5F5F5F5F5F5F5F5F5F5F5F5F5F5F5F5F5F5F5F5F5F5F5F5F5F5F5F5F5F5F5F5F5F5F5F5F5F5F5F5F5F5F5F5F5F5F5F5F5F5F5F5F5F5F5F5F5F5F5F5F5F5F5F5F5F5F5F5F5F5F5F5F5F5F5F5F5F5F5F5F5F5F5F5F5F5F5F5F5F5F5
310
F5F5F5F5F5F5F5F5F5F5F5F5F5F5F5F5F5F5F5F5F5F5F5F5F5F5F5F5F5F5F5F5F5F5F5F5F5F5F5F5F5F5F5F5F5F5F5F5F5F5F5F5F5F5F5F5F5F5F5F5F5F5F5F5F5F5F5E2E2E2F5F5F5F5F5F5F5F5F5F5F5F5F5F5F5F5F5F5F5F5F5F5F5F5F5F5F5F5F5F5F5F5F5F5F5F5F5F5F5F5F5F5F5F5F5F5F5F5F5F5F5F5F5F5F5F5F5
310
F5F5F5F5F5F5F5F5F5F5F5F5F5F5F5F5F5F5F5F5F5F5F5F5F5F5F5F5F5F5F5F5F5F5F5F5F5F5F5F5F5F5F5F5F5F5F5F5F5F5F5F5F5F5F5F5F5F5F5F5F5F5F5F5F5F5F5F5F5F5F5F5F5F5F5F5F5F5F5F5F5F5F5F5F5F5F5F5F5F5F5F5F5F5F5F5F5F5F5F5F5F5F5F5F5F5F5F5F5F5F5F5F5F5F5F5F5F5F5F5E2EFE2E2E2E2E2
310
E2E2E2E2E2E2E2E2E2E2E2E2E2E2E2E2E2E2E2E2E2E2E2E2E2E2E2E2E2E2E2E2E2E2E2E2E2E2E2E2E2E2E2E2E2E2E2E2E2E2E2E2E2E2E2E2E2E2E2E2E2E2E2E2E2E2E2E2E2E2E2E2E2E2E2E2E2E2E2E2E2E2E2E2E2E2E2E2E2E2E2E2E2E2E2E2E2E2E2E2E2E2E2E2E2E2E2E2E2E2E2E2E2E2E2E2E2E2E2E2E2E2E2E2E2E2E2
310
E2E2E2E2E2E2E2E2E2E2E2E2E2E2E2E2E2E2E2E2E2E2E2E2E2E2E2E2E2E2E2E2E2E2E2E2E2E2E2E2E2E2E2E2E2E2E2EF
  0
XRECORD
  5
B4BF
102
{ACAD_REACTORS
330
B4BE
102
}
330
B4BE
100
AcDbXrecord
280
     1
102
MATERIAL
148
0.0
149
0.0
149
0.0
 93
        0
 94
       63
282
     0
 72
     1
 77
     1
171
     1
175
     1
179
     1
273
     0
  0
XRECORD
  5
B4BD
102
{ACAD_REACTORS
330
B4BC
102
}
330
B4BC
100
AcDbXrecord
280
     1
102
MATERIAL
148
0.0
149
0.0
149
0.0
 93
        0
 94
       63
282
     0
 72
     1
 77
     1
171
     1
175
     1
179
     1
273
     0
  0
XRECORD
  5
B4C1
102
{ACAD_REACTORS
330
B4C0
102
}
330
B4C0
100
AcDbXrecord
280
     1
102
MATERIAL
148
0.0
149
0.0
149
0.0
 93
        0
 94
       63
282
     0
 72
     1
 77
     1
171
     1
175
     1
179
     1
273
     0
  0
CELLSTYLEMAP
  5
B4B7
102
{ACAD_REACTORS
330
33B8
102
}
330
33B8
100
AcDbCellStyleMap
 90
        3
300
CELLSTYLE
  1
TABLEFORMAT_BEGIN
 90
        5
170
     1
 91
        0
 92
    32768
 62
   257
 93
        1
300
CONTENTFORMAT
  1
CONTENTFORMAT_BEGIN
 90
        0
 91
        0
 92
        4
 93
        0
300

 40
0.0
140
1.0
 94
        5
 62
     0
340
F
144
0.25
309
CONTENTFORMAT_END
171
     0
 94
        6
 95
        1
302
GRIDFORMAT
  1
GRIDFORMAT_BEGIN
 90
        0
 91
        1
 62
     0
 92
       -2
340
0
 93
        0
 40
0.045
309
GRIDFORMAT_END
 95
        2
302
GRIDFORMAT
  1
GRIDFORMAT_BEGIN
 90
        0
 91
        1
 62
     0
 92
       -2
340
0
 93
        0
 40
0.045
309
GRIDFORMAT_END
 95
        4
302
GRIDFORMAT
  1
GRIDFORMAT_BEGIN
 90
        0
 91
        1
 62
     0
 92
       -2
340
0
 93
        0
 40
0.045
309
GRIDFORMAT_END
 95
        8
302
GRIDFORMAT
  1
GRIDFORMAT_BEGIN
 90
        0
 91
        1
 62
     0
 92
       -2
340
0
 93
        0
 40
0.045
309
GRIDFORMAT_END
 95
       16
302
GRIDFORMAT
  1
GRIDFORMAT_BEGIN
 90
        0
 91
        1
 62
     0
 92
       -2
340
0
 93
        0
 40
0.045
309
GRIDFORMAT_END
 95
       32
302
GRIDFORMAT
  1
GRIDFORMAT_BEGIN
 90
        0
 91
        1
 62
     0
 92
       -2
340
0
 93
        0
 40
0.045
309
GRIDFORMAT_END
309
TABLEFORMAT_END
  1
CELLSTYLE_BEGIN
 90
        1
 91
        1
300
_TITLE
309
CELLSTYLE_END
300
CELLSTYLE
  1
TABLEFORMAT_BEGIN
 90
        5
170
     1
 91
        0
 92
        0
 62
   257
 93
        1
300
CONTENTFORMAT
  1
CONTENTFORMAT_BEGIN
 90
        0
 91
        0
 92
        4
 93
        0
300

 40
0.0
140
1.0
 94
        5
 62
     0
340
F
144
0.18
309
CONTENTFORMAT_END
171
     0
 94
        6
 95
        1
302
GRIDFORMAT
  1
GRIDFORMAT_BEGIN
 90
        0
 91
        1
 62
     0
 92
       -2
340
0
 93
        0
 40
0.045
309
GRIDFORMAT_END
 95
        2
302
GRIDFORMAT
  1
GRIDFORMAT_BEGIN
 90
        0
 91
        1
 62
     0
 92
       -2
340
0
 93
        0
 40
0.045
309
GRIDFORMAT_END
 95
        4
302
GRIDFORMAT
  1
GRIDFORMAT_BEGIN
 90
        0
 91
        1
 62
     0
 92
       -2
340
0
 93
        0
 40
0.045
309
GRIDFORMAT_END
 95
        8
302
GRIDFORMAT
  1
GRIDFORMAT_BEGIN
 90
        0
 91
        1
 62
     0
 92
       -2
340
0
 93
        0
 40
0.045
309
GRIDFORMAT_END
 95
       16
302
GRIDFORMAT
  1
GRIDFORMAT_BEGIN
 90
        0
 91
        1
 62
     0
 92
       -2
340
0
 93
        0
 40
0.045
309
GRIDFORMAT_END
 95
       32
302
GRIDFORMAT
  1
GRIDFORMAT_BEGIN
 90
        0
 91
        1
 62
     0
 92
       -2
340
0
 93
        0
 40
0.045
309
GRIDFORMAT_END
309
TABLEFORMAT_END
  1
CELLSTYLE_BEGIN
 90
        2
 91
        1
300
_HEADER
309
CELLSTYLE_END
300
CELLSTYLE
  1
TABLEFORMAT_BEGIN
 90
        5
170
     1
 91
        0
 92
        0
 62
   257
 93
        1
300
CONTENTFORMAT
  1
CONTENTFORMAT_BEGIN
 90
        0
 91
        0
 92
        4
 93
        0
300

 40
0.0
140
1.0
 94
        2
 62
     0
340
F
144
0.18
309
CONTENTFORMAT_END
171
     0
 94
        6
 95
        1
302
GRIDFORMAT
  1
GRIDFORMAT_BEGIN
 90
        0
 91
        1
 62
     0
 92
       -2
340
0
 93
        0
 40
0.045
309
GRIDFORMAT_END
 95
        2
302
GRIDFORMAT
  1
GRIDFORMAT_BEGIN
 90
        0
 91
        1
 62
     0
 92
       -2
340
0
 93
        0
 40
0.045
309
GRIDFORMAT_END
 95
        4
302
GRIDFORMAT
  1
GRIDFORMAT_BEGIN
 90
        0
 91
        1
 62
     0
 92
       -2
340
0
 93
        0
 40
0.045
309
GRIDFORMAT_END
 95
        8
302
GRIDFORMAT
  1
GRIDFORMAT_BEGIN
 90
        0
 91
        1
 62
     0
 92
       -2
340
0
 93
        0
 40
0.045
309
GRIDFORMAT_END
 95
       16
302
GRIDFORMAT
  1
GRIDFORMAT_BEGIN
 90
        0
 91
        1
 62
     0
 92
       -2
340
0
 93
        0
 40
0.045
309
GRIDFORMAT_END
 95
       32
302
GRIDFORMAT
  1
GRIDFORMAT_BEGIN
 90
        0
 91
        1
 62
     0
 92
       -2
340
0
 93
        0
 40
0.045
309
GRIDFORMAT_END
309
TABLEFORMAT_END
  1
CELLSTYLE_BEGIN
 90
        3
 91
        2
300
_DATA
309
CELLSTYLE_END
  0
XRECORD
  5
B4BB
102
{ACAD_REACTORS
330
33B8
102
}
330
33B8
100
AcDbXrecord
280
     1
102
ACAD_ROUNDTRIP_PRE2007_TABLESTYLE
 90
        4
 91
        0
  1

 92
        4
 93
        0
  2

 94
        4
 95
        0
  3

  0
ENDSEC
  0
EOF
