  0
SECTION
  2
HEADER
  9
$ACADVER
  1
AC1015
  9
$ACADMAINTVER
 70
    20
  9
$DWGCODEPAGE
  3
ANSI_1252
  9
$INSBASE
 10
0.0
 20
0.0
 30
0.0
  9
$EXTMIN
 10
-2735.443697517518
 20
-5111.99252441682
 30
0.0
  9
$EXTMAX
 10
3820.412009539733
 20
163.7780270608942
 30
0.0
  9
$LIMMIN
 10
-1091.180495341761
 20
-619.6501650024412
  9
$LIMMAX
 10
1056.97244419739
 20
951.0353648293053
  9
$ORTHOMODE
 70
     0
  9
$REGENMODE
 70
     1
  9
$FILLMODE
 70
     1
  9
$QTEXTMODE
 70
     0
  9
$MIRRTEXT
 70
     1
  9
$LTSCALE
 40
1.0
  9
$ATTMODE
 70
     1
  9
$TEXTSIZE
 40
25.0
  9
$TRACEWID
 40
0.05
  9
$TEXTSTYLE
  7
ARIALFETT
  9
$CLAYER
  8
18
  9
$CELTYPE
  6
BYLAYER
  9
$CECOLOR
 62
   256
  9
$CELTSCALE
 40
1.0
  9
$DISPSILH
 70
     0
  9
$DIMSCALE
 40
500.0
  9
$DIMASZ
 40
0.25
  9
$DIMEXO
 40
0.1
  9
$DIMDLI
 40
0.5
  9
$DIMRND
 40
0.0
  9
$DIMDLE
 40
0.0
  9
$DIMEXE
 40
0.25
  9
$DIMTP
 40
0.0
  9
$DIMTM
 40
0.0
  9
$DIMTXT
 40
0.25
  9
$DIMCEN
 40
0.09
  9
$DIMTSZ
 40
0.0
  9
$DIMTOL
 70
     0
  9
$DIMLIM
 70
     0
  9
$DIMTIH
 70
     0
  9
$DIMTOH
 70
     0
  9
$DIMSE1
 70
     0
  9
$DIMSE2
 70
     1
  9
$DIMTAD
 70
     1
  9
$DIMZIN
 70
     0
  9
$DIMBLK
  1

  9
$DIMASO
 70
     1
  9
$DIMSHO
 70
     1
  9
$DIMPOST
  1

  9
$DIMAPOST
  1

  9
$DIMALT
 70
     0
  9
$DIMALTD
 70
     2
  9
$DIMALTF
 40
25.4
  9
$DIMLFAC
 40
1.0
  9
$DIMTOFL
 70
     0
  9
$DIMTVP
 40
0.0
  9
$DIMTIX
 70
     0
  9
$DIMSOXD
 70
     0
  9
$DIMSAH
 70
     0
  9
$DIMBLK1
  1

  9
$DIMBLK2
  1

  9
$DIMSTYLE
  2
TYPENBLATT_M50
  9
$DIMCLRD
 70
     0
  9
$DIMCLRE
 70
     0
  9
$DIMCLRT
 70
     0
  9
$DIMTFAC
 40
1.0
  9
$DIMGAP
 40
0.075
  9
$DIMJUST
 70
     0
  9
$DIMSD1
 70
     0
  9
$DIMSD2
 70
     1
  9
$DIMTOLJ
 70
     1
  9
$DIMTZIN
 70
     0
  9
$DIMALTZ
 70
     0
  9
$DIMALTTZ
 70
     0
  9
$DIMUPT
 70
     0
  9
$DIMDEC
 70
     0
  9
$DIMTDEC
 70
     4
  9
$DIMALTU
 70
     2
  9
$DIMALTTD
 70
     2
  9
$DIMTXSTY
  7
VOEST
  9
$DIMAUNIT
 70
     0
  9
$DIMADEC
 70
     0
  9
$DIMALTRND
 40
0.0
  9
$DIMAZIN
 70
     0
  9
$DIMDSEP
 70
    46
  9
$DIMATFIT
 70
     3
  9
$DIMFRAC
 70
     0
  9
$DIMLDRBLK
  1

  9
$DIMLUNIT
 70
     2
  9
$DIMLWD
 70
    -2
  9
$DIMLWE
 70
    -2
  9
$DIMTMOVE
 70
     0
  9
$LUNITS
 70
     2
  9
$LUPREC
 70
     4
  9
$SKETCHINC
 40
0.1
  9
$FILLETRAD
 40
10.0
  9
$AUNITS
 70
     0
  9
$AUPREC
 70
     4
  9
$MENU
  1
acad
  9
$ELEVATION
 40
0.0
  9
$PELEVATION
 40
0.0
  9
$THICKNESS
 40
0.0
  9
$LIMCHECK
 70
     0
  9
$CHAMFERA
 40
0.0
  9
$CHAMFERB
 40
0.0
  9
$CHAMFERC
 40
1.0
  9
$CHAMFERD
 40
0.0
  9
$SKPOLY
 70
     0
  9
$TDCREATE
 40
2451353.459995197
  9
$TDUCREATE
 40
2451353.376661864
  9
$TDUPDATE
 40
2454033.303711632
  9
$TDUUPDATE
 40
2454033.220378299
  9
$TDINDWG
 40
2.6435264468
  9
$TDUSRTIMER
 40
2.6435264468
  9
$USRTIMER
 70
     1
  9
$ANGBASE
 50
0.0
  9
$ANGDIR
 70
     0
  9
$PDMODE
 70
     0
  9
$PDSIZE
 40
0.0
  9
$PLINEWID
 40
0.0
  9
$SPLFRAME
 70
     0
  9
$SPLINETYPE
 70
     6
  9
$SPLINESEGS
 70
     8
  9
$HANDSEED
  5
205C
  9
$SURFTAB1
 70
     6
  9
$SURFTAB2
 70
     6
  9
$SURFTYPE
 70
     6
  9
$SURFU
 70
     6
  9
$SURFV
 70
     6
  9
$UCSBASE
  2

  9
$UCSNAME
  2

  9
$UCSORG
 10
0.0
 20
0.0
 30
0.0
  9
$UCSXDIR
 10
1.0
 20
0.0
 30
0.0
  9
$UCSYDIR
 10
0.0
 20
1.0
 30
0.0
  9
$UCSORTHOREF
  2

  9
$UCSORTHOVIEW
 70
     0
  9
$UCSORGTOP
 10
0.0
 20
0.0
 30
0.0
  9
$UCSORGBOTTOM
 10
0.0
 20
0.0
 30
0.0
  9
$UCSORGLEFT
 10
0.0
 20
0.0
 30
0.0
  9
$UCSORGRIGHT
 10
0.0
 20
0.0
 30
0.0
  9
$UCSORGFRONT
 10
0.0
 20
0.0
 30
0.0
  9
$UCSORGBACK
 10
0.0
 20
0.0
 30
0.0
  9
$PUCSBASE
  2

  9
$PUCSNAME
  2

  9
$PUCSORG
 10
0.0
 20
0.0
 30
0.0
  9
$PUCSXDIR
 10
1.0
 20
0.0
 30
0.0
  9
$PUCSYDIR
 10
0.0
 20
1.0
 30
0.0
  9
$PUCSORTHOREF
  2

  9
$PUCSORTHOVIEW
 70
     0
  9
$PUCSORGTOP
 10
0.0
 20
0.0
 30
0.0
  9
$PUCSORGBOTTOM
 10
0.0
 20
0.0
 30
0.0
  9
$PUCSORGLEFT
 10
0.0
 20
0.0
 30
0.0
  9
$PUCSORGRIGHT
 10
0.0
 20
0.0
 30
0.0
  9
$PUCSORGFRONT
 10
0.0
 20
0.0
 30
0.0
  9
$PUCSORGBACK
 10
0.0
 20
0.0
 30
0.0
  9
$USERI1
 70
     0
  9
$USERI2
 70
     0
  9
$USERI3
 70
     0
  9
$USERI4
 70
     0
  9
$USERI5
 70
     0
  9
$USERR1
 40
0.0
  9
$USERR2
 40
0.0
  9
$USERR3
 40
0.0
  9
$USERR4
 40
0.0
  9
$USERR5
 40
0.0
  9
$WORLDVIEW
 70
     1
  9
$SHADEDGE
 70
     3
  9
$SHADEDIF
 70
    70
  9
$TILEMODE
 70
     1
  9
$MAXACTVP
 70
    48
  9
$PINSBASE
 10
0.0
 20
0.0
 30
0.0
  9
$PLIMCHECK
 70
     0
  9
$PEXTMIN
 10
1.000000000000000E+20
 20
1.000000000000000E+20
 30
1.000000000000000E+20
  9
$PEXTMAX
 10
-1.000000000000000E+20
 20
-1.000000000000000E+20
 30
-1.000000000000000E+20
  9
$PLIMMIN
 10
-28.8959541988969
 20
2.819245198056933
  9
$PLIMMAX
 10
181.0773734378218
 20
299.7452400711038
  9
$UNITMODE
 70
     0
  9
$VISRETAIN
 70
     1
  9
$PLINEGEN
 70
     0
  9
$PSLTSCALE
 70
     1
  9
$TREEDEPTH
 70
  3020
  9
$CMLSTYLE
  2
STANDARD
  9
$CMLJUST
 70
     0
  9
$CMLSCALE
 40
1.0
  9
$PROXYGRAPHICS
 70
     1
  9
$MEASUREMENT
 70
     0
  9
$CELWEIGHT
370
    -1
  9
$ENDCAPS
280
     0
  9
$JOINSTYLE
280
     0
  9
$LWDISPLAY
290
     0
  9
$INSUNITS
 70
     0
  9
$HYPERLINKBASE
  1

  9
$STYLESHEET
  1

  9
$XEDIT
290
     1
  9
$CEPSNTYPE
380
     0
  9
$PSTYLEMODE
290
     1
  9
$FINGERPRINTGUID
  2
{F8000772-75BD-11D5-8B46-0050046A49B2}
  9
$VERSIONGUID
  2
{F47231F3-0B5B-40FC-89D8-6D872C652E8C}
  9
$EXTNAMES
290
     1
  9
$PSVPSCALE
 40
0.0
  9
$OLESTARTUP
290
     0
  0
ENDSEC
  0
SECTION
  2
CLASSES
  0
CLASS
  1
DICTIONARYVAR
  2
AcDbDictionaryVar
  3
ObjectDBX Classes
 90
        0
280
     0
281
     0
  0
CLASS
  1
ACDBDICTIONARYWDFLT
  2
AcDbDictionaryWithDefault
  3
ObjectDBX Classes
 90
        0
280
     0
281
     0
  0
CLASS
  1
ACDBPLACEHOLDER
  2
AcDbPlaceHolder
  3
ObjectDBX Classes
 90
        0
280
     0
281
     0
  0
CLASS
  1
LAYOUT
  2
AcDbLayout
  3
ObjectDBX Classes
 90
        0
280
     0
281
     0
  0
CLASS
  1
RASTERVARIABLES
  2
AcDbRasterVariables
  3
ISM
 90
        0
280
     0
281
     0
  0
CLASS
  1
IMAGEDEF
  2
AcDbRasterImageDef
  3
ISM
 90
        0
280
     0
281
     0
  0
CLASS
  1
IMAGEDEF_REACTOR
  2
AcDbRasterImageDefReactor
  3
ISM
 90
    32769
280
     0
281
     0
  0
CLASS
  1
IMAGE
  2
AcDbRasterImage
  3
ISM
 90
    32895
280
     0
281
     1
  0
CLASS
  1
TABLESTYLE
  2
AcDbTableStyle
  3
ObjectDBX Classes
 90
     2047
280
     0
281
     0
  0
ENDSEC
  0
SECTION
  2
TABLES
  0
TABLE
  2
VPORT
  5
8
330
0
100
AcDbSymbolTable
 70
     3
  0
VPORT
  5
2055
330
8
100
AcDbSymbolTableRecord
100
AcDbViewportTableRecord
  2
*Active
 70
     0
 10
0.0
 20
0.0
 11
1.0
 21
1.0
 12
822.0209671940283
 22
-3747.230708383205
 13
0.0
 23
0.0
 14
0.5
 24
0.5
 15
0.5
 25
0.5
 16
0.0
 26
0.0
 36
1.0
 17
0.0
 27
0.0
 37
0.0
 40
10506.15323480917
 41
1.565438373570521
 42
50.0
 43
0.0
 44
0.0
 50
0.0
 51
0.0
 71
     0
 72
   100
 73
     1
 74
     1
 75
     0
 76
     0
 77
     0
 78
     0
281
     0
 65
     1
110
0.0
120
0.0
130
0.0
111
1.0
121
0.0
131
0.0
112
0.0
122
1.0
132
0.0
 79
     0
146
0.0
  0
ENDTAB
  0
TABLE
  2
LTYPE
  5
5
330
0
100
AcDbSymbolTable
 70
     3
  0
LTYPE
  5
12
330
5
100
AcDbSymbolTableRecord
100
AcDbLinetypeTableRecord
  2
BYBLOCK
 70
     0
  3

 72
    65
 73
     0
 40
0.0
  0
LTYPE
  5
13
330
5
100
AcDbSymbolTableRecord
100
AcDbLinetypeTableRecord
  2
BYLAYER
 70
     0
  3

 72
    65
 73
     0
 40
0.0
  0
LTYPE
  5
14
330
5
100
AcDbSymbolTableRecord
100
AcDbLinetypeTableRecord
  2
CONTINUOUS
 70
     0
  3
Solid line
 72
    65
 73
     0
 40
0.0
  0
LTYPE
  5
222
330
5
100
AcDbSymbolTableRecord
100
AcDbLinetypeTableRecord
  2
STRICHPUNKT
 70
     0
  3
Strichpunkt __ . __ . __ . __ . __ . __ . __ . 
 72
    65
 73
     4
 40
25.4
 49
12.7
 74
     0
 49
-6.349999999999999
 74
     0
 49
0.0
 74
     0
 49
-6.349999999999999
 74
     0
  0
LTYPE
  5
223
330
5
100
AcDbSymbolTableRecord
100
AcDbLinetypeTableRecord
  2
STRICHLINIE
 70
     0
  3
Strichlinie __ __ __ __ __ __ __ __ __ __ __ __
 72
    65
 73
     2
 40
19.05
 49
12.7
 74
     0
 49
-6.349999999999999
 74
     0
  0
ENDTAB
  0
TABLE
  2
LAYER
  5
2
102
{ACAD_XDICTIONARY
360
204E
102
}
330
0
100
AcDbSymbolTable
 70
     8
  0
LAYER
  5
E
330
2
100
AcDbSymbolTableRecord
100
AcDbLayerTableRecord
  2
0
 70
     0
 62
     7
  6
CONTINUOUS
370
    -3
390
1A14
  0
LAYER
  5
12F
330
2
100
AcDbSymbolTableRecord
100
AcDbLayerTableRecord
  2
25
 70
     0
 62
     7
  6
CONTINUOUS
370
    -3
390
1A14
  0
LAYER
  5
1DA
330
2
100
AcDbSymbolTableRecord
100
AcDbLayerTableRecord
  2
35
 70
     0
 62
     2
  6
CONTINUOUS
370
    -3
390
1A14
  0
LAYER
  5
224
330
2
100
AcDbSymbolTableRecord
100
AcDbLayerTableRecord
  2
KOTIERUNG
 70
     0
 62
     7
  6
CONTINUOUS
370
    -3
390
1A14
  0
LAYER
  5
225
330
2
100
AcDbSymbolTableRecord
100
AcDbLayerTableRecord
  2
DEFPOINTS
 70
     0
 62
     7
  6
CONTINUOUS
290
     0
370
    -3
390
1A14
  0
LAYER
  5
226
330
2
100
AcDbSymbolTableRecord
100
AcDbLayerTableRecord
  2
18
 70
     0
 62
     1
  6
CONTINUOUS
370
    -3
390
1A14
  0
LAYER
  5
425
330
2
100
AcDbSymbolTableRecord
100
AcDbLayerTableRecord
  2
50
 70
     0
 62
    33
  6
CONTINUOUS
370
    -3
390
1A14
  0
LAYER
  5
14EF
330
2
100
AcDbSymbolTableRecord
100
AcDbLayerTableRecord
  2
BLATTTEXT
 70
     0
 62
     7
  6
CONTINUOUS
370
    -3
390
1A14
  0
ENDTAB
  0
TABLE
  2
STYLE
  5
3
330
0
100
AcDbSymbolTable
 70
     3
  0
STYLE
  5
F
330
3
100
AcDbSymbolTableRecord
100
AcDbTextStyleTableRecord
  2
STANDARD
 70
     0
 40
0.0
 41
1.0
 50
0.0
 71
     0
 42
25.0
  3
ARIALN.TTF
  4

1001
ACAD
1000
Arial Narrow
1071
       34
  0
STYLE
  5
428
330
3
100
AcDbSymbolTableRecord
100
AcDbTextStyleTableRecord
  2
VOEST
 70
     0
 40
0.0
 41
1.0
 50
0.0
 71
     0
 42
4.0
  3
ARIALN.TTF
  4

1001
ACAD
1000
Arial Narrow
1071
       34
  0
STYLE
  5
14E5
330
3
100
AcDbSymbolTableRecord
100
AcDbTextStyleTableRecord
  2
ARIALFETT
 70
     0
 40
0.0
 41
1.0
 50
0.0
 71
     0
 42
25.0
  3
ARIALN.TTF
  4

1001
ACAD
1000
Arial Narrow
1071
       34
  0
ENDTAB
  0
TABLE
  2
VIEW
  5
6
330
0
100
AcDbSymbolTable
 70
     1
  0
ENDTAB
  0
TABLE
  2
UCS
  5
7
330
0
100
AcDbSymbolTable
 70
     0
  0
ENDTAB
  0
TABLE
  2
APPID
  5
9
330
0
100
AcDbSymbolTable
 70
     5
  0
APPID
  5
10
330
9
100
AcDbSymbolTableRecord
100
AcDbRegAppTableRecord
  2
ACAD
 70
     0
  0
APPID
  5
24
330
9
100
AcDbSymbolTableRecord
100
AcDbRegAppTableRecord
  2
CONTENTTABDATA
 70
     0
  0
APPID
  5
25
330
9
100
AcDbSymbolTableRecord
100
AcDbRegAppTableRecord
  2
CONTENTCURRENTTAB
 70
     0
  0
APPID
  5
116
330
9
100
AcDbSymbolTableRecord
100
AcDbRegAppTableRecord
  2
CONTENTBLOCKICON
 70
     0
  0
APPID
  5
117
330
9
100
AcDbSymbolTableRecord
100
AcDbRegAppTableRecord
  2
CONTENTBLOCKDESCRIPTION
 70
     0
  0
ENDTAB
  0
TABLE
  2
DIMSTYLE
  5
A
330
0
100
AcDbSymbolTable
 70
     3
100
AcDbDimStyleTable
 71
     2
340
EF9
340
EFA
  0
DIMSTYLE
105
1D
102
{ACAD_REACTORS
330
B2B
102
}
330
A
100
AcDbSymbolTableRecord
100
AcDbDimStyleTableRecord
  2
STANDARD
 70
     0
340
F
  0
DIMSTYLE
105
EF9
102
{ACAD_REACTORS
330
1760
330
EC8
330
B9A
102
}
330
A
100
AcDbSymbolTableRecord
100
AcDbDimStyleTableRecord
  2
TYPENBLATT_M10
 70
     0
 40
142.85
 41
0.25
 42
0.5
 43
0.5
 44
0.25
 73
     0
 74
     0
 77
     1
140
0.25
147
0.075
271
     0
272
     0
340
428
  0
DIMSTYLE
105
EFA
102
{ACAD_REACTORS
330
F3F
330
F4B
330
FD8
330
1984
330
198E
102
}
330
A
100
AcDbSymbolTableRecord
100
AcDbDimStyleTableRecord
  2
TYPENBLATT_M50
 70
     0
 40
500.0
 41
0.25
 42
0.1
 43
0.5
 44
0.25
 73
     0
 74
     0
 77
     1
140
0.25
147
0.075
271
     0
340
428
  0
ENDTAB
  0
TABLE
  2
BLOCK_RECORD
  5
1
330
0
100
AcDbSymbolTable
 70
     9
  0
BLOCK_RECORD
  5
18
330
1
100
AcDbSymbolTableRecord
100
AcDbBlockTableRecord
  2
*MODEL_SPACE
340
1A17
  0
BLOCK_RECORD
  5
1AAB
330
1
100
AcDbSymbolTableRecord
100
AcDbBlockTableRecord
  2
*PAPER_SPACE
340
1B01
  0
BLOCK_RECORD
  5
B1E
330
1
100
AcDbSymbolTableRecord
100
AcDbBlockTableRecord
  2
*D0
340
0
  0
BLOCK_RECORD
  5
B8D
330
1
100
AcDbSymbolTableRecord
100
AcDbBlockTableRecord
  2
*D1
340
0
  0
BLOCK_RECORD
  5
EBC
330
1
100
AcDbSymbolTableRecord
100
AcDbBlockTableRecord
  2
*D2
340
0
  0
BLOCK_RECORD
  5
F34
330
1
100
AcDbSymbolTableRecord
100
AcDbBlockTableRecord
  2
*D3
340
0
  0
BLOCK_RECORD
  5
F40
330
1
100
AcDbSymbolTableRecord
100
AcDbBlockTableRecord
  2
*D4
340
0
  0
BLOCK_RECORD
  5
FCC
330
1
100
AcDbSymbolTableRecord
100
AcDbBlockTableRecord
  2
*D5
340
0
  0
BLOCK_RECORD
  5
1755
330
1
100
AcDbSymbolTableRecord
100
AcDbBlockTableRecord
  2
*D6
340
0
  0
BLOCK_RECORD
  5
197B
330
1
100
AcDbSymbolTableRecord
100
AcDbBlockTableRecord
  2
*D7
340
0
  0
BLOCK_RECORD
  5
1985
330
1
100
AcDbSymbolTableRecord
100
AcDbBlockTableRecord
  2
*D8
340
0
  0
ENDTAB
  0
ENDSEC
  0
SECTION
  2
BLOCKS
  0
BLOCK
  5
19
330
18
100
AcDbEntity
  8
0
100
AcDbBlockBegin
  2
*MODEL_SPACE
 70
     0
 10
0.0
 20
0.0
 30
0.0
  3
*MODEL_SPACE
  1

  0
ENDBLK
  5
1A
330
18
100
AcDbEntity
  8
0
100
AcDbBlockEnd
  0
BLOCK
  5
1AAC
330
1AAB
100
AcDbEntity
 67
     1
  8
0
100
AcDbBlockBegin
  2
*PAPER_SPACE
 70
     0
 10
0.0
 20
0.0
 30
0.0
  3
*PAPER_SPACE
  1

  0
ENDBLK
  5
1B00
330
1AAB
100
AcDbEntity
 67
     1
  8
0
100
AcDbBlockEnd
  0
BLOCK
  5
19D2
330
B1E
100
AcDbEntity
  8
0
100
AcDbBlockBegin
  2
*D0
 70
     1
 10
0.0
 20
0.0
 30
0.0
  3
*D0
  1

  0
LINE
  5
1FD7
330
B1E
100
AcDbEntity
  8
KOTIERUNG
 62
     0
370
    -2
100
AcDbLine
 10
497.9538058447944
 20
92.35302706089443
 30
0.0
 11
430.6430059016918
 21
92.35302706089447
 31
0.0
  0
LINE
  5
1FD8
330
B1E
100
AcDbEntity
  8
KOTIERUNG
 62
     0
370
    -2
100
AcDbLine
 10
493.9178211053523
 20
-657.6469729391056
 30
0.0
 11
430.6430059016916
 21
-657.6469729391056
 31
0.0
  0
LINE
  5
1FD9
330
B1E
100
AcDbEntity
  8
KOTIERUNG
 62
     0
370
    -2
100
AcDbLine
 10
466.3555059016919
 20
56.64052706089444
 30
0.0
 11
466.3555059016917
 21
-621.9344729391056
 31
0.0
  0
SOLID
  5
1FDA
330
B1E
100
AcDbEntity
  8
KOTIERUNG
 62
     0
100
AcDbTrace
 10
460.4034225683585
 20
56.64052706089445
 30
0.0
 11
472.3075892350252
 21
56.64052706089444
 31
0.0
 12
466.3555059016919
 22
92.35302706089445
 32
0.0
 13
466.3555059016919
 23
92.35302706089445
 33
0.0
  0
SOLID
  5
1FDB
330
B1E
100
AcDbEntity
  8
KOTIERUNG
 62
     0
100
AcDbTrace
 10
460.4034225683584
 20
-621.9344729391056
 30
0.0
 11
472.3075892350251
 21
-621.9344729391056
 31
0.0
 12
466.3555059016917
 22
-657.6469729391056
 32
0.0
 13
466.3555059016917
 23
-657.6469729391056
 33
0.0
  0
MTEXT
  5
1FDC
330
B1E
100
AcDbEntity
  8
KOTIERUNG
 62
     0
100
AcDbMText
 10
437.4079180776809
 20
-282.6469729391055
 30
0.0
 40
35.7125
 41
0.0
 71
     5
 72
     1
  1
\A1;750±40
  7
VOEST
 11
0.0000000000000001
 21
1.0
 31
0.0
 73
     1
 44
1.0
1001
ACAD
1000
MTEXTBEGIN
1070
    73
1070
     1
1070
    44
1040
1.0
1070
    74
1070
     0
1000
MTEXTEND
  0
POINT
  5
1FDD
330
B1E
100
AcDbEntity
  8
DEFPOINTS
 62
     0
100
AcDbPoint
 10
569.3788058447944
 20
92.35302706089441
 30
0.0
  0
POINT
  5
1FDE
330
B1E
100
AcDbEntity
  8
DEFPOINTS
 62
     0
100
AcDbPoint
 10
565.3428211053523
 20
-657.6469729391056
 30
0.0
  0
POINT
  5
1FDF
330
B1E
100
AcDbEntity
  8
DEFPOINTS
 62
     0
100
AcDbPoint
 10
466.3555059016917
 20
-657.6469729391056
 30
0.0
  0
ENDBLK
  5
19DC
330
B1E
100
AcDbEntity
  8
0
100
AcDbBlockEnd
  0
BLOCK
  5
178D
330
B8D
100
AcDbEntity
  8
0
100
AcDbBlockBegin
  2
*D1
 70
     1
 10
0.0
 20
0.0
 30
0.0
  3
*D1
  1

  0
LINE
  5
1FCD
330
B8D
100
AcDbEntity
  8
KOTIERUNG
 62
     0
370
    -2
100
AcDbLine
 10
1011.394405870439
 20
42.35302706089439
 30
0.0
 11
1181.950843024274
 21
42.35302706089434
 31
0.0
  0
LINE
  5
1FCE
330
B8D
100
AcDbEntity
  8
KOTIERUNG
 62
     0
370
    -2
100
AcDbLine
 10
640.8038058447943
 20
92.3530270608944
 30
0.0
 11
1181.950843024274
 21
92.35302706089425
 31
0.0
  0
LINE
  5
1FCF
330
B8D
100
AcDbEntity
  8
KOTIERUNG
 62
     0
370
    -2
100
AcDbLine
 10
1146.238343024273
 20
128.0655270608942
 30
0.0
 11
1146.238343024273
 21
163.7780270608942
 31
0.0
  0
LINE
  5
1FD0
330
B8D
100
AcDbEntity
  8
KOTIERUNG
 62
     0
370
    -2
100
AcDbLine
 10
1146.238343024273
 20
6.640527060894357
 30
0.0
 11
1146.238343024273
 21
-92.35082014237987
 31
0.0
  0
SOLID
  5
1FD1
330
B8D
100
AcDbEntity
  8
KOTIERUNG
 62
     0
100
AcDbTrace
 10
1140.28625969094
 20
128.0655270608942
 30
0.0
 11
1152.190426357607
 21
128.0655270608942
 31
0.0
 12
1146.238343024273
 22
92.35302706089425
 32
0.0
 13
1146.238343024273
 23
92.35302706089425
 33
0.0
  0
SOLID
  5
1FD2
330
B8D
100
AcDbEntity
  8
KOTIERUNG
 62
     0
100
AcDbTrace
 10
1140.28625969094
 20
6.640527060894359
 30
0.0
 11
1152.190426357607
 21
6.640527060894356
 31
0.0
 12
1146.238343024273
 22
42.35302706089435
 32
0.0
 13
1146.238343024273
 23
42.35302706089435
 33
0.0
  0
MTEXT
  5
1FD3
330
B8D
100
AcDbEntity
  8
KOTIERUNG
 62
     0
100
AcDbMText
 10
1117.290755200262
 20
-60.71139654074258
 30
0.0
 40
35.7125
 41
0.0
 71
     5
 72
     1
  1
\A1;50
  7
VOEST
 11
0.0000000000000001
 21
1.0
 31
0.0
 73
     1
 44
1.0
1001
ACAD
1000
MTEXTBEGIN
1070
    73
1070
     1
1070
    44
1040
1.0
1070
    74
1070
     0
1000
MTEXTEND
  0
POINT
  5
1FD4
330
B8D
100
AcDbEntity
  8
DEFPOINTS
 62
     0
100
AcDbPoint
 10
939.969405870439
 20
42.35302706089441
 30
0.0
  0
POINT
  5
1FD5
330
B8D
100
AcDbEntity
  8
DEFPOINTS
 62
     0
100
AcDbPoint
 10
569.3788058447944
 20
92.35302706089441
 30
0.0
  0
POINT
  5
1FD6
330
B8D
100
AcDbEntity
  8
DEFPOINTS
 62
     0
100
AcDbPoint
 10
1146.238343024273
 20
92.35302706089425
 30
0.0
  0
ENDBLK
  5
1798
330
B8D
100
AcDbEntity
  8
0
100
AcDbBlockEnd
  0
BLOCK
  5
1731
330
EBC
100
AcDbEntity
  8
0
100
AcDbBlockBegin
  2
*D2
 70
     1
 10
0.0
 20
0.0
 30
0.0
  3
*D2
  1

  0
LINE
  5
1FE9
330
EBC
100
AcDbEntity
  8
KOTIERUNG
 62
     0
370
    -2
100
AcDbLine
 10
859.969405870439
 20
-344.0719729391056
 30
0.0
 11
859.969405870439
 21
-381.583535563192
 31
0.0
  0
LINE
  5
1FEA
330
EBC
100
AcDbEntity
  8
KOTIERUNG
 62
     0
370
    -2
100
AcDbLine
 10
959.969405870439
 20
-344.0719729391056
 30
0.0
 11
959.969405870439
 21
-381.583535563192
 31
0.0
  0
LINE
  5
1FEB
330
EBC
100
AcDbEntity
  8
KOTIERUNG
 62
     0
370
    -2
100
AcDbLine
 10
895.681905870439
 20
-345.871035563192
 30
0.0
 11
924.256905870439
 21
-345.871035563192
 31
0.0
  0
SOLID
  5
1FEC
330
EBC
100
AcDbEntity
  8
KOTIERUNG
 62
     0
100
AcDbTrace
 10
895.681905870439
 20
-339.9189522298586
 30
0.0
 11
895.681905870439
 21
-351.8231188965253
 31
0.0
 12
859.969405870439
 22
-345.871035563192
 32
0.0
 13
859.969405870439
 23
-345.871035563192
 33
0.0
  0
SOLID
  5
1FED
330
EBC
100
AcDbEntity
  8
KOTIERUNG
 62
     0
100
AcDbTrace
 10
924.256905870439
 20
-339.9189522298586
 30
0.0
 11
924.256905870439
 21
-351.8231188965253
 31
0.0
 12
959.969405870439
 22
-345.871035563192
 32
0.0
 13
959.969405870439
 23
-345.871035563192
 33
0.0
  0
MTEXT
  5
1FEE
330
EBC
100
AcDbEntity
  8
KOTIERUNG
 62
     0
100
AcDbMText
 10
909.969405870439
 20
-316.9234477391811
 30
0.0
 40
35.7125
 41
0.0
 71
     5
 72
     1
  1
\A1;100
  7
VOEST
 73
     1
 44
1.0
1001
ACAD
1000
MTEXTBEGIN
1070
    73
1070
     1
1070
    44
1040
1.0
1070
    74
1070
     0
1000
MTEXTEND
  0
POINT
  5
1FEF
330
EBC
100
AcDbEntity
  8
DEFPOINTS
 62
     0
100
AcDbPoint
 10
859.969405870439
 20
-272.6469729391056
 30
0.0
  0
POINT
  5
1FF0
330
EBC
100
AcDbEntity
  8
DEFPOINTS
 62
     0
100
AcDbPoint
 10
959.969405870439
 20
-272.6469729391056
 30
0.0
  0
POINT
  5
1FF1
330
EBC
100
AcDbEntity
  8
DEFPOINTS
 62
     0
100
AcDbPoint
 10
959.969405870439
 20
-345.871035563192
 30
0.0
  0
ENDBLK
  5
173B
330
EBC
100
AcDbEntity
  8
0
100
AcDbBlockEnd
  0
BLOCK
  5
1665
330
F34
100
AcDbEntity
  8
0
100
AcDbBlockBegin
  2
*D3
 70
     1
 10
0.0
 20
0.0
 30
0.0
  3
*D3
  1

  0
LINE
  5
1666
330
F34
100
AcDbEntity
  8
0
  6
ByBlock
 62
     0
100
AcDbLine
 10
1001.125161098965
 20
-3128.71337410412
 30
0.0
 11
1001.125161098965
 21
-2610.150138132893
 31
0.0
  0
LINE
  5
1667
330
F34
100
AcDbEntity
  8
0
  6
ByBlock
 62
     0
100
AcDbLine
 10
-773.8748389010352
 20
-2735.150138132893
 30
0.0
 11
876.1251610989647
 21
-2735.150138132893
 31
0.0
  0
SOLID
  5
1668
330
F34
100
AcDbEntity
  8
0
  6
ByBlock
 62
     0
100
AcDbTrace
 10
-773.8748389010352
 20
-2714.316804799559
 30
0.0
 11
-773.8748389010352
 21
-2755.983471466227
 31
0.0
 12
-898.8748389010352
 22
-2735.150138132893
 32
0.0
 13
-898.8748389010352
 23
-2735.150138132893
 33
0.0
  0
SOLID
  5
1669
330
F34
100
AcDbEntity
  8
0
  6
ByBlock
 62
     0
100
AcDbTrace
 10
876.1251610989647
 20
-2714.316804799559
 30
0.0
 11
876.1251610989647
 21
-2755.983471466227
 31
0.0
 12
1001.125161098965
 22
-2735.150138132893
 32
0.0
 13
1001.125161098965
 23
-2735.150138132893
 33
0.0
  0
MTEXT
  5
166A
330
F34
100
AcDbEntity
  8
0
  6
ByBlock
 62
     0
100
AcDbMText
 10
51.12516109896478
 20
-2633.828514667682
 30
0.0
 40
125.0
 41
0.0
 71
     5
 72
     1
  1
\A1;1900
  7
VOEST
 73
     1
 44
1.0
1001
ACAD
1000
MTEXTBEGIN
1070
    73
1070
     1
1070
    44
1040
1.0
1070
    74
1070
     0
1000
MTEXTEND
  0
POINT
  5
166B
330
F34
100
AcDbEntity
  8
DEFPOINTS
  6
ByBlock
 62
     0
100
AcDbPoint
 10
-898.8748389010352
 20
-3178.71337410412
 30
0.0
  0
POINT
  5
166C
330
F34
100
AcDbEntity
  8
DEFPOINTS
  6
ByBlock
 62
     0
100
AcDbPoint
 10
1001.125161098965
 20
-3178.71337410412
 30
0.0
  0
POINT
  5
166D
330
F34
100
AcDbEntity
  8
DEFPOINTS
  6
ByBlock
 62
     0
100
AcDbPoint
 10
1001.125161098965
 20
-2735.150138132893
 30
0.0
  0
ENDBLK
  5
166E
330
F34
100
AcDbEntity
  8
0
100
AcDbBlockEnd
  0
BLOCK
  5
165B
330
F40
100
AcDbEntity
  8
0
100
AcDbBlockBegin
  2
*D4
 70
     1
 10
0.0
 20
0.0
 30
0.0
  3
*D4
  1

  0
LINE
  5
165C
330
F40
100
AcDbEntity
  8
0
  6
ByBlock
 62
     0
100
AcDbLine
 10
2901.125161098965
 20
-3128.71337410412
 30
0.0
 11
2901.125161098965
 21
-2610.150138132893
 31
0.0
  0
LINE
  5
165D
330
F40
100
AcDbEntity
  8
0
  6
ByBlock
 62
     0
100
AcDbLine
 10
1126.125161098965
 20
-2735.150138132893
 30
0.0
 11
2776.125161098965
 21
-2735.150138132893
 31
0.0
  0
SOLID
  5
165E
330
F40
100
AcDbEntity
  8
0
  6
ByBlock
 62
     0
100
AcDbTrace
 10
1126.125161098965
 20
-2714.316804799559
 30
0.0
 11
1126.125161098965
 21
-2755.983471466227
 31
0.0
 12
1001.125161098965
 22
-2735.150138132893
 32
0.0
 13
1001.125161098965
 23
-2735.150138132893
 33
0.0
  0
SOLID
  5
165F
330
F40
100
AcDbEntity
  8
0
  6
ByBlock
 62
     0
100
AcDbTrace
 10
2776.125161098965
 20
-2714.316804799559
 30
0.0
 11
2776.125161098965
 21
-2755.983471466227
 31
0.0
 12
2901.125161098965
 22
-2735.150138132893
 32
0.0
 13
2901.125161098965
 23
-2735.150138132893
 33
0.0
  0
MTEXT
  5
1660
330
F40
100
AcDbEntity
  8
0
  6
ByBlock
 62
     0
100
AcDbMText
 10
1951.125161098965
 20
-2633.828514667682
 30
0.0
 40
125.0
 41
0.0
 71
     5
 72
     1
  1
\A1;1900
  7
VOEST
 73
     1
 44
1.0
1001
ACAD
1000
MTEXTBEGIN
1070
    73
1070
     1
1070
    44
1040
1.0
1070
    74
1070
     0
1000
MTEXTEND
  0
POINT
  5
1661
330
F40
100
AcDbEntity
  8
DEFPOINTS
  6
ByBlock
 62
     0
100
AcDbPoint
 10
1001.125161098965
 20
-3178.71337410412
 30
0.0
  0
POINT
  5
1662
330
F40
100
AcDbEntity
  8
DEFPOINTS
  6
ByBlock
 62
     0
100
AcDbPoint
 10
2901.125161098965
 20
-3178.71337410412
 30
0.0
  0
POINT
  5
1663
330
F40
100
AcDbEntity
  8
DEFPOINTS
  6
ByBlock
 62
     0
100
AcDbPoint
 10
2901.125161098965
 20
-2735.150138132893
 30
0.0
  0
ENDBLK
  5
1664
330
F40
100
AcDbEntity
  8
0
100
AcDbBlockEnd
  0
BLOCK
  5
FCD
330
FCC
100
AcDbEntity
  8
0
100
AcDbBlockBegin
  2
*D5
 70
     1
 10
0.0
 20
0.0
 30
0.0
  3
*D5
  1

  0
LINE
  5
1D4B
330
FCC
100
AcDbEntity
  8
KOTIERUNG
 62
     0
370
    -2
100
AcDbLine
 10
-898.8748389010352
 20
-3128.71337410412
 30
0.0
 11
-898.8748389010352
 21
-2360.150138132893
 31
0.0
  0
LINE
  5
1D4C
330
FCC
100
AcDbEntity
  8
KOTIERUNG
 62
     0
370
    -2
100
AcDbLine
 10
2901.125161098965
 20
-3078.71337410412
 30
0.0
 11
2901.125161098965
 21
-2360.150138132893
 31
0.0
  0
LINE
  5
1D4D
330
FCC
100
AcDbEntity
  8
KOTIERUNG
 62
     0
370
    -2
100
AcDbLine
 10
-773.8748389010352
 20
-2485.150138132893
 30
0.0
 11
2776.125161098965
 21
-2485.150138132893
 31
0.0
  0
SOLID
  5
1D4E
330
FCC
100
AcDbEntity
  8
KOTIERUNG
 62
     0
100
AcDbTrace
 10
-773.8748389010352
 20
-2464.316804799559
 30
0.0
 11
-773.8748389010352
 21
-2505.983471466227
 31
0.0
 12
-898.8748389010352
 22
-2485.150138132893
 32
0.0
 13
-898.8748389010352
 23
-2485.150138132893
 33
0.0
  0
SOLID
  5
1D4F
330
FCC
100
AcDbEntity
  8
KOTIERUNG
 62
     0
100
AcDbTrace
 10
2776.125161098965
 20
-2464.316804799559
 30
0.0
 11
2776.125161098965
 21
-2505.983471466227
 31
0.0
 12
2901.125161098965
 22
-2485.150138132893
 32
0.0
 13
2901.125161098965
 23
-2485.150138132893
 33
0.0
  0
MTEXT
  5
1D50
330
FCC
100
AcDbEntity
  8
KOTIERUNG
 62
     0
100
AcDbMText
 10
1001.125161098965
 20
-2383.828514667682
 30
0.0
 40
125.0
 41
0.0
 71
     5
 72
     1
  1
\A1;3800±9
  7
VOEST
 73
     1
 44
1.0
1001
ACAD
1000
MTEXTBEGIN
1070
    73
1070
     1
1070
    44
1040
1.0
1070
    74
1070
     0
1000
MTEXTEND
  0
POINT
  5
1D51
330
FCC
100
AcDbEntity
  8
DEFPOINTS
 62
     0
100
AcDbPoint
 10
-898.8748389010352
 20
-3178.71337410412
 30
0.0
  0
POINT
  5
1D52
330
FCC
100
AcDbEntity
  8
DEFPOINTS
 62
     0
100
AcDbPoint
 10
2901.125161098965
 20
-3128.71337410412
 30
0.0
  0
POINT
  5
1D53
330
FCC
100
AcDbEntity
  8
DEFPOINTS
 62
     0
100
AcDbPoint
 10
2901.125161098965
 20
-2485.150138132893
 30
0.0
  0
ENDBLK
  5
FD7
330
FCC
100
AcDbEntity
  8
0
100
AcDbBlockEnd
  0
BLOCK
  5
1782
330
1755
100
AcDbEntity
  8
0
100
AcDbBlockBegin
  2
*D6
 70
     1
 10
0.0
 20
0.0
 30
0.0
  3
*D6
  1

  0
LINE
  5
1FE0
330
1755
100
AcDbEntity
  8
KOTIERUNG
 62
     0
370
    -2
100
AcDbLine
 10
859.969405870439
 20
-344.0719729391056
 30
0.0
 11
859.969405870439
 21
-381.583535563192
 31
0.0
  0
LINE
  5
1FE1
330
1755
100
AcDbEntity
  8
KOTIERUNG
 62
     0
370
    -2
100
AcDbLine
 10
505.1196423147721
 20
-246.9078217364347
 30
0.0
 11
505.1196423147721
 21
-381.583535563192
 31
0.0
  0
LINE
  5
1FE2
330
1755
100
AcDbEntity
  8
KOTIERUNG
 62
     0
370
    -2
100
AcDbLine
 10
824.256905870439
 20
-345.871035563192
 30
0.0
 11
540.8321423147721
 21
-345.871035563192
 31
0.0
  0
SOLID
  5
1FE3
330
1755
100
AcDbEntity
  8
KOTIERUNG
 62
     0
100
AcDbTrace
 10
824.256905870439
 20
-339.9189522298586
 30
0.0
 11
824.256905870439
 21
-351.8231188965253
 31
0.0
 12
859.969405870439
 22
-345.871035563192
 32
0.0
 13
859.969405870439
 23
-345.871035563192
 33
0.0
  0
SOLID
  5
1FE4
330
1755
100
AcDbEntity
  8
KOTIERUNG
 62
     0
100
AcDbTrace
 10
540.8321423147721
 20
-339.9189522298586
 30
0.0
 11
540.8321423147721
 21
-351.8231188965253
 31
0.0
 12
505.1196423147721
 22
-345.871035563192
 32
0.0
 13
505.1196423147721
 23
-345.871035563192
 33
0.0
  0
MTEXT
  5
1FE5
330
1755
100
AcDbEntity
  8
KOTIERUNG
 62
     0
100
AcDbMText
 10
682.5445240926056
 20
-316.9234477391811
 30
0.0
 40
35.7125
 41
0.0
 71
     5
 72
     1
  1
\A1;355
  7
VOEST
 73
     1
 44
1.0
1001
ACAD
1000
MTEXTBEGIN
1070
    73
1070
     1
1070
    44
1040
1.0
1070
    74
1070
     0
1000
MTEXTEND
  0
POINT
  5
1FE6
330
1755
100
AcDbEntity
  8
DEFPOINTS
 62
     0
100
AcDbPoint
 10
859.969405870439
 20
-272.6469729391056
 30
0.0
  0
POINT
  5
1FE7
330
1755
100
AcDbEntity
  8
DEFPOINTS
 62
     0
100
AcDbPoint
 10
505.1196423147721
 20
-175.4828217364346
 30
0.0
  0
POINT
  5
1FE8
330
1755
100
AcDbEntity
  8
DEFPOINTS
 62
     0
100
AcDbPoint
 10
505.1196423147721
 20
-345.871035563192
 30
0.0
  0
ENDBLK
  5
178C
330
1755
100
AcDbEntity
  8
0
100
AcDbBlockEnd
  0
BLOCK
  5
198F
330
197B
100
AcDbEntity
  8
0
100
AcDbBlockBegin
  2
*D7
 70
     1
 10
0.0
 20
0.0
 30
0.0
  3
*D7
  1

  0
LINE
  5
1D78
330
197B
100
AcDbEntity
  8
KOTIERUNG
 62
     0
370
    -2
100
AcDbLine
 10
-1023.874838901035
 20
-2485.150138132893
 30
0.0
 11
-1575.865654611616
 21
-2485.150138132893
 31
0.0
  0
MTEXT
  5
1D79
330
197B
100
AcDbEntity
  8
KOTIERUNG
 62
     0
100
AcDbMText
 10
-1297.446486808068
 20
-2383.828514667682
 30
0.0
 40
125.0
 41
0.0
 71
     5
 72
     1
  1
\A1;3800±9
  7
VOEST
 73
     1
 44
1.0
1001
ACAD
1000
MTEXTBEGIN
1070
    73
1070
     1
1070
    44
1040
1.0
1070
    74
1070
     0
1000
MTEXTEND
  0
SOLID
  5
1D7A
330
197B
100
AcDbEntity
  8
KOTIERUNG
 62
     0
100
AcDbTrace
 10
-1023.874838901035
 20
-2464.316804799559
 30
0.0
 11
-1023.874838901035
 21
-2505.983471466227
 31
0.0
 12
-898.8748389010352
 22
-2485.150138132893
 32
0.0
 13
-898.8748389010352
 23
-2485.150138132893
 33
0.0
  0
POINT
  5
1D7B
330
197B
100
AcDbEntity
  8
DEFPOINTS
 62
     0
100
AcDbPoint
 10
-898.8748389010352
 20
-3178.71337410412
 30
0.0
  0
POINT
  5
1D7C
330
197B
100
AcDbEntity
  8
DEFPOINTS
 62
     0
100
AcDbPoint
 10
-1875.111326361839
 20
-2925.104568806608
 30
0.0
  0
POINT
  5
1D7D
330
197B
100
AcDbEntity
  8
DEFPOINTS
 62
     0
100
AcDbPoint
 10
-1875.111326361839
 20
-2485.150138132893
 30
0.0
  0
ENDBLK
  5
1996
330
197B
100
AcDbEntity
  8
0
100
AcDbBlockEnd
  0
BLOCK
  5
1997
330
1985
100
AcDbEntity
  8
0
100
AcDbBlockBegin
  2
*D8
 70
     1
 10
0.0
 20
0.0
 30
0.0
  3
*D8
  1

  0
LINE
  5
1D8A
330
1985
100
AcDbEntity
  8
KOTIERUNG
 62
     0
370
    -2
100
AcDbLine
 10
3026.125161098965
 20
-2485.150138132893
 30
0.0
 11
3528.194210949636
 21
-2485.150138132893
 31
0.0
  0
MTEXT
  5
1D8B
330
1985
100
AcDbEntity
  8
KOTIERUNG
 62
     0
100
AcDbMText
 10
3249.775043146088
 20
-2383.828514667682
 30
0.0
 40
125.0
 41
0.0
 71
     5
 72
     1
  1
\A1;3800±9
  7
VOEST
 73
     1
 44
1.0
1001
ACAD
1000
MTEXTBEGIN
1070
    73
1070
     1
1070
    44
1040
1.0
1070
    74
1070
     0
1000
MTEXTEND
  0
SOLID
  5
1D8C
330
1985
100
AcDbEntity
  8
KOTIERUNG
 62
     0
100
AcDbTrace
 10
3026.125161098965
 20
-2464.316804799559
 30
0.0
 11
3026.125161098965
 21
-2505.983471466227
 31
0.0
 12
2901.125161098965
 22
-2485.150138132893
 32
0.0
 13
2901.125161098965
 23
-2485.150138132893
 33
0.0
  0
POINT
  5
1D8D
330
1985
100
AcDbEntity
  8
DEFPOINTS
 62
     0
100
AcDbPoint
 10
2901.125161098965
 20
-3128.71337410412
 30
0.0
  0
POINT
  5
1D8E
330
1985
100
AcDbEntity
  8
DEFPOINTS
 62
     0
100
AcDbPoint
 10
3820.412009539733
 20
-2935.726563030439
 30
0.0
  0
POINT
  5
1D8F
330
1985
100
AcDbEntity
  8
DEFPOINTS
 62
     0
100
AcDbPoint
 10
3820.412009539733
 20
-2485.150138132893
 30
0.0
  0
ENDBLK
  5
199E
330
1985
100
AcDbEntity
  8
0
100
AcDbBlockEnd
  0
ENDSEC
  0
SECTION
  2
ENTITIES
  0
LINE
  5
155
102
{ACAD_REACTORS
330
1B1
102
}
330
18
100
AcDbEntity
  8
35
100
AcDbLine
 10
577.3196423147719
 20
-74.64697293910558
 30
0.0
 11
577.3196423147719
 21
-102.3244508121039
 31
0.0
  0
LINE
  5
156
102
{ACAD_REACTORS
330
1B1
102
}
330
18
100
AcDbEntity
  8
35
100
AcDbLine
 10
580.1196423147721
 20
-74.64697293910536
 30
0.0
 11
580.1196423147712
 21
-102.3244508121037
 31
0.0
  0
ARC
  5
157
102
{ACAD_REACTORS
330
1B1
102
}
330
18
100
AcDbEntity
  8
35
100
AcDbCircle
 10
521.9196423147714
 20
-189.996148406762
 30
0.0
 40
16.8
100
AcDbArc
 50
180.0
 51
240.8801387770753
  0
ARC
  5
158
102
{ACAD_REACTORS
330
1B1
102
}
330
18
100
AcDbEntity
  8
35
100
AcDbCircle
 10
521.9196423147714
 20
-189.996148406762
 30
0.0
 40
14.0
100
AcDbArc
 50
180.0
 51
240.8801387770753
  0
LINE
  5
159
102
{ACAD_REACTORS
330
1B1
102
}
330
18
100
AcDbEntity
  8
35
100
AcDbLine
 10
513.7441199018639
 20
-204.6726886419822
 30
0.0
 11
580.1196423147721
 21
-241.6469729391053
 31
0.0
  0
LINE
  5
15A
102
{ACAD_REACTORS
330
1B1
102
}
330
18
100
AcDbEntity
  8
35
100
AcDbLine
 10
515.1067069706823
 20
-202.2265986027788
 30
0.0
 11
581.4822293835895
 21
-239.2008828999019
 31
0.0
  0
LINE
  5
15B
102
{ACAD_REACTORS
330
1B1
102
}
330
18
100
AcDbEntity
  8
35
100
AcDbLine
 10
581.4822293835895
 20
-239.2008828999019
 30
0.0
 11
580.1196423147721
 21
-241.6469729391053
 31
0.0
  0
LINE
  5
15C
102
{ACAD_REACTORS
330
1B1
102
}
330
18
100
AcDbEntity
  8
35
100
AcDbLine
 10
515.0528291048476
 20
-148.769213252149
 30
0.0
 11
571.5598181666819
 21
-116.9647889888535
 31
0.0
  0
LINE
  5
15D
102
{ACAD_REACTORS
330
1B1
102
}
330
18
100
AcDbEntity
  8
35
100
AcDbLine
 10
513.6794664628623
 20
-146.3291568893572
 30
0.0
 11
570.1864555246966
 21
-114.5247326260618
 31
0.0
  0
LINE
  5
15E
102
{ACAD_REACTORS
330
1B1
102
}
330
18
100
AcDbEntity
  8
35
100
AcDbLine
 10
507.9196423147723
 20
-160.969495066107
 30
0.0
 11
507.9196423147723
 21
-189.9961484067619
 31
0.0
  0
LINE
  5
15F
102
{ACAD_REACTORS
330
1B1
102
}
330
18
100
AcDbEntity
  8
35
100
AcDbLine
 10
505.1196423147721
 20
-160.9694950661072
 30
0.0
 11
505.1196423147721
 21
-189.996148406762
 31
0.0
  0
ARC
  5
160
102
{ACAD_REACTORS
330
1B1
102
}
330
18
100
AcDbEntity
  8
35
100
AcDbCircle
 10
521.9196423147723
 20
-160.9694950661072
 30
0.0
 40
14.0
100
AcDbArc
 50
119.3725732019014
 51
180.0
  0
ARC
  5
161
102
{ACAD_REACTORS
330
1B1
102
}
330
18
100
AcDbEntity
  8
35
100
AcDbCircle
 10
521.9196423147723
 20
-160.9694950661072
 30
0.0
 40
16.8
100
AcDbArc
 50
119.3725732019014
 51
180.0
  0
ARC
  5
162
102
{ACAD_REACTORS
330
1B1
102
}
330
18
100
AcDbEntity
  8
35
100
AcDbCircle
 10
563.3196423147719
 20
-102.3244508121035
 30
0.0
 40
14.0
100
AcDbArc
 50
299.3725732019015
 51
359.9999999999999
  0
ARC
  5
163
102
{ACAD_REACTORS
330
1B1
102
}
330
18
100
AcDbEntity
  8
35
100
AcDbCircle
 10
563.3196423147719
 20
-102.3244508121035
 30
0.0
 40
16.8
100
AcDbArc
 50
299.3725732019015
 51
359.9999999999999
  0
ARC
  5
164
102
{ACAD_REACTORS
330
1B1
102
}
330
18
100
AcDbEntity
  8
35
100
AcDbCircle
 10
521.9196423147714
 20
40.70220252855119
 30
0.0
 40
16.8
100
AcDbArc
 50
119.1198612229247
 51
180.0
  0
ARC
  5
165
102
{ACAD_REACTORS
330
1B1
102
}
330
18
100
AcDbEntity
  8
35
100
AcDbCircle
 10
521.9196423147714
 20
40.70220252855119
 30
0.0
 40
14.0
100
AcDbArc
 50
119.1198612229247
 51
180.0
  0
LINE
  5
166
102
{ACAD_REACTORS
330
1B1
102
}
330
18
100
AcDbEntity
  8
35
100
AcDbLine
 10
515.0528291048467
 20
-0.5247326260619048
 30
0.0
 11
571.559818166681
 21
-32.32915688935737
 31
0.0
  0
LINE
  5
167
102
{ACAD_REACTORS
330
1B1
102
}
330
18
100
AcDbEntity
  8
35
100
AcDbLine
 10
513.6794664628623
 20
-2.96478898885357
 30
0.0
 11
570.1864555246975
 21
-34.7692132521488
 31
0.0
  0
LINE
  5
168
102
{ACAD_REACTORS
330
1B1
102
}
330
18
100
AcDbEntity
  8
35
100
AcDbLine
 10
577.3196423147719
 20
-74.64697293910558
 30
0.0
 11
577.3196423147719
 21
-46.96949506610713
 31
0.0
  0
LINE
  5
169
102
{ACAD_REACTORS
330
1B1
102
}
330
18
100
AcDbEntity
  8
35
100
AcDbLine
 10
580.1196423147721
 20
-74.64697293910536
 30
0.0
 11
580.1196423147721
 21
-46.96949506610701
 31
0.0
  0
ARC
  5
16A
102
{ACAD_REACTORS
330
1B1
102
}
330
18
100
AcDbEntity
  8
35
100
AcDbCircle
 10
563.3196423147719
 20
-46.9694950661069
 30
0.0
 40
14.0
100
AcDbArc
 50
0.000000000000035
 51
60.62742679809852
  0
ARC
  5
16B
102
{ACAD_REACTORS
330
1B1
102
}
330
18
100
AcDbEntity
  8
35
100
AcDbCircle
 10
563.3196423147719
 20
-46.9694950661069
 30
0.0
 40
16.8
100
AcDbArc
 50
0.000000000000035
 51
60.62742679809858
  0
LINE
  5
16C
102
{ACAD_REACTORS
330
1B1
102
}
330
18
100
AcDbEntity
  8
35
100
AcDbLine
 10
505.1196423147721
 20
11.67554918789631
 30
0.0
 11
505.1196423147721
 21
40.70220252855114
 31
0.0
  0
LINE
  5
16D
102
{ACAD_REACTORS
330
1B1
102
}
330
18
100
AcDbEntity
  8
35
100
AcDbLine
 10
507.9196423147723
 20
11.67554918789653
 30
0.0
 11
507.9196423147723
 21
40.70220252855108
 31
0.0
  0
ARC
  5
16E
102
{ACAD_REACTORS
330
1B1
102
}
330
18
100
AcDbEntity
  8
35
100
AcDbCircle
 10
521.9196423147723
 20
11.67554918789631
 30
0.0
 40
14.0
100
AcDbArc
 50
180.0
 51
240.6274267980986
  0
ARC
  5
16F
102
{ACAD_REACTORS
330
1B1
102
}
330
18
100
AcDbEntity
  8
35
100
AcDbCircle
 10
521.9196423147723
 20
11.67554918789631
 30
0.0
 40
16.8
100
AcDbArc
 50
180.0
 51
240.6274267980986
  0
LINE
  5
170
102
{ACAD_REACTORS
330
1B1
102
}
330
18
100
AcDbEntity
  8
35
100
AcDbLine
 10
513.7441199018639
 20
55.37874276377142
 30
0.0
 11
580.1196423147721
 21
92.35302706089454
 31
0.0
  0
LINE
  5
171
102
{ACAD_REACTORS
330
1B1
102
}
330
18
100
AcDbEntity
  8
35
100
AcDbLine
 10
515.1067069706814
 20
52.93265272456818
 30
0.0
 11
581.4822293835895
 21
89.90693702169137
 31
0.0
  0
LINE
  5
172
102
{ACAD_REACTORS
330
1B1
102
}
330
18
100
AcDbEntity
  8
35
100
AcDbLine
 10
581.4822293835895
 20
89.90693702169137
 30
0.0
 11
580.1196423147721
 21
92.35302706089454
 31
0.0
  0
LINE
  5
240
330
18
100
AcDbEntity
  8
25
100
AcDbLine
 10
959.969405870439
 20
-914.3165532318707
 30
0.0
 11
959.969405870439
 21
42.35302706089436
 31
0.0
  0
LINE
  5
241
330
18
100
AcDbEntity
  8
25
100
AcDbLine
 10
859.969405870439
 20
-915.7230157197902
 30
0.0
 11
859.969405870439
 21
42.35302706089441
 31
0.0
  0
LINE
  5
248
330
18
100
AcDbEntity
  8
25
100
AcDbLine
 10
959.9694058704381
 20
42.35302706089441
 30
0.0
 11
859.969405870439
 21
42.35302706089441
 31
0.0
  0
LINE
  5
415
330
18
100
AcDbEntity
  8
25
100
AcDbLine
 10
859.969405870439
 20
42.35302706089436
 30
0.0
 11
859.969405870439
 21
-223.7758803423963
 31
0.0
  0
LINE
  5
423
330
18
100
AcDbEntity
  8
50
100
AcDbLine
 10
565.3428211053533
 20
-657.6469729391057
 30
0.0
 11
565.3428211053523
 21
-657.6469729391056
 31
0.0
  0
LINE
  5
424
330
18
100
AcDbEntity
  8
50
100
AcDbLine
 10
1175.546236915587
 20
-657.6469729391056
 30
0.0
 11
412.8661875680218
 21
-657.6469729391056
 31
0.0
  0
LINE
  5
995
330
18
100
AcDbEntity
  8
25
100
AcDbLine
 10
3551.150577133811
 20
-3709.247926711395
 30
0.0
 11
-1577.375074445898
 21
-3709.247926711393
 31
0.0
  0
LINE
  5
B06
330
18
100
AcDbEntity
  8
35
 48
0.2
100
AcDbLine
 10
3061.125161098965
 20
-3634.247926711393
 30
0.0
 11
3061.125161098965
 21
-3709.247926711394
 31
0.0
  0
LINE
  5
B07
330
18
100
AcDbEntity
  8
18
  6
STRICHLINIE
 48
0.05
100
AcDbLine
 10
2741.125161098965
 20
-3634.247926711393
 30
0.0
 11
2741.125161098965
 21
-3709.247926711394
 31
0.0
  0
LINE
  5
B08
330
18
100
AcDbEntity
  8
35
 48
0.2
100
AcDbLine
 10
-738.8748389010352
 20
-3634.247926711393
 30
0.0
 11
-738.8748389010352
 21
-3709.247926711394
 31
0.0
  0
LINE
  5
B09
330
18
100
AcDbEntity
  8
18
  6
STRICHLINIE
 48
0.05
100
AcDbLine
 10
-1058.874838901035
 20
-3634.247926711393
 30
0.0
 11
-1058.874838901035
 21
-3709.247926711394
 31
0.0
  0
DIMENSION
  5
B2B
330
18
100
AcDbEntity
  8
KOTIERUNG
100
AcDbDimension
  2
*D0
 10
466.3555059016917
 20
-657.6469729391056
 30
0.0
 11
437.4079180776809
 21
-282.6469729391055
 31
0.0
 70
    32
 71
     5
 42
750.0
  3
TYPENBLATT_M10
100
AcDbAlignedDimension
 13
569.3788058447944
 23
92.35302706089441
 33
0.0
 14
565.3428211053523
 24
-657.6469729391056
 34
0.0
 50
90.0
100
AcDbRotatedDimension
1001
ACAD
1000
DSTYLE
1002
{
1070
    47
1040
40.0
1070
   147
1040
0.075
1070
    48
1040
40.0
1070
    72
1070
     0
1070
    71
1070
     1
1002
}
  0
DIMENSION
  5
B9A
330
18
100
AcDbEntity
  8
KOTIERUNG
100
AcDbDimension
  2
*D1
 10
1146.238343024273
 20
92.35302706089425
 30
0.0
 11
1146.238343024273
 21
-60.71139654074258
 31
0.0
 70
   160
 71
     5
 42
49.99999999999992
  3
TYPENBLATT_M10
100
AcDbAlignedDimension
 13
939.969405870439
 23
42.35302706089441
 33
0.0
 14
569.3788058447944
 24
92.35302706089441
 34
0.0
 50
90.0
100
AcDbRotatedDimension
  0
DIMENSION
  5
EC8
330
18
100
AcDbEntity
  8
KOTIERUNG
100
AcDbDimension
  2
*D2
 10
959.969405870439
 20
-345.871035563192
 30
0.0
 11
909.969405870439
 21
-316.9234477391811
 31
0.0
 70
    32
 71
     5
 42
100.0
  3
TYPENBLATT_M10
100
AcDbAlignedDimension
 13
859.969405870439
 23
-272.6469729391056
 33
0.0
 14
959.969405870439
 24
-272.6469729391056
 34
0.0
100
AcDbRotatedDimension
  0
DIMENSION
  5
F3F
330
18
100
AcDbEntity
  8
KOTIERUNG
100
AcDbDimension
  2
*D3
 10
1001.125161098965
 20
-2735.150138132893
 30
0.0
 11
51.12516109896478
 21
-2633.828514667682
 31
0.0
 70
    32
 71
     5
 42
-1.0
  3
TYPENBLATT_M50
100
AcDbAlignedDimension
 13
-898.8748389010352
 23
-3178.71337410412
 33
0.0
 14
1001.125161098965
 24
-3178.71337410412
 34
0.0
100
AcDbRotatedDimension
1001
ACAD
1000
DSTYLE
1002
{
1070
    75
1070
     1
1070
   279
1070
     1
1002
}
  0
DIMENSION
  5
F4B
330
18
100
AcDbEntity
  8
KOTIERUNG
100
AcDbDimension
  2
*D4
 10
2901.125161098965
 20
-2735.150138132893
 30
0.0
 11
1951.125161098965
 21
-2633.828514667682
 31
0.0
 70
    32
 71
     5
 42
-1.0
  3
TYPENBLATT_M50
100
AcDbAlignedDimension
 13
1001.125161098965
 23
-3178.71337410412
 33
0.0
 14
2901.125161098965
 24
-3178.71337410412
 34
0.0
100
AcDbRotatedDimension
1001
ACAD
1000
DSTYLE
1002
{
1070
    75
1070
     1
1070
   279
1070
     1
1002
}
  0
DIMENSION
  5
FD8
330
18
100
AcDbEntity
  8
KOTIERUNG
100
AcDbDimension
  2
*D5
 10
2901.125161098965
 20
-2485.150138132893
 30
0.0
 11
1001.125161098965
 21
-2383.828514667682
 31
0.0
 70
    32
 71
     5
 42
3800.0
  3
TYPENBLATT_M50
100
AcDbAlignedDimension
 13
-898.8748389010352
 23
-3178.71337410412
 33
0.0
 14
2901.125161098965
 24
-3128.71337410412
 34
0.0
100
AcDbRotatedDimension
1001
ACAD
1000
DSTYLE
1002
{
1070
   272
1070
     0
1070
    47
1040
9.0
1070
   147
1040
0.075
1070
    48
1040
9.0
1070
    72
1070
     0
1070
    71
1070
     1
1002
}
  0
MTEXT
  5
10E0
330
18
100
AcDbEntity
  8
KOTIERUNG
100
AcDbMText
 10
7495.698312492914
 20
470.9395909145314
 30
0.0
 40
25.0
 41
0.0
 71
     4
 72
     1
  1
\A1;
  7
VOEST
 73
     1
 44
1.0
1001
ACAD
1000
MTEXTBEGIN
1070
    73
1070
     1
1070
    44
1040
1.0
1070
    74
1070
     0
1000
MTEXTEND
  0
HATCH
  5
15B0
330
18
100
AcDbEntity
  8
18
100
AcDbHatch
 10
0.0
 20
0.0
 30
0.0
210
0.0
220
0.0
230
1.0
  2
ANSI31
 70
     0
 71
     0
 91
        1
 92
        7
 72
     0
 73
     1
 93
        4
 10
1175.546236915589
 20
-657.6469729391057
 10
412.8661875680209
 20
-657.6469729391054
 10
412.8661875680218
 20
-695.2793656400572
 10
1175.546236915587
 20
-695.2793656400573
 97
        0
 75
     0
 76
     1
 52
0.0
 41
100.0
 77
     0
 78
     1
 53
45.0
 43
-6772.774814351764
 44
-122.2783142117405
 45
-8.838834764831842
 46
8.838834764831844
 79
     0
 47
0.9188338305433763
 98
        1
 10
830.4580364164321
 20
-668.4114241639799
  0
SPLINE
  5
15D7
330
18
100
AcDbEntity
  8
25
100
AcDbSpline
210
0.0
220
0.0
230
1.0
 70
     8
 71
     3
 72
    13
 73
     9
 74
     0
 42
0.0000000001
 43
0.0000000001
 40
0.0
 40
0.0
 40
0.0
 40
0.0
 40
21.97415543732208
 40
39.14534728958732
 40
54.85153579535438
 40
79.17754993972693
 40
94.0127812828627
 40
103.5905264437247
 40
103.5905264437247
 40
103.5905264437247
 40
103.5905264437247
 10
859.969405870439
 20
-915.7230157197902
 30
0.0
 10
867.3450373849609
 20
-916.4812727073442
 30
0.0
 10
880.4841843223494
 20
-917.8320519533189
 30
0.0
 10
898.1644198904451
 20
-906.4372952510721
 30
0.0
 10
915.5856362872301
 20
-921.870156149597
 30
0.0
 10
934.2858473287151
 20
-904.4749933442234
 30
0.0
 10
948.8219208097735
 20
-917.8889013858508
 30
0.0
 10
956.8070302448623
 20
-915.38057422456
 30
0.0
 10
959.969405870439
 20
-914.3165532318706
 30
0.0
  0
LWPOLYLINE
  5
16FB
330
18
100
AcDbEntity
  8
18
  6
STRICHLINIE
 48
0.3
100
AcDbPolyline
 90
        6
 70
     0
 43
0.0
 10
855.1196423147722
 20
-111.6469729391056
 10
855.1196423147722
 20
-105.6469729391056
 42
0.4142135623730951
 10
845.119642314772
 20
-95.64697293910558
 10
599.1196423147721
 20
-95.64697293910558
 42
0.4142135623730951
 10
589.1196423147721
 20
-105.6469729391056
 10
589.1196423147721
 20
-111.6469729391056
  0
LWPOLYLINE
  5
16FC
330
18
100
AcDbEntity
  8
18
  6
STRICHLINIE
 48
0.3
100
AcDbPolyline
 90
        5
 70
     0
 43
0.0
 10
518.1196423147721
 20
39.35302706089442
 42
0.4142135623730951
 10
528.1196423147721
 20
29.35302706089442
 10
942.1196423147721
 20
29.35302706089442
 42
0.4142135623730917
 10
952.1196423147721
 20
39.3530270608943
 10
952.1196423147721
 20
44.35302706089442
  0
LINE
  5
16FD
330
18
100
AcDbEntity
  8
25
100
AcDbLine
 10
589.1196423147721
 20
-115.6469729391055
 30
0.0
 11
855.1196423147722
 21
-115.6469729391055
 31
0.0
  0
LINE
  5
16FE
330
18
100
AcDbEntity
  8
25
100
AcDbLine
 10
952.1196423147721
 20
49.35302706089442
 30
0.0
 11
518.1196423147721
 21
49.35302706089442
 31
0.0
  0
LINE
  5
16FF
330
18
100
AcDbEntity
  8
18
  6
STRICHLINIE
 48
0.3
100
AcDbLine
 10
583.1196423147721
 20
-1.64697293910558
 30
0.0
 11
583.1196423147721
 21
-106.6469729391056
 31
0.0
  0
LINE
  5
1700
330
18
100
AcDbEntity
  8
25
100
AcDbLine
 10
580.1196423147721
 20
-2.14697293910558
 30
0.0
 11
580.1196423147721
 21
-106.6469729391056
 31
0.0
  0
LINE
  5
1701
330
18
100
AcDbEntity
  8
25
100
AcDbLine
 10
589.1196423147721
 20
-115.6469729391055
 30
0.0
 11
589.1196423147721
 21
-111.6469729391056
 31
0.0
  0
LINE
  5
1702
330
18
100
AcDbEntity
  8
25
100
AcDbLine
 10
580.1196423147721
 20
-106.6469729391056
 30
0.0
 11
584.1196423147721
 21
-106.6469729391056
 31
0.0
  0
ARC
  5
1703
330
18
100
AcDbEntity
  8
25
100
AcDbCircle
 10
584.1196423147721
 20
-111.6469729391056
 30
0.0
 40
5.0
100
AcDbArc
 50
0.0
 51
90.0
  0
LINE
  5
1704
330
18
100
AcDbEntity
  8
25
100
AcDbLine
 10
518.1196423147721
 20
49.35302706089442
 30
0.0
 11
518.1196423147721
 21
39.35302706089442
 31
0.0
  0
LINE
  5
1705
330
18
100
AcDbEntity
  8
25
100
AcDbLine
 10
584.7734664496747
 20
10.1205972365243
 30
0.0
 11
525.3632687566023
 21
27.15619729203126
 31
0.0
  0
ARC
  5
1706
330
18
100
AcDbEntity
  8
25
100
AcDbCircle
 10
528.1196423147721
 20
36.76881425141449
 30
0.0
 40
10.0
100
AcDbArc
 50
180.0
 51
254.0
  0
LINE
  5
1707
330
18
100
AcDbEntity
  8
25
100
AcDbLine
 10
518.1196423147721
 20
39.35302706089442
 30
0.0
 11
518.1196423147721
 21
36.76881425141449
 31
0.0
  0
ARC
  5
1708
330
18
100
AcDbEntity
  8
25
100
AcDbCircle
 10
583.1196423147721
 20
4.353027060894419
 30
0.0
 40
6.0
100
AcDbArc
 50
270.0
 51
74.0
  0
LINE
  5
1709
330
18
100
AcDbEntity
  8
25
100
AcDbLine
 10
583.1196423147721
 20
-1.64697293910558
 30
0.0
 11
580.6196423147721
 21
-1.64697293910558
 31
0.0
  0
LINE
  5
170A
330
18
100
AcDbEntity
  8
25
100
AcDbLine
 10
580.1196423147721
 20
-2.14697293910558
 30
0.0
 11
580.6196423147721
 21
-1.64697293910558
 31
0.0
  0
LINE
  5
170B
330
18
100
AcDbEntity
  8
25
100
AcDbLine
 10
957.1196423147721
 20
-106.6469729391056
 30
0.0
 11
957.1196423147721
 21
39.35302706089442
 31
0.0
  0
LINE
  5
170C
330
18
100
AcDbEntity
  8
25
100
AcDbLine
 10
960.1196423147721
 20
-106.6469729391056
 30
0.0
 11
960.1196423147721
 21
39.35302706089442
 31
0.0
  0
LINE
  5
170D
330
18
100
AcDbEntity
  8
25
100
AcDbLine
 10
864.1196423147722
 20
-106.6469729391056
 30
0.0
 11
960.1196423147721
 21
-106.6469729391056
 31
0.0
  0
LINE
  5
170E
330
18
100
AcDbEntity
  8
25
100
AcDbLine
 10
855.1196423147722
 20
-115.6469729391055
 30
0.0
 11
855.1196423147722
 21
-111.6469729391056
 31
0.0
  0
ARC
  5
170F
330
18
100
AcDbEntity
  8
25
100
AcDbCircle
 10
860.1196423147721
 20
-111.6469729391056
 30
0.0
 40
5.0
100
AcDbArc
 50
90.0
 51
180.0
  0
LINE
  5
1710
330
18
100
AcDbEntity
  8
25
100
AcDbLine
 10
864.1196423147722
 20
-106.6469729391056
 30
0.0
 11
860.1196423147721
 21
-106.6469729391056
 31
0.0
  0
LINE
  5
1715
330
18
100
AcDbEntity
  8
25
100
AcDbLine
 10
952.1196423147721
 20
44.35302706089442
 30
0.0
 11
952.1196423147721
 21
49.35302706089442
 31
0.0
  0
ARC
  5
1717
330
18
100
AcDbEntity
  8
25
100
AcDbCircle
 10
957.1196423147721
 20
44.35302706089442
 30
0.0
 40
5.0
100
AcDbArc
 50
180.0
 51
270.0
  0
LINE
  5
1718
330
18
100
AcDbEntity
  8
25
100
AcDbLine
 10
960.1196423147721
 20
39.35302706089442
 30
0.0
 11
957.1196423147721
 21
39.35302706089442
 31
0.0
  0
ARC
  5
1722
102
{ACAD_REACTORS
330
17AD
102
}
330
18
100
AcDbEntity
  8
0
100
AcDbCircle
 10
909.6840398101921
 20
4.353027060894419
 30
0.0
 40
60.0
100
AcDbArc
 50
327.2028317041764
 51
32.79716829582361
  0
DIMENSION
  5
1760
330
18
100
AcDbEntity
  8
KOTIERUNG
100
AcDbDimension
  2
*D6
 10
505.1196423147721
 20
-345.871035563192
 30
0.0
 11
682.5445240926056
 21
-316.9234477391811
 31
0.0
 70
    32
 71
     5
 42
354.8497635556669
  3
TYPENBLATT_M10
100
AcDbAlignedDimension
 13
859.969405870439
 23
-272.6469729391056
 33
0.0
 14
505.1196423147721
 24
-175.4828217364346
 34
0.0
100
AcDbRotatedDimension
  0
LINE
  5
179D
330
18
100
AcDbEntity
  8
18
  6
STRICHPUNKT
100
AcDbLine
 10
550.9244207746942
 20
-74.64697293910558
 30
0.0
 11
609.31486385485
 21
-74.64697293910558
 31
0.0
  0
LINE
  5
17A0
102
{ACAD_REACTORS
330
17A4
102
}
330
18
100
AcDbEntity
  8
18
  6
STRICHPUNKT
 48
0.5
100
AcDbLine
 10
910.1196423147721
 20
14.35302706089442
 30
0.0
 11
895.1148685915541
 21
14.35302706089442
 31
0.0
  0
LINE
  5
17A5
102
{ACAD_REACTORS
330
17A4
102
}
330
18
100
AcDbEntity
  8
18
  6
STRICHPUNKT
 48
0.5
100
AcDbLine
 10
910.1196423147721
 20
14.35302706089442
 30
0.0
 11
910.1196423147721
 21
-0.6517466623236033
 31
0.0
  0
LINE
  5
17A6
102
{ACAD_REACTORS
330
17A4
102
}
330
18
100
AcDbEntity
  8
18
  6
STRICHPUNKT
 48
0.5
100
AcDbLine
 10
910.1196423147721
 20
14.35302706089447
 30
0.0
 11
925.1244160379901
 21
14.35302706089447
 31
0.0
  0
LINE
  5
17A7
102
{ACAD_REACTORS
330
17A4
102
}
330
18
100
AcDbEntity
  8
18
  6
STRICHPUNKT
 48
0.5
100
AcDbLine
 10
910.1196423147721
 20
14.35302706089442
 30
0.0
 11
910.1196423147721
 21
29.35780078411244
 31
0.0
  0
LINE
  5
17A8
102
{ACAD_REACTORS
330
17AC
102
}
330
18
100
AcDbEntity
  8
18
  6
STRICHPUNKT
 48
0.5
100
AcDbLine
 10
910.1196423147721
 20
-75.64697293910558
 30
0.0
 11
895.1148685915541
 21
-75.64697293910558
 31
0.0
  0
LINE
  5
17A9
102
{ACAD_REACTORS
330
17AC
102
}
330
18
100
AcDbEntity
  8
18
  6
STRICHPUNKT
 48
0.5
100
AcDbLine
 10
910.1196423147721
 20
-75.64697293910558
 30
0.0
 11
910.1196423147721
 21
-90.6517466623236
 31
0.0
  0
LINE
  5
17AA
102
{ACAD_REACTORS
330
17AC
102
}
330
18
100
AcDbEntity
  8
18
  6
STRICHPUNKT
 48
0.5
100
AcDbLine
 10
910.1196423147721
 20
-75.64697293910552
 30
0.0
 11
925.1244160379901
 21
-75.64697293910552
 31
0.0
  0
LINE
  5
17AB
102
{ACAD_REACTORS
330
17AC
102
}
330
18
100
AcDbEntity
  8
18
  6
STRICHPUNKT
 48
0.5
100
AcDbLine
 10
910.1196423147721
 20
-75.64697293910558
 30
0.0
 11
910.1196423147721
 21
-60.64219921588756
 31
0.0
  0
LINE
  5
17EF
330
18
100
AcDbEntity
  8
18
  6
STRICHLINIE
100
AcDbLine
 10
2920.125161098965
 20
-3359.247926711395
 30
0.0
 11
2920.125161098965
 21
-3625.247926711394
 31
0.0
  0
LINE
  5
17F0
330
18
100
AcDbEntity
  8
0
100
AcDbLine
 10
2870.125161098965
 20
-3260.247926711394
 30
0.0
 11
2870.125161098965
 21
-3634.247926711394
 31
0.0
  0
LINE
  5
17F1
330
18
100
AcDbEntity
  8
0
100
AcDbLine
 10
2932.125161098965
 20
-3262.247926711394
 30
0.0
 11
2932.125161098965
 21
-3634.247926711394
 31
0.0
  0
LINE
  5
17F2
330
18
100
AcDbEntity
  8
18
  6
STRICHLINIE
100
AcDbLine
 10
2933.125161098965
 20
-3631.247926711394
 30
0.0
 11
2876.125161098965
 21
-3631.247926711394
 31
0.0
  0
LINE
  5
17F4
330
18
100
AcDbEntity
  8
18
  6
STRICHLINIE
100
AcDbLine
 10
2920.125161098965
 20
-3625.247926711394
 30
0.0
 11
2870.125161098965
 21
-3625.247926711394
 31
0.0
  0
LINE
  5
17F5
330
18
100
AcDbEntity
  8
18
  6
STRICHLINIE
100
AcDbLine
 10
2932.125161098965
 20
-3696.247926711393
 30
0.0
 11
2870.125161098965
 21
-3696.247926711393
 31
0.0
  0
ARC
  5
17F7
330
18
100
AcDbEntity
  8
18
  6
STRICHLINIE
100
AcDbCircle
 10
2876.125161098965
 20
-3628.247926711394
 30
0.0
 40
3.0
100
AcDbArc
 50
180.0
 51
270.0
  0
LINE
  5
17F8
330
18
100
AcDbEntity
  8
0
100
AcDbLine
 10
2990.125161098965
 20
-3631.247926711394
 30
0.0
 11
2933.125161098965
 21
-3631.247926711394
 31
0.0
  0
LINE
  5
17FB
330
18
100
AcDbEntity
  8
18
100
AcDbLine
 10
-1577.375074445898
 20
-3239.683529215974
 30
0.0
 11
3551.150577133811
 21
-3239.683529215974
 31
0.0
  0
LINE
  5
17FC
330
18
100
AcDbEntity
  8
18
100
AcDbLine
 10
-1577.375074445898
 20
-3250.044959836012
 30
0.0
 11
3551.150577133811
 21
-3250.044959836013
 31
0.0
  0
LINE
  5
17FD
330
18
100
AcDbEntity
  8
18
100
AcDbLine
 10
-1577.375074445898
 20
-3254.247926711395
 30
0.0
 11
3551.150577133811
 21
-3254.247926711393
 31
0.0
  0
LINE
  5
17FE
330
18
100
AcDbEntity
  8
18
  6
STRICHLINIE
100
AcDbLine
 10
2920.125161098965
 20
-3359.247926711395
 30
0.0
 11
2870.125161098965
 21
-3359.247926711395
 31
0.0
  0
LINE
  5
17FF
330
18
100
AcDbEntity
  8
0
100
AcDbLine
 10
2932.125161098965
 20
-3262.247926711394
 30
0.0
 11
2870.125161098965
 21
-3262.247926711394
 31
0.0
  0
LINE
  5
180C
330
18
100
AcDbEntity
  8
18
  6
STRICHLINIE
 48
0.75
100
AcDbLine
 10
2923.125161098965
 20
-3334.247926711394
 30
0.0
 11
2923.125161098965
 21
-3346.247926711394
 31
0.0
  0
ARC
  5
180D
330
18
100
AcDbEntity
  8
18
  6
STRICHLINIE
 48
0.75
100
AcDbCircle
 10
2915.125161098965
 20
-3346.247926711394
 30
0.0
 40
8.0
100
AcDbArc
 50
270.0
 51
0.000000000000007
  0
LINE
  5
180E
330
18
100
AcDbEntity
  8
18
  6
STRICHLINIE
 48
0.75
100
AcDbLine
 10
2915.125161098965
 20
-3354.247926711393
 30
0.0
 11
2881.125161098965
 21
-3354.247926711393
 31
0.0
  0
ARC
  5
180F
330
18
100
AcDbEntity
  8
18
  6
STRICHLINIE
 48
0.75
100
AcDbCircle
 10
2881.125161098965
 20
-3346.247926711394
 30
0.0
 40
8.0
100
AcDbArc
 50
180.0
 51
270.0
  0
LINE
  5
1810
330
18
100
AcDbEntity
  8
18
  6
STRICHLINIE
 48
0.75
100
AcDbLine
 10
2873.125161098965
 20
-3346.247926711394
 30
0.0
 11
2873.125161098965
 21
-3262.247926711394
 31
0.0
  0
ARC
  5
1811
330
18
100
AcDbEntity
  8
35
100
AcDbCircle
 10
2881.125161098965
 20
-3262.247926711394
 30
0.0
 40
8.0
100
AcDbArc
 50
90.0
 51
180.0
  0
LINE
  5
1812
330
18
100
AcDbEntity
  8
35
100
AcDbLine
 10
2881.125161098965
 20
-3254.247926711393
 30
0.0
 11
2915.125161098965
 21
-3254.247926711393
 31
0.0
  0
ARC
  5
1813
330
18
100
AcDbEntity
  8
35
100
AcDbCircle
 10
2915.125161098965
 20
-3262.247926711394
 30
0.0
 40
8.0
100
AcDbArc
 50
0.000000000000007
 51
90.0
  0
LINE
  5
1814
330
18
100
AcDbEntity
  8
18
  6
STRICHLINIE
 48
0.75
100
AcDbLine
 10
2923.125161098965
 20
-3262.247926711394
 30
0.0
 11
2923.125161098965
 21
-3274.247926711394
 31
0.0
  0
LINE
  5
181F
330
18
100
AcDbEntity
  8
25
100
AcDbLine
 10
3551.150577133811
 20
-3634.247926711394
 30
0.0
 11
-1577.375074445898
 21
-3634.247926711393
 31
0.0
  0
LINE
  5
1821
330
18
100
AcDbEntity
  8
18
  6
STRICHLINIE
100
AcDbLine
 10
2932.125161098965
 20
-3634.247926711394
 30
0.0
 11
2932.125161098965
 21
-3696.247926711393
 31
0.0
  0
LINE
  5
1822
330
18
100
AcDbEntity
  8
18
  6
STRICHLINIE
100
AcDbLine
 10
2870.125161098965
 20
-3634.247926711394
 30
0.0
 11
2870.125161098965
 21
-3696.247926711393
 31
0.0
  0
LINE
  5
18A1
330
18
100
AcDbEntity
  8
18
100
AcDbLine
 10
-1577.375074445898
 20
-5086.446560442862
 30
0.0
 11
3551.150577133811
 21
-5086.446560442862
 31
0.0
  0
LINE
  5
18A2
330
18
100
AcDbEntity
  8
18
100
AcDbLine
 10
-1577.375074445898
 20
-5076.085129822825
 30
0.0
 11
3551.150577133811
 21
-5076.085129822825
 31
0.0
  0
LINE
  5
18A3
330
18
100
AcDbEntity
  8
18
100
AcDbLine
 10
-1577.375074445898
 20
-5071.882162947441
 30
0.0
 11
3551.150577133811
 21
-5071.882162947443
 31
0.0
  0
LINE
  5
18A4
330
18
100
AcDbEntity
  8
25
100
AcDbLine
 10
3551.150577133811
 20
-4691.882162947442
 30
0.0
 11
-1577.375074445898
 21
-4691.882162947443
 31
0.0
  0
LINE
  5
18A5
330
18
100
AcDbEntity
  8
25
100
AcDbLine
 10
3551.150577133811
 20
-4616.882162947443
 30
0.0
 11
-1577.375074445898
 21
-4616.882162947442
 31
0.0
  0
LINE
  5
18AD
330
18
100
AcDbEntity
  8
18
  6
STRICHLINIE
 48
0.05
100
AcDbLine
 10
-1058.874838901035
 20
-4691.882162947444
 30
0.0
 11
-1058.874838901035
 21
-4616.882162947442
 31
0.0
  0
LINE
  5
18B7
330
18
100
AcDbEntity
  8
35
 48
0.2
100
AcDbLine
 10
-738.8748389010352
 20
-4691.882162947444
 30
0.0
 11
-738.8748389010352
 21
-4616.882162947442
 31
0.0
  0
LINE
  5
1900
330
18
100
AcDbEntity
  8
0
100
AcDbLine
 10
2870.125161098965
 20
-5065.882162947442
 30
0.0
 11
2870.125161098965
 21
-4691.882162947442
 31
0.0
  0
LINE
  5
1901
330
18
100
AcDbEntity
  8
0
100
AcDbLine
 10
2932.125161098965
 20
-5063.882162947442
 30
0.0
 11
2932.125161098965
 21
-4691.882162947442
 31
0.0
  0
LINE
  5
1902
330
18
100
AcDbEntity
  8
18
  6
STRICHLINIE
 48
0.75
100
AcDbLine
 10
2873.125161098965
 20
-5063.882162947442
 30
0.0
 11
2873.125161098965
 21
-4979.882162947443
 31
0.0
  0
LINE
  5
1904
330
18
100
AcDbEntity
  8
18
  6
STRICHLINIE
100
AcDbLine
 10
2920.125161098965
 20
-4966.882162947442
 30
0.0
 11
2920.125161098965
 21
-4700.882162947443
 31
0.0
  0
LINE
  5
1905
330
18
100
AcDbEntity
  8
0
100
AcDbLine
 10
2990.125161098965
 20
-4694.882162947442
 30
0.0
 11
2933.125161098965
 21
-4694.882162947442
 31
0.0
  0
LINE
  5
1907
330
18
100
AcDbEntity
  8
18
  6
STRICHLINIE
 48
0.05
100
AcDbLine
 10
2741.125161098965
 20
-4691.882162947444
 30
0.0
 11
2741.125161098965
 21
-4616.882162947442
 31
0.0
  0
LINE
  5
1909
330
18
100
AcDbEntity
  8
35
 48
0.2
100
AcDbLine
 10
3061.125161098965
 20
-4691.882162947444
 30
0.0
 11
3061.125161098965
 21
-4616.882162947442
 31
0.0
  0
LINE
  5
190A
330
18
100
AcDbEntity
  8
18
  6
STRICHLINIE
100
AcDbLine
 10
2870.125161098965
 20
-4691.882162947442
 30
0.0
 11
2870.125161098965
 21
-4629.882162947442
 31
0.0
  0
LINE
  5
190B
330
18
100
AcDbEntity
  8
18
  6
STRICHLINIE
100
AcDbLine
 10
2932.125161098965
 20
-4691.882162947442
 30
0.0
 11
2932.125161098965
 21
-4629.882162947442
 31
0.0
  0
LINE
  5
190C
330
18
100
AcDbEntity
  8
18
  6
STRICHLINIE
100
AcDbLine
 10
2932.125161098965
 20
-4629.882162947442
 30
0.0
 11
2870.125161098965
 21
-4629.882162947442
 31
0.0
  0
LINE
  5
190D
330
18
100
AcDbEntity
  8
18
  6
STRICHLINIE
100
AcDbLine
 10
2933.125161098965
 20
-4694.882162947442
 30
0.0
 11
2876.125161098965
 21
-4694.882162947442
 31
0.0
  0
LINE
  5
190F
330
18
100
AcDbEntity
  8
18
  6
STRICHLINIE
100
AcDbLine
 10
2920.125161098965
 20
-4700.882162947443
 30
0.0
 11
2870.125161098965
 21
-4700.882162947443
 31
0.0
  0
ARC
  5
1910
330
18
100
AcDbEntity
  8
18
  6
STRICHLINIE
100
AcDbCircle
 10
2876.125161098965
 20
-4697.882162947442
 30
0.0
 40
3.0
100
AcDbArc
 50
89.99999999999998
 51
180.0
  0
LINE
  5
1915
330
18
100
AcDbEntity
  8
18
  6
STRICHLINIE
 48
0.75
100
AcDbLine
 10
2923.125161098965
 20
-4991.882162947442
 30
0.0
 11
2923.125161098965
 21
-4979.882162947443
 31
0.0
  0
LINE
  5
1916
330
18
100
AcDbEntity
  8
18
  6
STRICHLINIE
100
AcDbLine
 10
2920.125161098965
 20
-4966.882162947442
 30
0.0
 11
2870.125161098965
 21
-4966.882162947442
 31
0.0
  0
ARC
  5
191A
330
18
100
AcDbEntity
  8
18
  6
STRICHLINIE
 48
0.75
100
AcDbCircle
 10
2881.125161098965
 20
-4979.882162947443
 30
0.0
 40
8.0
100
AcDbArc
 50
89.99999999999998
 51
180.0
  0
LINE
  5
191B
330
18
100
AcDbEntity
  8
18
  6
STRICHLINIE
 48
0.75
100
AcDbLine
 10
2915.125161098965
 20
-4971.882162947443
 30
0.0
 11
2881.125161098965
 21
-4971.882162947443
 31
0.0
  0
ARC
  5
191C
330
18
100
AcDbEntity
  8
18
  6
STRICHLINIE
 48
0.75
100
AcDbCircle
 10
2915.125161098965
 20
-4979.882162947443
 30
0.0
 40
8.0
100
AcDbArc
 50
0.000000000000007
 51
89.99999999999998
  0
LINE
  5
191E
330
18
100
AcDbEntity
  8
0
100
AcDbLine
 10
2867.125161098965
 20
-5068.882162947442
 30
0.0
 11
2800.125161098965
 21
-5068.882162947442
 31
0.0
  0
ARC
  5
1920
330
18
100
AcDbEntity
  8
35
100
AcDbCircle
 10
2881.125161098965
 20
-5063.882162947442
 30
0.0
 40
8.0
100
AcDbArc
 50
180.0
 51
270.0
  0
ARC
  5
1921
330
18
100
AcDbEntity
  8
35
100
AcDbCircle
 10
2915.125161098965
 20
-5063.882162947442
 30
0.0
 40
8.0
100
AcDbArc
 50
270.0
 51
0.000000000000007
  0
LINE
  5
1923
330
18
100
AcDbEntity
  8
0
100
AcDbLine
 10
2932.125161098965
 20
-5063.882162947442
 30
0.0
 11
2870.125161098965
 21
-5063.882162947442
 31
0.0
  0
LINE
  5
1924
330
18
100
AcDbEntity
  8
0
100
AcDbLine
 10
2873.125161098965
 20
-5065.882162947442
 30
0.0
 11
2873.125161098965
 21
-5063.882162947442
 31
0.0
  0
LINE
  5
1928
330
18
100
AcDbEntity
  8
18
  6
STRICHLINIE
 48
0.75
100
AcDbLine
 10
2923.125161098965
 20
-5063.882162947442
 30
0.0
 11
2923.125161098965
 21
-5051.882162947443
 31
0.0
  0
ARC
  5
192B
330
18
100
AcDbEntity
  8
0
100
AcDbCircle
 10
2867.125161098965
 20
-5065.882162947442
 30
0.0
 40
3.0
100
AcDbArc
 50
270.0
 51
0.000000000000007
  0
LINE
  5
192C
330
18
100
AcDbEntity
  8
35
100
AcDbLine
 10
2881.125161098965
 20
-5071.882162947442
 30
0.0
 11
2915.125161098965
 21
-5071.882162947442
 31
0.0
  0
LWPOLYLINE
  5
193A
330
18
100
AcDbEntity
  8
25
100
AcDbPolyline
 90
        3
 70
     0
 10
240.5996724679826
 20
-4192.448049759358
 40
0.0
 41
0.0
 10
1210.314430101895
 20
-4192.448049759358
 40
50.0
 41
0.0
 10
1293.847908808293
 20
-4192.448049759358
 40
0.0
 41
0.0
  0
TEXT
  5
193B
330
18
100
AcDbEntity
  8
25
100
AcDbText
 10
283.1035782912586
 20
-4148.881655621699
 30
0.0
 40
125.0
  1
Fahrtrichtung
  7
ARIALFETT
100
AcDbText
  0
CIRCLE
  5
193D
330
18
100
AcDbEntity
  8
18
100
AcDbCircle
 10
-2253.46738284847
 20
-2394.490107281508
 30
0.0
 40
481.976314669047
  0
LINE
  5
193E
330
18
100
AcDbEntity
  8
18
100
AcDbLine
 10
-2610.581071111256
 20
-2070.806648394116
 30
0.0
 11
-1896.353694585684
 21
-2070.806648394116
 31
0.0
  0
LINE
  5
193F
330
18
100
AcDbEntity
  8
18
100
AcDbLine
 10
-2651.442812056681
 20
-2122.613801494305
 30
0.0
 11
-1855.49195364026
 21
-2122.613801494305
 31
0.0
  0
LINE
  5
1940
330
18
100
AcDbEntity
  8
18
100
AcDbLine
 10
-2665.012872513734
 20
-2143.628635871221
 30
0.0
 11
-1841.921893183206
 21
-2143.628635871221
 31
0.0
  0
LINE
  5
1941
330
18
100
AcDbEntity
  8
18
  6
STRICHLINIE
100
AcDbLine
 10
-2150.10495266523
 20
-2668.628635871215
 30
0.0
 11
-2150.10495266523
 21
-2865.252654568961
 31
0.0
  0
LINE
  5
1944
330
18
100
AcDbEntity
  8
0
100
AcDbLine
 10
-2090.10495266523
 20
-2183.628635871215
 30
0.0
 11
-2090.10495266523
 21
-2847.936779235975
 31
0.0
  0
LINE
  5
1945
330
18
100
AcDbEntity
  8
0
100
AcDbLine
 10
-2400.104952665231
 20
-2173.628635871215
 30
0.0
 11
-2400.104952665231
 21
-2853.618184205792
 31
0.0
  0
LINE
  5
1947
330
18
100
AcDbEntity
  8
18
  6
STRICHLINIE
 48
0.75
100
AcDbLine
 10
-2385.10495266523
 20
-2603.628635871213
 30
0.0
 11
-2385.10495266523
 21
-2183.628635871213
 31
0.0
  0
ARC
  5
1949
330
18
100
AcDbEntity
  8
18
  6
STRICHLINIE
 48
0.75
100
AcDbCircle
 10
-2175.104952665231
 20
-2603.628635871213
 30
0.0
 40
40.0
100
AcDbArc
 50
270.0
 51
0.000000000000007
  0
LINE
  5
194A
330
18
100
AcDbEntity
  8
18
  6
STRICHLINIE
 48
0.75
100
AcDbLine
 10
-2175.104952665231
 20
-2643.628635871213
 30
0.0
 11
-2345.104952665231
 21
-2643.628635871213
 31
0.0
  0
ARC
  5
194B
330
18
100
AcDbEntity
  8
18
  6
STRICHLINIE
 48
0.75
100
AcDbCircle
 10
-2345.104952665231
 20
-2603.628635871213
 30
0.0
 40
40.0
100
AcDbArc
 50
180.0
 51
270.0
  0
LINE
  5
194F
330
18
100
AcDbEntity
  8
18
  6
STRICHLINIE
100
AcDbLine
 10
-2150.10495266523
 20
-2668.628635871215
 30
0.0
 11
-2400.104952665231
 21
-2668.628635871215
 31
0.0
  0
LINE
  5
1950
330
18
100
AcDbEntity
  8
18
  6
STRICHLINIE
 48
0.75
100
AcDbLine
 10
-2135.10495266523
 20
-2543.628635871213
 30
0.0
 11
-2135.10495266523
 21
-2603.628635871213
 31
0.0
  0
LINE
  5
1953
330
18
100
AcDbEntity
  8
0
100
AcDbLine
 10
-2415.104952665231
 20
-2158.628635871215
 30
0.0
 11
-2673.78932399136
 21
-2158.628635871213
 31
0.0
  0
LINE
  5
1955
330
18
100
AcDbEntity
  8
35
100
AcDbLine
 10
-2345.104952665231
 20
-2143.628635871213
 30
0.0
 11
-2175.104952665231
 21
-2143.628635871213
 31
0.0
  0
ARC
  5
1956
330
18
100
AcDbEntity
  8
0
100
AcDbCircle
 10
-2415.104952665231
 20
-2173.628635871215
 30
0.0
 40
15.0
100
AcDbArc
 50
0.000000000000007
 51
90.0
  0
LINE
  5
1959
330
18
100
AcDbEntity
  8
18
  6
STRICHLINIE
 48
0.75
100
AcDbLine
 10
-2135.10495266523
 20
-2183.628635871215
 30
0.0
 11
-2135.10495266523
 21
-2243.628635871213
 31
0.0
  0
LINE
  5
195E
330
18
100
AcDbEntity
  8
0
100
AcDbLine
 10
-2090.10495266523
 20
-2183.628635871215
 30
0.0
 11
-2400.104952665231
 21
-2183.628635871213
 31
0.0
  0
ARC
  5
1960
330
18
100
AcDbEntity
  8
35
100
AcDbCircle
 10
-2175.104952665231
 20
-2183.628635871213
 30
0.0
 40
40.0
100
AcDbArc
 50
0.000000000000007
 51
90.0
  0
ARC
  5
1961
330
18
100
AcDbEntity
  8
35
100
AcDbCircle
 10
-2345.104952665231
 20
-2183.628635871213
 30
0.0
 40
40.0
100
AcDbArc
 50
90.0
 51
180.0
  0
DIMENSION
  5
1984
330
18
100
AcDbEntity
  8
KOTIERUNG
100
AcDbDimension
  2
*D7
 10
-1875.111326361839
 20
-2485.150138132893
 30
0.0
 11
-1297.446486808068
 21
-2485.150138132893
 31
0.0
 70
   160
  1
3800±9
 71
     5
 42
976.2364874608037
  3
TYPENBLATT_M50
100
AcDbAlignedDimension
 13
-898.8748389010352
 23
-3178.71337410412
 33
0.0
 14
-1875.111326361839
 24
-2925.104568806608
 34
0.0
100
AcDbRotatedDimension
1001
ACAD
1000
DSTYLE
1002
{
1070
    75
1070
     1
1070
    76
1070
     1
1070
   279
1070
     1
1070
   282
1070
     1
1002
}
  0
DIMENSION
  5
198E
330
18
100
AcDbEntity
  8
KOTIERUNG
100
AcDbDimension
  2
*D8
 10
3820.412009539733
 20
-2485.150138132893
 30
0.0
 11
3249.775043146088
 21
-2485.150138132893
 31
0.0
 70
   160
  1
3800±9
 71
     5
 42
919.2868484407691
  3
TYPENBLATT_M50
100
AcDbAlignedDimension
 13
2901.125161098965
 23
-3128.71337410412
 33
0.0
 14
3820.412009539733
 24
-2935.726563030439
 34
0.0
100
AcDbRotatedDimension
1001
ACAD
1000
DSTYLE
1002
{
1070
    75
1070
     1
1070
    76
1070
     1
1070
   279
1070
     1
1070
   282
1070
     1
1002
}
  0
CIRCLE
  5
19A4
330
18
100
AcDbEntity
  8
18
100
AcDbCircle
 10
-2253.46738284847
 20
-4062.14478223569
 30
0.0
 40
481.976314669047
  0
LINE
  5
19A6
330
18
100
AcDbEntity
  8
18
  6
STRICHLINIE
 48
0.75
100
AcDbLine
 10
-2385.10495266523
 20
-3853.006253645985
 30
0.0
 11
-2385.10495266523
 21
-4273.006253645984
 31
0.0
  0
LINE
  5
19A7
330
18
100
AcDbEntity
  8
0
100
AcDbLine
 10
-2090.10495266523
 20
-4273.006253645982
 30
0.0
 11
-2090.10495266523
 21
-3608.698110281223
 31
0.0
  0
LINE
  5
19AA
330
18
100
AcDbEntity
  8
0
100
AcDbLine
 10
-2400.104952665231
 20
-4283.006253645982
 30
0.0
 11
-2400.104952665231
 21
-3603.016705311406
 31
0.0
  0
LINE
  5
19AB
330
18
100
AcDbEntity
  8
18
  6
STRICHLINIE
 48
0.75
100
AcDbLine
 10
-2175.104952665231
 20
-3813.006253645985
 30
0.0
 11
-2345.104952665231
 21
-3813.006253645985
 31
0.0
  0
LINE
  5
19AD
330
18
100
AcDbEntity
  8
18
  6
STRICHLINIE
100
AcDbLine
 10
-2150.10495266523
 20
-3788.006253645983
 30
0.0
 11
-2400.104952665231
 21
-3788.006253645983
 31
0.0
  0
ARC
  5
19AE
330
18
100
AcDbEntity
  8
18
  6
STRICHLINIE
 48
0.75
100
AcDbCircle
 10
-2345.104952665231
 20
-3853.006253645985
 30
0.0
 40
40.0
100
AcDbArc
 50
90.00000000000003
 51
180.0
  0
LINE
  5
19B0
330
18
100
AcDbEntity
  8
18
  6
STRICHLINIE
100
AcDbLine
 10
-2150.10495266523
 20
-3788.006253645983
 30
0.0
 11
-2150.10495266523
 21
-3591.382234948236
 31
0.0
  0
ARC
  5
19B1
330
18
100
AcDbEntity
  8
18
  6
STRICHLINIE
 48
0.75
100
AcDbCircle
 10
-2175.104952665231
 20
-3853.006253645985
 30
0.0
 40
40.0
100
AcDbArc
 50
0.0
 51
90.00000000000003
  0
LINE
  5
19B3
330
18
100
AcDbEntity
  8
18
  6
STRICHLINIE
 48
0.75
100
AcDbLine
 10
-2135.10495266523
 20
-3913.006253645985
 30
0.0
 11
-2135.10495266523
 21
-3853.006253645985
 31
0.0
  0
LINE
  5
19B7
330
18
100
AcDbEntity
  8
35
100
AcDbLine
 10
-2345.104952665231
 20
-4313.006253645984
 30
0.0
 11
-2175.104952665231
 21
-4313.006253645984
 31
0.0
  0
LINE
  5
19B8
330
18
100
AcDbEntity
  8
0
100
AcDbLine
 10
-2090.10495266523
 20
-4273.006253645982
 30
0.0
 11
-2400.104952665231
 21
-4273.006253645984
 31
0.0
  0
LINE
  5
19B9
330
18
100
AcDbEntity
  8
18
100
AcDbLine
 10
-2610.581071111256
 20
-4385.828241123081
 30
0.0
 11
-1896.353694585684
 21
-4385.828241123081
 31
0.0
  0
LINE
  5
19BA
330
18
100
AcDbEntity
  8
18
100
AcDbLine
 10
-2651.442812056681
 20
-4334.021088022892
 30
0.0
 11
-1855.49195364026
 21
-4334.021088022892
 31
0.0
  0
LINE
  5
19BB
330
18
100
AcDbEntity
  8
18
100
AcDbLine
 10
-2665.012872513734
 20
-4313.006253645977
 30
0.0
 11
-1841.921893183206
 21
-4313.006253645977
 31
0.0
  0
LINE
  5
19BC
330
18
100
AcDbEntity
  8
0
100
AcDbLine
 10
-2415.104952665231
 20
-4298.006253645982
 30
0.0
 11
-2673.78932399136
 21
-4298.006253645985
 31
0.0
  0
ARC
  5
19BF
330
18
100
AcDbEntity
  8
0
100
AcDbCircle
 10
-2415.104952665231
 20
-4283.006253645982
 30
0.0
 40
15.0
100
AcDbArc
 50
270.0
 51
0.0
  0
ARC
  5
19C0
330
18
100
AcDbEntity
  8
35
100
AcDbCircle
 10
-2345.104952665231
 20
-4273.006253645984
 30
0.0
 40
40.0
100
AcDbArc
 50
180.0
 51
270.0
  0
LINE
  5
19C4
330
18
100
AcDbEntity
  8
18
  6
STRICHLINIE
 48
0.75
100
AcDbLine
 10
-2135.10495266523
 20
-4273.006253645982
 30
0.0
 11
-2135.10495266523
 21
-4213.006253645985
 31
0.0
  0
ARC
  5
19C6
330
18
100
AcDbEntity
  8
35
100
AcDbCircle
 10
-2175.104952665231
 20
-4273.006253645984
 30
0.0
 40
40.0
100
AcDbArc
 50
270.0
 51
0.0
  0
CIRCLE
  5
19CB
330
18
100
AcDbEntity
  8
18
100
AcDbCircle
 10
-903.2232588624392
 20
-3306.330891477152
 30
0.0
 40
92.193326235134
  0
CIRCLE
  5
19CC
330
18
100
AcDbEntity
  8
18
100
AcDbCircle
 10
-903.2232588624392
 20
-5019.799198181685
 30
0.0
 40
92.193326235134
  0
LINE
  5
19CE
330
18
100
AcDbEntity
  8
18
100
AcDbLine
 10
-1854.040400091549
 20
-2664.229339407016
 30
0.0
 11
-979.6263952981163
 21
-3254.734669279309
 31
0.0
  0
LINE
  5
19CF
330
18
100
AcDbEntity
  8
18
100
AcDbLine
 10
-1860.332107673153
 20
-4340.974162529057
 30
0.0
 11
-978.4229057655549
 21
-4966.464195529162
 31
0.0
  0
LINE
  5
1F52
330
18
100
AcDbEntity
  8
35
100
AcDbLine
 10
879.9694058704389
 20
-1041.522107638418
 30
0.0
 11
867.969405870439
 21
-1041.522107638418
 31
0.0
  0
ARC
  5
1F53
330
18
100
AcDbEntity
  8
35
100
AcDbCircle
 10
867.969405870439
 20
-1049.522107638418
 30
0.0
 40
8.0
100
AcDbArc
 50
90.0
 51
180.0
  0
LINE
  5
1F54
330
18
100
AcDbEntity
  8
35
100
AcDbLine
 10
859.969405870439
 20
-1049.522107638418
 30
0.0
 11
859.969405870439
 21
-1083.522107638418
 31
0.0
  0
ARC
  5
1F55
330
18
100
AcDbEntity
  8
35
100
AcDbCircle
 10
867.969405870439
 20
-1083.522107638418
 30
0.0
 40
8.0
100
AcDbArc
 50
180.0
 51
270.0
  0
LINE
  5
1F56
330
18
100
AcDbEntity
  8
35
100
AcDbLine
 10
867.969405870439
 20
-1091.522107638418
 30
0.0
 11
951.969405870439
 21
-1091.522107638418
 31
0.0
  0
ARC
  5
1F57
330
18
100
AcDbEntity
  8
35
100
AcDbCircle
 10
951.969405870439
 20
-1083.522107638418
 30
0.0
 40
8.0
100
AcDbArc
 50
270.0
 51
0.0
  0
LINE
  5
1F58
330
18
100
AcDbEntity
  8
35
100
AcDbLine
 10
959.969405870439
 20
-1083.522107638418
 30
0.0
 11
959.969405870439
 21
-1049.522107638419
 31
0.0
  0
ARC
  5
1F59
330
18
100
AcDbEntity
  8
35
100
AcDbCircle
 10
951.969405870439
 20
-1049.522107638419
 30
0.0
 40
8.0
100
AcDbArc
 50
0.0
 51
90.0
  0
LINE
  5
1F5A
330
18
100
AcDbEntity
  8
35
100
AcDbLine
 10
951.969405870439
 20
-1041.522107638419
 30
0.0
 11
939.969405870439
 21
-1041.522107638419
 31
0.0
  0
LINE
  5
1F66
330
18
100
AcDbEntity
  8
0
100
AcDbLine
 10
967.1251610989649
 20
-3257.247926711394
 30
0.0
 11
900.1251610989649
 21
-3257.247926711393
 31
0.0
  0
ARC
  5
1F68
330
18
100
AcDbEntity
  8
35
100
AcDbCircle
 10
1015.125161098965
 20
-3262.247926711394
 30
0.0
 40
8.0
100
AcDbArc
 50
0.000000000000007
 51
90.0
  0
ARC
  5
1F69
330
18
100
AcDbEntity
  8
35
100
AcDbCircle
 10
981.125161098965
 20
-3262.247926711394
 30
0.0
 40
8.0
100
AcDbArc
 50
90.0
 51
180.0
  0
LINE
  5
1F6B
330
18
100
AcDbEntity
  8
18
  6
STRICHLINIE
100
AcDbLine
 10
970.125161098965
 20
-3634.247926711394
 30
0.0
 11
970.125161098965
 21
-3696.247926711393
 31
0.0
  0
LINE
  5
1F6C
330
18
100
AcDbEntity
  8
18
  6
STRICHLINIE
100
AcDbLine
 10
1032.125161098965
 20
-3634.247926711394
 30
0.0
 11
1032.125161098965
 21
-3696.247926711393
 31
0.0
  0
LINE
  5
1F6D
330
18
100
AcDbEntity
  8
18
  6
STRICHLINIE
 48
0.75
100
AcDbLine
 10
1023.125161098965
 20
-3262.247926711394
 30
0.0
 11
1023.125161098965
 21
-3274.247926711394
 31
0.0
  0
LINE
  5
1F6E
330
18
100
AcDbEntity
  8
18
  6
STRICHLINIE
 48
0.75
100
AcDbLine
 10
973.125161098965
 20
-3346.247926711394
 30
0.0
 11
973.125161098965
 21
-3262.247926711394
 31
0.0
  0
ARC
  5
1F6F
330
18
100
AcDbEntity
  8
18
  6
STRICHLINIE
 48
0.75
100
AcDbCircle
 10
981.125161098965
 20
-3346.247926711394
 30
0.0
 40
8.0
100
AcDbArc
 50
180.0
 51
270.0
  0
LINE
  5
1F70
330
18
100
AcDbEntity
  8
18
  6
STRICHLINIE
 48
0.75
100
AcDbLine
 10
1015.125161098965
 20
-3354.247926711393
 30
0.0
 11
981.125161098965
 21
-3354.247926711393
 31
0.0
  0
ARC
  5
1F71
330
18
100
AcDbEntity
  8
18
  6
STRICHLINIE
 48
0.75
100
AcDbCircle
 10
1015.125161098965
 20
-3346.247926711394
 30
0.0
 40
8.0
100
AcDbArc
 50
270.0
 51
0.000000000000007
  0
LINE
  5
1F72
330
18
100
AcDbEntity
  8
18
  6
STRICHLINIE
 48
0.75
100
AcDbLine
 10
1023.125161098965
 20
-3334.247926711394
 30
0.0
 11
1023.125161098965
 21
-3346.247926711394
 31
0.0
  0
ARC
  5
1F74
330
18
100
AcDbEntity
  8
0
100
AcDbCircle
 10
967.1251610989649
 20
-3260.247926711394
 30
0.0
 40
3.0
100
AcDbArc
 50
0.000000000000007
 51
90.0
  0
LINE
  5
1F75
330
18
100
AcDbEntity
  8
0
100
AcDbLine
 10
1032.125161098965
 20
-3262.247926711394
 30
0.0
 11
970.125161098965
 21
-3262.247926711394
 31
0.0
  0
LINE
  5
1F76
330
18
100
AcDbEntity
  8
18
  6
STRICHLINIE
100
AcDbLine
 10
1020.125161098965
 20
-3359.247926711395
 30
0.0
 11
970.125161098965
 21
-3359.247926711395
 31
0.0
  0
LINE
  5
1F77
330
18
100
AcDbEntity
  8
0
100
AcDbLine
 10
1090.125161098965
 20
-3631.247926711394
 30
0.0
 11
1033.125161098965
 21
-3631.247926711394
 31
0.0
  0
ARC
  5
1F78
330
18
100
AcDbEntity
  8
18
  6
STRICHLINIE
100
AcDbCircle
 10
976.1251610989649
 20
-3628.247926711394
 30
0.0
 40
3.0
100
AcDbArc
 50
180.0
 51
270.0
  0
LINE
  5
1F79
330
18
100
AcDbEntity
  8
18
  6
STRICHLINIE
100
AcDbLine
 10
1032.125161098965
 20
-3696.247926711393
 30
0.0
 11
970.125161098965
 21
-3696.247926711393
 31
0.0
  0
LINE
  5
1F7A
330
18
100
AcDbEntity
  8
18
  6
STRICHLINIE
100
AcDbLine
 10
1020.125161098965
 20
-3625.247926711394
 30
0.0
 11
970.125161098965
 21
-3625.247926711394
 31
0.0
  0
LINE
  5
1F7B
330
18
100
AcDbEntity
  8
18
  6
STRICHLINIE
100
AcDbLine
 10
1033.125161098965
 20
-3631.247926711394
 30
0.0
 11
976.1251610989649
 21
-3631.247926711394
 31
0.0
  0
LINE
  5
1F7C
330
18
100
AcDbEntity
  8
0
100
AcDbLine
 10
1032.125161098965
 20
-3262.247926711394
 30
0.0
 11
1032.125161098965
 21
-3634.247926711394
 31
0.0
  0
LINE
  5
1F7D
330
18
100
AcDbEntity
  8
0
100
AcDbLine
 10
970.125161098965
 20
-3260.247926711394
 30
0.0
 11
970.125161098965
 21
-3634.247926711394
 31
0.0
  0
LINE
  5
1F7E
330
18
100
AcDbEntity
  8
18
  6
STRICHLINIE
100
AcDbLine
 10
1020.125161098965
 20
-3359.247926711395
 30
0.0
 11
1020.125161098965
 21
-3625.247926711394
 31
0.0
  0
LINE
  5
1F7F
330
18
100
AcDbEntity
  8
35
100
AcDbLine
 10
981.125161098965
 20
-3254.247926711393
 30
0.0
 11
1015.125161098965
 21
-3254.247926711393
 31
0.0
  0
ARC
  5
1F81
330
18
100
AcDbEntity
  8
35
100
AcDbCircle
 10
-918.8748389010349
 20
-3262.247926711394
 30
0.0
 40
8.0
100
AcDbArc
 50
90.0
 51
180.0
  0
ARC
  5
1F82
330
18
100
AcDbEntity
  8
35
100
AcDbCircle
 10
-884.8748389010349
 20
-3262.247926711394
 30
0.0
 40
8.0
100
AcDbArc
 50
0.000000000000007
 51
90.0
  0
LINE
  5
1F84
330
18
100
AcDbEntity
  8
18
  6
STRICHLINIE
100
AcDbLine
 10
-879.874838901035
 20
-3359.247926711395
 30
0.0
 11
-879.874838901035
 21
-3625.247926711394
 31
0.0
  0
LINE
  5
1F85
330
18
100
AcDbEntity
  8
0
100
AcDbLine
 10
-929.874838901035
 20
-3260.247926711394
 30
0.0
 11
-929.874838901035
 21
-3634.247926711394
 31
0.0
  0
LINE
  5
1F86
330
18
100
AcDbEntity
  8
0
100
AcDbLine
 10
-867.8748389010349
 20
-3262.247926711394
 30
0.0
 11
-867.8748389010346
 21
-3634.247926711394
 31
0.0
  0
LINE
  5
1F87
330
18
100
AcDbEntity
  8
18
  6
STRICHLINIE
100
AcDbLine
 10
-866.874838901035
 20
-3631.247926711394
 30
0.0
 11
-923.874838901035
 21
-3631.247926711394
 31
0.0
  0
LINE
  5
1F88
330
18
100
AcDbEntity
  8
18
  6
STRICHLINIE
100
AcDbLine
 10
-879.874838901035
 20
-3625.247926711394
 30
0.0
 11
-929.874838901035
 21
-3625.247926711394
 31
0.0
  0
LINE
  5
1F89
330
18
100
AcDbEntity
  8
18
  6
STRICHLINIE
100
AcDbLine
 10
-867.8748389010349
 20
-3696.247926711393
 30
0.0
 11
-929.874838901035
 21
-3696.247926711393
 31
0.0
  0
ARC
  5
1F8A
330
18
100
AcDbEntity
  8
18
  6
STRICHLINIE
100
AcDbCircle
 10
-923.874838901035
 20
-3628.247926711394
 30
0.0
 40
3.0
100
AcDbArc
 50
180.0
 51
270.0
  0
LINE
  5
1F8B
330
18
100
AcDbEntity
  8
0
100
AcDbLine
 10
-809.8748389010349
 20
-3631.247926711394
 30
0.0
 11
-866.874838901035
 21
-3631.247926711394
 31
0.0
  0
LINE
  5
1F8C
330
18
100
AcDbEntity
  8
18
  6
STRICHLINIE
100
AcDbLine
 10
-879.874838901035
 20
-3359.247926711395
 30
0.0
 11
-929.874838901035
 21
-3359.247926711395
 31
0.0
  0
LINE
  5
1F8D
330
18
100
AcDbEntity
  8
0
100
AcDbLine
 10
-867.8748389010349
 20
-3262.247926711394
 30
0.0
 11
-929.874838901035
 21
-3262.247926711394
 31
0.0
  0
ARC
  5
1F8E
330
18
100
AcDbEntity
  8
0
100
AcDbCircle
 10
-932.874838901035
 20
-3260.247926711394
 30
0.0
 40
3.0
100
AcDbArc
 50
0.000000000000007
 51
90.0
  0
LINE
  5
1F90
330
18
100
AcDbEntity
  8
18
  6
STRICHLINIE
 48
0.75
100
AcDbLine
 10
-876.8748389010349
 20
-3334.247926711394
 30
0.0
 11
-876.8748389010349
 21
-3346.247926711394
 31
0.0
  0
ARC
  5
1F91
330
18
100
AcDbEntity
  8
18
  6
STRICHLINIE
 48
0.75
100
AcDbCircle
 10
-884.8748389010349
 20
-3346.247926711394
 30
0.0
 40
8.0
100
AcDbArc
 50
270.0
 51
0.000000000000007
  0
LINE
  5
1F92
330
18
100
AcDbEntity
  8
18
  6
STRICHLINIE
 48
0.75
100
AcDbLine
 10
-884.8748389010349
 20
-3354.247926711393
 30
0.0
 11
-918.8748389010349
 21
-3354.247926711393
 31
0.0
  0
ARC
  5
1F93
330
18
100
AcDbEntity
  8
18
  6
STRICHLINIE
 48
0.75
100
AcDbCircle
 10
-918.8748389010349
 20
-3346.247926711394
 30
0.0
 40
8.0
100
AcDbArc
 50
180.0
 51
270.0
  0
LINE
  5
1F94
330
18
100
AcDbEntity
  8
18
  6
STRICHLINIE
 48
0.75
100
AcDbLine
 10
-926.8748389010349
 20
-3346.247926711394
 30
0.0
 11
-926.8748389010349
 21
-3262.247926711394
 31
0.0
  0
LINE
  5
1F95
330
18
100
AcDbEntity
  8
18
  6
STRICHLINIE
 48
0.75
100
AcDbLine
 10
-876.8748389010349
 20
-3262.247926711394
 30
0.0
 11
-876.8748389010349
 21
-3274.247926711394
 31
0.0
  0
LINE
  5
1F96
330
18
100
AcDbEntity
  8
18
  6
STRICHLINIE
100
AcDbLine
 10
-867.8748389010346
 20
-3634.247926711394
 30
0.0
 11
-867.8748389010349
 21
-3696.247926711393
 31
0.0
  0
LINE
  5
1F97
330
18
100
AcDbEntity
  8
18
  6
STRICHLINIE
100
AcDbLine
 10
-929.874838901035
 20
-3634.247926711394
 30
0.0
 11
-929.874838901035
 21
-3696.247926711393
 31
0.0
  0
LINE
  5
1F98
330
18
100
AcDbEntity
  8
0
100
AcDbLine
 10
-932.874838901035
 20
-3257.247926711394
 30
0.0
 11
-999.874838901035
 21
-3257.247926711393
 31
0.0
  0
LINE
  5
1F99
330
18
100
AcDbEntity
  8
35
100
AcDbLine
 10
-918.8748389010349
 20
-3254.247926711393
 30
0.0
 11
-884.8748389010349
 21
-3254.247926711393
 31
0.0
  0
ARC
  5
1F9B
330
18
100
AcDbEntity
  8
0
100
AcDbCircle
 10
2867.125161098965
 20
-3260.247926711394
 30
0.0
 40
3.0
100
AcDbArc
 50
0.000000000000007
 51
90.0
  0
LINE
  5
1F9C
330
18
100
AcDbEntity
  8
0
100
AcDbLine
 10
2867.125161098965
 20
-3257.247926711394
 30
0.0
 11
2800.125161098965
 21
-3257.247926711393
 31
0.0
  0
LINE
  5
1F9D
330
18
100
AcDbEntity
  8
0
100
AcDbLine
 10
967.1251610989648
 20
-5068.882162947442
 30
0.0
 11
900.1251610989648
 21
-5068.882162947442
 31
0.0
  0
LINE
  5
1F9E
330
18
100
AcDbEntity
  8
18
  6
STRICHLINIE
100
AcDbLine
 10
1032.125161098965
 20
-4691.882162947442
 30
0.0
 11
1032.125161098965
 21
-4629.882162947442
 31
0.0
  0
LINE
  5
1F9F
330
18
100
AcDbEntity
  8
18
  6
STRICHLINIE
100
AcDbLine
 10
970.1251610989647
 20
-4691.882162947442
 30
0.0
 11
970.1251610989647
 21
-4629.882162947442
 31
0.0
  0
ARC
  5
1FA0
330
18
100
AcDbEntity
  8
18
  6
STRICHLINIE
100
AcDbCircle
 10
976.1251610989647
 20
-4697.882162947442
 30
0.0
 40
3.0
100
AcDbArc
 50
89.99999999999998
 51
180.0
  0
LINE
  5
1FA1
330
18
100
AcDbEntity
  8
18
  6
STRICHLINIE
100
AcDbLine
 10
1033.125161098965
 20
-4694.882162947442
 30
0.0
 11
976.1251610989647
 21
-4694.882162947442
 31
0.0
  0
LINE
  5
1FA2
330
18
100
AcDbEntity
  8
18
  6
STRICHLINIE
 48
0.75
100
AcDbLine
 10
973.1251610989648
 20
-5063.882162947442
 30
0.0
 11
973.1251610989648
 21
-4979.882162947443
 31
0.0
  0
LINE
  5
1FA3
330
18
100
AcDbEntity
  8
35
100
AcDbLine
 10
981.1251610989648
 20
-5071.882162947442
 30
0.0
 11
1015.125161098965
 21
-5071.882162947442
 31
0.0
  0
ARC
  5
1FA4
330
18
100
AcDbEntity
  8
0
100
AcDbCircle
 10
967.1251610989648
 20
-5065.882162947442
 30
0.0
 40
3.0
100
AcDbArc
 50
270.0
 51
0.000000000000007
  0
LINE
  5
1FA5
330
18
100
AcDbEntity
  8
18
  6
STRICHLINIE
 48
0.75
100
AcDbLine
 10
1023.125161098965
 20
-5063.882162947442
 30
0.0
 11
1023.125161098965
 21
-5051.882162947443
 31
0.0
  0
LINE
  5
1FA6
330
18
100
AcDbEntity
  8
0
100
AcDbLine
 10
973.1251610989648
 20
-5065.882162947442
 30
0.0
 11
973.1251610989648
 21
-5063.882162947442
 31
0.0
  0
LINE
  5
1FA7
330
18
100
AcDbEntity
  8
0
100
AcDbLine
 10
1032.125161098965
 20
-5063.882162947442
 30
0.0
 11
970.1251610989647
 21
-5063.882162947442
 31
0.0
  0
ARC
  5
1FA8
330
18
100
AcDbEntity
  8
35
100
AcDbCircle
 10
1015.125161098965
 20
-5063.882162947442
 30
0.0
 40
8.0
100
AcDbArc
 50
270.0
 51
0.000000000000007
  0
ARC
  5
1FA9
330
18
100
AcDbEntity
  8
35
100
AcDbCircle
 10
981.1251610989648
 20
-5063.882162947442
 30
0.0
 40
8.0
100
AcDbArc
 50
180.0
 51
270.0
  0
ARC
  5
1FAA
330
18
100
AcDbEntity
  8
18
  6
STRICHLINIE
 48
0.75
100
AcDbCircle
 10
1015.125161098965
 20
-4979.882162947443
 30
0.0
 40
8.0
100
AcDbArc
 50
0.000000000000007
 51
89.99999999999998
  0
LINE
  5
1FAB
330
18
100
AcDbEntity
  8
18
  6
STRICHLINIE
 48
0.75
100
AcDbLine
 10
1015.125161098965
 20
-4971.882162947443
 30
0.0
 11
981.1251610989648
 21
-4971.882162947443
 31
0.0
  0
ARC
  5
1FAC
330
18
100
AcDbEntity
  8
18
  6
STRICHLINIE
 48
0.75
100
AcDbCircle
 10
981.1251610989648
 20
-4979.882162947443
 30
0.0
 40
8.0
100
AcDbArc
 50
89.99999999999998
 51
180.0
  0
LINE
  5
1FAD
330
18
100
AcDbEntity
  8
18
  6
STRICHLINIE
100
AcDbLine
 10
1020.125161098965
 20
-4966.882162947442
 30
0.0
 11
970.1251610989647
 21
-4966.882162947442
 31
0.0
  0
LINE
  5
1FAE
330
18
100
AcDbEntity
  8
18
  6
STRICHLINIE
 48
0.75
100
AcDbLine
 10
1023.125161098965
 20
-4991.882162947442
 30
0.0
 11
1023.125161098965
 21
-4979.882162947443
 31
0.0
  0
LINE
  5
1FAF
330
18
100
AcDbEntity
  8
18
  6
STRICHLINIE
100
AcDbLine
 10
1020.125161098965
 20
-4700.882162947443
 30
0.0
 11
970.1251610989647
 21
-4700.882162947443
 31
0.0
  0
LINE
  5
1FB0
330
18
100
AcDbEntity
  8
0
100
AcDbLine
 10
1090.125161098965
 20
-4694.882162947442
 30
0.0
 11
1033.125161098965
 21
-4694.882162947442
 31
0.0
  0
LINE
  5
1FB1
330
18
100
AcDbEntity
  8
18
  6
STRICHLINIE
100
AcDbLine
 10
1020.125161098965
 20
-4966.882162947442
 30
0.0
 11
1020.125161098965
 21
-4700.882162947443
 31
0.0
  0
LINE
  5
1FB2
330
18
100
AcDbEntity
  8
0
100
AcDbLine
 10
1032.125161098965
 20
-5063.882162947442
 30
0.0
 11
1032.125161098965
 21
-4691.882162947442
 31
0.0
  0
LINE
  5
1FB3
330
18
100
AcDbEntity
  8
0
100
AcDbLine
 10
970.1251610989647
 20
-5065.882162947442
 30
0.0
 11
970.1251610989647
 21
-4691.882162947442
 31
0.0
  0
LINE
  5
1FB4
330
18
100
AcDbEntity
  8
18
  6
STRICHLINIE
100
AcDbLine
 10
1032.125161098965
 20
-4629.882162947442
 30
0.0
 11
970.1251610989647
 21
-4629.882162947442
 31
0.0
  0
LINE
  5
1FB5
330
18
100
AcDbEntity
  8
18
  6
STRICHLINIE
100
AcDbLine
 10
-929.8748389010352
 20
-4691.882162947442
 30
0.0
 11
-929.8748389010352
 21
-4629.882162947442
 31
0.0
  0
LINE
  5
1FB6
330
18
100
AcDbEntity
  8
18
  6
STRICHLINIE
100
AcDbLine
 10
-867.8748389010348
 20
-4691.882162947442
 30
0.0
 11
-867.8748389010351
 21
-4629.882162947442
 31
0.0
  0
LINE
  5
1FB7
330
18
100
AcDbEntity
  8
0
100
AcDbLine
 10
-929.8748389010352
 20
-5065.882162947442
 30
0.0
 11
-929.8748389010352
 21
-4691.882162947442
 31
0.0
  0
LINE
  5
1FB8
330
18
100
AcDbEntity
  8
0
100
AcDbLine
 10
-867.8748389010351
 20
-5063.882162947442
 30
0.0
 11
-867.8748389010348
 21
-4691.882162947442
 31
0.0
  0
LINE
  5
1FB9
330
18
100
AcDbEntity
  8
18
  6
STRICHLINIE
100
AcDbLine
 10
-879.8748389010352
 20
-4966.882162947442
 30
0.0
 11
-879.8748389010352
 21
-4700.882162947443
 31
0.0
  0
LINE
  5
1FBA
330
18
100
AcDbEntity
  8
0
100
AcDbLine
 10
-809.8748389010351
 20
-4694.882162947442
 30
0.0
 11
-866.8748389010351
 21
-4694.882162947442
 31
0.0
  0
LINE
  5
1FBB
330
18
100
AcDbEntity
  8
18
  6
STRICHLINIE
100
AcDbLine
 10
-879.8748389010352
 20
-4700.882162947443
 30
0.0
 11
-929.8748389010352
 21
-4700.882162947443
 31
0.0
  0
LINE
  5
1FBC
330
18
100
AcDbEntity
  8
18
  6
STRICHLINIE
 48
0.75
100
AcDbLine
 10
-876.8748389010353
 20
-4991.882162947442
 30
0.0
 11
-876.8748389010353
 21
-4979.882162947443
 31
0.0
  0
LINE
  5
1FBD
330
18
100
AcDbEntity
  8
18
  6
STRICHLINIE
100
AcDbLine
 10
-879.8748389010352
 20
-4966.882162947442
 30
0.0
 11
-929.8748389010352
 21
-4966.882162947442
 31
0.0
  0
ARC
  5
1FBE
330
18
100
AcDbEntity
  8
18
  6
STRICHLINIE
 48
0.75
100
AcDbCircle
 10
-918.8748389010353
 20
-4979.882162947443
 30
0.0
 40
8.0
100
AcDbArc
 50
89.99999999999998
 51
180.0
  0
LINE
  5
1FBF
330
18
100
AcDbEntity
  8
18
  6
STRICHLINIE
 48
0.75
100
AcDbLine
 10
-884.8748389010351
 20
-4971.882162947443
 30
0.0
 11
-918.8748389010353
 21
-4971.882162947443
 31
0.0
  0
ARC
  5
1FC0
330
18
100
AcDbEntity
  8
18
  6
STRICHLINIE
 48
0.75
100
AcDbCircle
 10
-884.8748389010351
 20
-4979.882162947443
 30
0.0
 40
8.0
100
AcDbArc
 50
0.000000000000007
 51
89.99999999999998
  0
ARC
  5
1FC1
330
18
100
AcDbEntity
  8
35
100
AcDbCircle
 10
-918.8748389010353
 20
-5063.882162947442
 30
0.0
 40
8.0
100
AcDbArc
 50
180.0
 51
270.0
  0
ARC
  5
1FC2
330
18
100
AcDbEntity
  8
35
100
AcDbCircle
 10
-884.8748389010351
 20
-5063.882162947442
 30
0.0
 40
8.0
100
AcDbArc
 50
270.0
 51
0.000000000000007
  0
LINE
  5
1FC3
330
18
100
AcDbEntity
  8
0
100
AcDbLine
 10
-867.8748389010351
 20
-5063.882162947442
 30
0.0
 11
-929.8748389010352
 21
-5063.882162947442
 31
0.0
  0
LINE
  5
1FC4
330
18
100
AcDbEntity
  8
0
100
AcDbLine
 10
-926.8748389010353
 20
-5065.882162947442
 30
0.0
 11
-926.8748389010353
 21
-5063.882162947442
 31
0.0
  0
LINE
  5
1FC5
330
18
100
AcDbEntity
  8
18
  6
STRICHLINIE
 48
0.75
100
AcDbLine
 10
-876.8748389010353
 20
-5063.882162947442
 30
0.0
 11
-876.8748389010353
 21
-5051.882162947443
 31
0.0
  0
ARC
  5
1FC6
330
18
100
AcDbEntity
  8
0
100
AcDbCircle
 10
-932.8748389010351
 20
-5065.882162947442
 30
0.0
 40
3.0
100
AcDbArc
 50
270.0
 51
0.000000000000007
  0
LINE
  5
1FC7
330
18
100
AcDbEntity
  8
35
100
AcDbLine
 10
-918.8748389010353
 20
-5071.882162947442
 30
0.0
 11
-884.8748389010351
 21
-5071.882162947442
 31
0.0
  0
LINE
  5
1FC8
330
18
100
AcDbEntity
  8
18
  6
STRICHLINIE
 48
0.75
100
AcDbLine
 10
-926.8748389010353
 20
-5063.882162947442
 30
0.0
 11
-926.8748389010353
 21
-4979.882162947443
 31
0.0
  0
LINE
  5
1FC9
330
18
100
AcDbEntity
  8
18
  6
STRICHLINIE
100
AcDbLine
 10
-866.8748389010351
 20
-4694.882162947442
 30
0.0
 11
-923.8748389010352
 21
-4694.882162947442
 31
0.0
  0
ARC
  5
1FCA
330
18
100
AcDbEntity
  8
18
  6
STRICHLINIE
100
AcDbCircle
 10
-923.8748389010352
 20
-4697.882162947442
 30
0.0
 40
3.0
100
AcDbArc
 50
89.99999999999998
 51
180.0
  0
LINE
  5
1FCB
330
18
100
AcDbEntity
  8
0
100
AcDbLine
 10
-932.8748389010351
 20
-5068.882162947442
 30
0.0
 11
-999.8748389010351
 21
-5068.882162947442
 31
0.0
  0
LINE
  5
1FCC
330
18
100
AcDbEntity
  8
18
  6
STRICHLINIE
100
AcDbLine
 10
-867.8748389010351
 20
-4629.882162947442
 30
0.0
 11
-929.8748389010352
 21
-4629.882162947442
 31
0.0
  0
VIEWPORT
  5
1AAD
102
{ACAD_XDICTIONARY
360
2059
102
}
330
1AAB
100
AcDbEntity
 67
     1
  8
0
100
AcDbViewport
 10
111.987497395715
 20
151.2822426345803
 30
0.0
 40
468.4460253911252
 41
299.2427126483892
 68
     1
 69
     1
 12
111.987497395715
 22
151.2822426345803
 13
0.0
 23
0.0
 14
0.5
 24
0.5
 15
0.5
 25
0.5
 16
0.0
 26
0.0
 36
1.0
 17
0.0
 27
0.0
 37
0.0
 42
50.0
 43
0.0
 44
0.0
 45
299.2427126483892
 50
0.0
 51
0.0
 72
   100
 90
    32800
  1

281
     0
 71
     1
 74
     0
110
0.0
120
0.0
130
0.0
111
1.0
121
0.0
131
0.0
112
0.0
122
1.0
132
0.0
 79
     0
146
0.0
  0
MTEXT
  5
1ABE
330
1AAB
100
AcDbEntity
 67
     1
  8
KOTIERUNG
100
AcDbMText
 10
334.574239722046
 20
33.70865160095127
 30
0.0
 40
2.5
 41
0.0
 71
     4
 72
     1
  1
\A1;
  7
VOEST
 73
     1
 44
1.0
1001
ACAD
1000
MTEXTBEGIN
1070
    73
1070
     1
1070
    44
1040
1.0
1070
    74
1070
     0
1000
MTEXTEND
  0
MTEXT
  5
1ADC
330
1AAB
100
AcDbEntity
 67
     1
  8
BLATTTEXT
100
AcDbMText
 10
170.1309310268098
 20
188.4899274501241
 30
0.0
 40
125.0
 41
0.0
 71
     4
 72
     1
  1
\A1;
  7
VOEST
 73
     1
 44
1.0
1001
ACAD
1000
MTEXTBEGIN
1070
    73
1070
     1
1070
    44
1040
1.0
1070
    74
1070
     0
1000
MTEXTEND
  0
MTEXT
  5
1ADD
330
1AAB
100
AcDbEntity
 67
     1
  8
BLATTTEXT
100
AcDbMText
 10
122.2170016261258
 20
214.8213238210264
 30
0.0
 40
2.5
 41
0.0
 71
     4
 72
     1
  1
\A1;
  7
VOEST
 73
     1
 44
1.0
1001
ACAD
1000
MTEXTBEGIN
1070
    73
1070
     1
1070
    44
1040
1.0
1070
    74
1070
     0
1000
MTEXTEND
  0
MTEXT
  5
1ADF
330
1AAB
100
AcDbEntity
 67
     1
  8
BLATTTEXT
100
AcDbMText
 10
122.2170016261258
 20
214.9995195096872
 30
0.0
 40
2.5
 41
0.0
 71
     4
 72
     1
  1
\A1;
  7
VOEST
 73
     1
 44
1.0
1001
ACAD
1000
MTEXTBEGIN
1070
    73
1070
     1
1070
    44
1040
1.0
1070
    74
1070
     0
1000
MTEXTEND
  0
MTEXT
  5
1AE0
330
1AAB
100
AcDbEntity
 67
     1
  8
BLATTTEXT
100
AcDbMText
 10
122.2170016261258
 20
214.9995195096872
 30
0.0
 40
2.5
 41
0.0
 71
     4
 72
     1
  1
\A1;
  7
VOEST
 73
     1
 44
1.0
1001
ACAD
1000
MTEXTBEGIN
1070
    73
1070
     1
1070
    44
1040
1.0
1070
    74
1070
     0
1000
MTEXTEND
  0
MTEXT
  5
1AE2
330
1AAB
100
AcDbEntity
 67
     1
  8
BLATTTEXT
100
AcDbMText
 10
130.9001099666395
 20
219.6788439368279
 30
0.0
 40
2.5
 41
0.0
 71
     4
 72
     1
  1
\A1;
  7
VOEST
 73
     1
 44
1.0
1001
ACAD
1000
MTEXTBEGIN
1070
    73
1070
     1
1070
    44
1040
1.0
1070
    74
1070
     0
1000
MTEXTEND
  0
ENDSEC
  0
SECTION
  2
OBJECTS
  0
DICTIONARY
  5
C
330
0
100
AcDbDictionary
281
     1
  3
ACAD_COLOR
350
1A82
  3
ACAD_GROUP
350
D
  3
ACAD_IMAGE_DICT
350
1A98
  3
ACAD_IMAGE_VARS
350
1A99
  3
ACAD_LAYOUT
350
1A15
  3
ACAD_MATERIAL
350
1A81
  3
ACAD_MLINESTYLE
350
1B
  3
ACAD_PLOTSETTINGS
350
1A16
  3
ACAD_PLOTSTYLENAME
350
1A13
  3
ACAD_TABLESTYLE
350
2045
  3
ACDBHEADERROUNDTRIPXREC
350
2056
  3
ACDBVARIABLEDICTIONARY
350
1109
  3
CONTENTDICTIONARY
350
23
  0
DICTIONARY
  5
204E
330
2
100
AcDbDictionary
280
     1
281
     1
  3
ACAD_LAYERSTATES
360
204F
  0
DICTIONARY
  5
2059
330
1AAD
100
AcDbDictionary
280
     1
281
     1
  3
ACAD_XREC_ROUNDTRIP
360
205A
  0
DICTIONARY
  5
1A82
102
{ACAD_REACTORS
330
C
102
}
330
C
100
AcDbDictionary
281
     1
  0
DICTIONARY
  5
D
102
{ACAD_REACTORS
330
C
102
}
330
C
100
AcDbDictionary
281
     1
  3
*A1
350
1B1
  3
*A10
350
46B
  3
*A11
350
17EC
  3
*A12
350
164D
  3
*A13
350
1C71
  3
*A14
350
1C72
  3
*A15
350
1C73
  3
*A16
350
1C74
  3
*A17
350
1C75
  3
*A18
350
1687
  3
*A19
350
169E
  3
*A2
350
17A4
  3
*A20
350
95A
  3
*A21
350
95B
  3
*A22
350
95C
  3
*A23
350
95D
  3
*A24
350
1B2
  3
*A3
350
17AC
  3
*A4
350
17AD
  3
*A5
350
16B5
  3
*A6
350
1C3
  3
*A7
350
1D2
  3
*A8
350
46A
  3
*A9
350
172E
  0
DICTIONARY
  5
1A98
102
{ACAD_REACTORS
330
C
102
}
330
C
100
AcDbDictionary
281
     1
  3
D107 H1b Damm explosion_3D
350
1A9A
  3
D107 H1b Damm_3D
350
1A9D
  0
RASTERVARIABLES
  5
1A99
102
{ACAD_REACTORS
330
C
102
}
330
C
100
AcDbRasterVariables
 90
        0
 70
     1
 71
     1
 72
     0
  0
DICTIONARY
  5
1A15
102
{ACAD_REACTORS
330
C
102
}
330
C
100
AcDbDictionary
281
     1
  3
Layout 1
350
1B01
  3
Model
350
1A17
  0
DICTIONARY
  5
1A81
102
{ACAD_REACTORS
330
C
102
}
330
C
100
AcDbDictionary
281
     1
  0
DICTIONARY
  5
1B
102
{ACAD_REACTORS
330
C
102
}
330
C
100
AcDbDictionary
281
     1
  3
STANDARD
350
1C
  0
DICTIONARY
  5
1A16
102
{ACAD_REACTORS
330
C
102
}
330
C
100
AcDbDictionary
281
     1
  0
ACDBDICTIONARYWDFLT
  5
1A13
102
{ACAD_REACTORS
330
C
102
}
330
C
100
AcDbDictionary
281
     1
  3
Normal
350
1A14
100
AcDbDictionaryWithDefault
340
1A14
  0
DICTIONARY
  5
2045
102
{ACAD_REACTORS
330
C
102
}
330
C
100
AcDbDictionary
281
     1
  3
Standard
350
2046
  0
DICTIONARY
  5
2056
102
{ACAD_REACTORS
330
C
102
}
330
C
100
AcDbDictionary
281
     1
  0
DICTIONARY
  5
1109
102
{ACAD_REACTORS
330
C
102
}
330
C
100
AcDbDictionary
281
     1
  3
CTABLESTYLE
350
2054
  3
DIMASSOC
350
2042
  3
PROJECTNAME
350
2043
  3
SORTENTS
350
110A
  0
DICTIONARY
  5
23
102
{ACAD_REACTORS
330
C
102
}
330
C
100
AcDbDictionary
281
     1
  0
DICTIONARY
  5
204F
102
{ACAD_REACTORS
330
204E
102
}
330
204E
100
AcDbDictionary
281
     1
  0
XRECORD
  5
205A
102
{ACAD_REACTORS
330
2059
102
}
330
2059
100
AcDbXrecord
280
     1
102
SHADEPLOT
 70
     0
  0
GROUP
  5
1B1
102
{ACAD_REACTORS
330
D
102
}
330
D
100
AcDbGroup
300

 70
     1
 71
     1
340
15D
340
15C
340
15F
340
15E
340
15A
340
159
340
15B
340
158
340
157
340
161
340
160
340
16F
340
166
340
169
340
168
340
156
340
155
340
163
340
162
340
16B
340
167
340
16A
340
171
340
170
340
16D
340
16C
340
16E
340
165
340
164
340
172
  0
GROUP
  5
46B
102
{ACAD_REACTORS
330
D
102
}
330
D
100
AcDbGroup
300

 70
     1
 71
     1
  0
GROUP
  5
17EC
102
{ACAD_REACTORS
330
D
102
}
330
D
100
AcDbGroup
300

 70
     1
 71
     1
  0
GROUP
  5
164D
102
{ACAD_REACTORS
330
D
102
}
330
D
100
AcDbGroup
300

 70
     1
 71
     1
  0
GROUP
  5
1C71
102
{ACAD_REACTORS
330
D
102
}
330
D
100
AcDbGroup
300

 70
     1
 71
     1
  0
GROUP
  5
1C72
102
{ACAD_REACTORS
330
D
102
}
330
D
100
AcDbGroup
300

 70
     1
 71
     1
  0
GROUP
  5
1C73
102
{ACAD_REACTORS
330
D
102
}
330
D
100
AcDbGroup
300

 70
     1
 71
     1
  0
GROUP
  5
1C74
102
{ACAD_REACTORS
330
D
102
}
330
D
100
AcDbGroup
300

 70
     1
 71
     1
  0
GROUP
  5
1C75
102
{ACAD_REACTORS
330
D
102
}
330
D
100
AcDbGroup
300

 70
     1
 71
     1
  0
GROUP
  5
1687
102
{ACAD_REACTORS
330
D
102
}
330
D
100
AcDbGroup
300

 70
     1
 71
     1
  0
GROUP
  5
169E
102
{ACAD_REACTORS
330
D
102
}
330
D
100
AcDbGroup
300

 70
     1
 71
     1
  0
GROUP
  5
17A4
102
{ACAD_REACTORS
330
D
102
}
330
D
100
AcDbGroup
300

 70
     1
 71
     1
340
17A0
340
17A5
340
17A6
340
17A7
  0
GROUP
  5
95A
102
{ACAD_REACTORS
330
D
102
}
330
D
100
AcDbGroup
300

 70
     1
 71
     1
  0
GROUP
  5
95B
102
{ACAD_REACTORS
330
D
102
}
330
D
100
AcDbGroup
300

 70
     1
 71
     1
  0
GROUP
  5
95C
102
{ACAD_REACTORS
330
D
102
}
330
D
100
AcDbGroup
300

 70
     1
 71
     1
  0
GROUP
  5
95D
102
{ACAD_REACTORS
330
D
102
}
330
D
100
AcDbGroup
300

 70
     1
 71
     1
  0
GROUP
  5
1B2
102
{ACAD_REACTORS
330
D
102
}
330
D
100
AcDbGroup
300

 70
     1
 71
     1
  0
GROUP
  5
17AC
102
{ACAD_REACTORS
330
D
102
}
330
D
100
AcDbGroup
300

 70
     1
 71
     1
340
17A8
340
17A9
340
17AA
340
17AB
  0
GROUP
  5
17AD
102
{ACAD_REACTORS
330
D
102
}
330
D
100
AcDbGroup
300

 70
     1
 71
     1
340
1722
  0
GROUP
  5
16B5
102
{ACAD_REACTORS
330
D
102
}
330
D
100
AcDbGroup
300

 70
     1
 71
     1
  0
GROUP
  5
1C3
102
{ACAD_REACTORS
330
D
102
}
330
D
100
AcDbGroup
300

 70
     1
 71
     1
  0
GROUP
  5
1D2
102
{ACAD_REACTORS
330
D
102
}
330
D
100
AcDbGroup
300

 70
     1
 71
     1
  0
GROUP
  5
46A
102
{ACAD_REACTORS
330
D
102
}
330
D
100
AcDbGroup
300

 70
     1
 71
     1
  0
GROUP
  5
172E
102
{ACAD_REACTORS
330
D
102
}
330
D
100
AcDbGroup
300

 70
     1
 71
     1
  0
IMAGEDEF
  5
1A9A
102
{ACAD_REACTORS
330
1A98
102
}
330
1A98
100
AcDbRasterImageDef
 90
        0
  1
T:\Prospekt\Leitschienen\Bitmaps\S1\D107 H1b Damm explosion_3D.bmp
 10
2048.0
 20
1366.0
 11
0.4882812609139367
 21
0.4882812609139367
280
     1
281
     2
  0
IMAGEDEF
  5
1A9D
102
{ACAD_REACTORS
330
1A98
102
}
330
1A98
100
AcDbRasterImageDef
 90
        0
  1
T:\Prospekt\Leitschienen\Bitmaps\S1\D107 H1b Damm_3D.bmp
 10
2048.0
 20
1536.0
 11
0.4882812609139367
 21
0.4882812609139367
280
     1
281
     2
  0
LAYOUT
  5
1B01
102
{ACAD_XDICTIONARY
360
2051
102
}
102
{ACAD_REACTORS
330
1A15
102
}
330
1A15
100
AcDbPlotSettings
  1

  2
\\VAKF11\Lexmark Optra R plus lex4
  4
A4
  6

 40
6.805083274841308
 41
5.535083293914794
 42
6.974411010742187
 43
7.14373779296875
 44
209.9733276367187
 45
296.9259948730469
 46
0.0
 47
0.0
 48
-22.09087092405559
 49
8.354328491971727
140
173.2391290759444
141
294.1043284919717
142
1.0
143
1.0
 70
   690
 72
     1
 73
     0
 74
     5
  7
monochrome.ctb
 75
    16
147
1.0
148
22.09087092405559
149
-8.354328491971727
100
AcDbLayout
  1
Layout 1
 70
     1
 71
     1
 10
-28.8959541988969
 20
2.819245198056933
 11
181.0773734378218
 21
299.7452400711038
 12
0.0
 22
0.0
 32
0.0
 14
1.000000000000000E+20
 24
1.000000000000000E+20
 34
1.000000000000000E+20
 15
-1.000000000000000E+20
 25
-1.000000000000000E+20
 35
-1.000000000000000E+20
146
0.0
 13
0.0
 23
0.0
 33
0.0
 16
1.0
 26
0.0
 36
0.0
 17
0.0
 27
1.0
 37
0.0
 76
     0
330
1AAB
331
1AAD
  0
LAYOUT
  5
1A17
102
{ACAD_XDICTIONARY
360
2057
102
}
102
{ACAD_REACTORS
330
1A15
102
}
330
1A15
100
AcDbPlotSettings
  1

  2
\\VAKF3\Lexmark Optra R Plus Series lex4 FS
  4

  6

 40
0.0
 41
0.0
 42
0.0
 43
0.0
 44
0.0
 45
0.0
 46
0.0
 47
0.0
 48
0.0
 49
0.0
140
0.0
141
0.0
142
1.0
143
1.0
 70
  1712
 72
     0
 73
     0
 74
     0
  7

 75
     0
147
1.0
148
0.0
149
0.0
100
AcDbLayout
  1
Model
 70
     1
 71
     0
 10
0.0
 20
0.0
 11
12.0
 21
9.0
 12
0.0
 22
0.0
 32
0.0
 14
0.0
 24
0.0
 34
0.0
 15
0.0
 25
0.0
 35
0.0
146
0.0
 13
0.0
 23
0.0
 33
0.0
 16
1.0
 26
0.0
 36
0.0
 17
0.0
 27
1.0
 37
0.0
 76
     0
330
18
  0
MLINESTYLE
  5
1C
102
{ACAD_REACTORS
330
1B
102
}
330
1B
100
AcDbMlineStyle
  2
STANDARD
 70
     0
  3

 62
   256
 51
90.0
 52
90.0
 71
     2
 49
0.5
 62
   256
  6
BYLAYER
 49
-0.5
 62
   256
  6
BYLAYER
  0
ACDBPLACEHOLDER
  5
1A14
102
{ACAD_REACTORS
330
1A13
102
}
330
1A13
  0
TABLESTYLE
  5
2046
102
{ACAD_REACTORS
330
2045
102
}
330
2045
100
AcDbTableStyle
  3
Standard
 70
     0
 71
     0
 40
0.06
 41
0.06
280
     0
281
     0
  7
STANDARD
140
0.18
170
     2
 62
     0
 63
     7
283
     0
274
    -2
284
     1
 64
     0
275
    -2
285
     1
 65
     0
276
    -2
286
     1
 66
     0
277
    -2
287
     1
 67
     0
278
    -2
288
     1
 68
     0
279
    -2
289
     1
 69
     0
  7
STANDARD
140
0.25
170
     5
 62
     0
 63
     7
283
     0
274
    -2
284
     1
 64
     0
275
    -2
285
     1
 65
     0
276
    -2
286
     1
 66
     0
277
    -2
287
     1
 67
     0
278
    -2
288
     1
 68
     0
279
    -2
289
     1
 69
     0
  7
STANDARD
140
0.18
170
     5
 62
     0
 63
     7
283
     0
274
    -2
284
     1
 64
     0
275
    -2
285
     1
 65
     0
276
    -2
286
     1
 66
     0
277
    -2
287
     1
 67
     0
278
    -2
288
     1
 68
     0
279
    -2
289
     1
 69
     0
  0
DICTIONARYVAR
  5
2054
102
{ACAD_REACTORS
330
1109
102
}
330
1109
100
DictionaryVariables
280
     0
  1
STANDARD
  0
DICTIONARYVAR
  5
2042
102
{ACAD_REACTORS
330
1109
102
}
330
1109
100
DictionaryVariables
280
     0
  1
1
  0
DICTIONARYVAR
  5
2043
102
{ACAD_REACTORS
330
1109
102
}
330
1109
100
DictionaryVariables
280
     0
  1

  0
DICTIONARYVAR
  5
110A
102
{ACAD_REACTORS
330
1109
102
}
330
1109
100
DictionaryVariables
280
     0
  1
96
  0
DICTIONARY
  5
2051
330
1B01
100
AcDbDictionary
280
     1
281
     1
  3
ACAD_XREC_ROUNDTRIP
360
205B
  3
ADSK_XREC_LAYOUTTHUMBNAIL
360
2052
  0
DICTIONARY
  5
2057
330
1A17
100
AcDbDictionary
280
     1
281
     1
  3
ACAD_XREC_ROUNDTRIP
360
2058
  0
XRECORD
  5
205B
102
{ACAD_REACTORS
330
2051
102
}
330
2051
100
AcDbXrecord
280
     1
102
SHADEPLOT
 70
     1
102
SHADEPLOTRESLEVEL
 70
     2
102
SHADEPLOTCUSTOMDPI
 70
   300
  0
XRECORD
  5
2052
102
{ACAD_REACTORS
330
2051
102
}
330
2051
100
AcDbXrecord
280
     1
310
28000000630000008C0000000100080000000000B036000000000000000000000001000000000000FFFFFF00000000007FDFFF000000000000000000000000000000000000000000000000000000000000000000330000006600000099000000CC000000FF00000000330000333300006633000099330000CC330000FF3300
310
0000660000336600006666000099660000CC660000FF66000000990000339900006699000099990000CC990000FF99000000CC000033CC000066CC000099CC0000CCCC0000FFCC000000FF000033FF000066FF000099FF0000CCFF0000FFFF000000003300330033006600330099003300CC003300FF003300003333003333
310
33006633330099333300CC333300FF33330000663300336633006666330099663300CC663300FF66330000993300339933006699330099993300CC993300FF99330000CC330033CC330066CC330099CC3300CCCC3300FFCC330000FF330033FF330066FF330099FF3300CCFF3300FFFF330000006600330066006600660099
310
006600CC006600FF00660000336600333366006633660099336600CC336600FF33660000666600336666006666660099666600CC666600FF66660000996600339966006699660099996600CC996600FF99660000CC660033CC660066CC660099CC6600CCCC6600FFCC660000FF660033FF660066FF660099FF6600CCFF6600
310
FFFF660000009900330099006600990099009900CC009900FF00990000339900333399006633990099339900CC339900FF33990000669900336699006666990099669900CC669900FF66990000999900339999006699990099999900CC999900FF99990000CC990033CC990066CC990099CC9900CCCC9900FFCC990000FF99
310
0033FF990066FF990099FF9900CCFF9900FFFF99000000CC003300CC006600CC009900CC00CC00CC00FF00CC000033CC003333CC006633CC009933CC00CC33CC00FF33CC000066CC003366CC006666CC009966CC00CC66CC00FF66CC000099CC003399CC006699CC009999CC00CC99CC00FF99CC0000CCCC0033CCCC0066CC
310
CC0099CCCC00CCCCCC00FFCCCC0000FFCC0033FFCC0066FFCC0099FFCC00CCFFCC00FFFFCC000000FF003300FF006600FF009900FF00CC00FF00FF00FF000033FF003333FF006633FF009933FF00CC33FF00FF33FF000066FF003366FF006666FF009966FF00CC66FF00FF66FF000099FF003399FF006699FF009999FF00CC
310
99FF00FF99FF0000CCFF0033CCFF0066CCFF0099CCFF00CCCCFF00FFCCFF0000FFFF0033FFFF0066FFFF0099FFFF00CCFFFF00FFFFFF00000000000D0D0D001A1A1A00282828003535350043434300505050005D5D5D006B6B6B00787878008686860093939300A1A1A100AEAEAE00BBBBBB00C9C9C900D6D6D600E4E4E400
310
F1F1F100FFFFFF0000000000000000000000000000000000000000000000000000000000000000000000000000000000E2E2E2E2E2E2E2E2E2E2E2E2E2E2E2E2E2E2E2E2E2E2E2E2E2E2E2E2E2E2E2E2E2E2E2E2E2E2E2E2E2E2E2E2E2E2E2E2E2E2E2E2E2E2E2E2E2E2E2E2E2E2E2E2E2E2E2E2E2E2E2E2E2E2E2E2E2E2E2
310
E2E2E2E2E2E2E2E2E2E2E2E2E2E2E2E2E2E2E2E2CDE2F5F5F5F5F5F5F5F5F5F5F5F5F5F5F5F5F5F5F5F5F5F5F5F5F5F5F5F5F5F5F5F5F5F5F5F5F5F5F5F5F5F5F5F5F5F5F5F5F5F5F5F5F5F5F5F5F5F5F5F5F5F5F5F5F5F5F5F5F5F5F5F5F5F5F5F5F5F5F5F5F5F5F5F5F5F5F5F5F5F5F5F5F5F5F5F5F5E200E2F5F5F5F5F5
310
F5F5F5F5F5F5F5F5F5F5F5F5F5F5F5F5F5F5F5F5F5F5F5F5F5F5F5F5F5F5F5F5F5F5F5F5F5F5F5F5F5F5F5F5F5F5F5F5F5F5F5F5F5F5F5F5F5F5F5F5F5F5F5F5F5F5F5F5F5F5F5F5F5F5F5F5F5F5F5F5F5F5F5F5F5F5F5F5F5F5F5F5E2CDE2F5F5E2E2E2E2E2E2E2E2F5F5F5F5F5F5F5F5E2E2E2E2E2E2E2E2E2E2E2E2E2E2
310
E2F5F5F5F5F5F5F5F5E2E2E2E2E2E2E2E2E2E2E2E2E2E2E2F5F5F5F5F5F5F5F5E2E2E2E2E2E2E2E2E2E2E2E2E2E2E2F5F5F5F5F5F5F5F5E2E2E2E2E2E2E2E2F5F5E200E2F5F5E2F5F5F5F5F5F5F5F5F5F5F5F5F5F5F5F5F5F5F5F5F5F5F5F5F5F5F5F5F5F5F5F5F5F5F5F5F5F5F5F5F5F5F5F5F5F5F5F5F5F5F5F5F5F5F5F5
310
F5F5F5F5F5F5F5F5F5F5F5F5F5F5F5F5F5F5F5F5F5F5F5F5F5F5F5F5F5F5F5F5F5F5F5E2F5F5E2CDE2F5F5E2F5F5F5F5F5F5F5F5F5F5F5F5F5F5F5F5F5F5F5F5F5F5F5F5F5F5F5F5F5F5F5F5F5F5F5F5F5F5F5F5F5F5F5F5F5F5F5F5F5F5F5F5F5F5F5F5F5F5F5F5F5F5F5F5F5F5F5F5F5F5F5F5F5F5F5F5F5F5F5F5F5F5F5
310
F5F5F5F5F5F5F5F5E2F5F5E200E2F5F5E2F5F5F5F5F5F5F5F5F5F5F5F5F5F5F5F5F5F5F5F5F5F5F5F5F5F5F5F5F5F5F5F5F5F5F5F5F5F5F5F5F5F5F5F5F5F5F5F5F5F5F5F5F5F5F5F5F5F5F5F5F5F5F5F5F5F5F5F5F5F5F5F5F5F5F5F5F5F5F5F5F5F5F5F5F5F5F5F5F5F5F5E2F5F5E2CDE2F5F5E2F5F5F5F5F5F5F5F5F5F5
310
F5F5F5F5F5F5F5F5F5F5F5F5F5F5F5F5F5F5F5F5F5F5F5F5F5F5F5F5F5F5F5F5F5F5F5F5F5F5F5F5F5F5F5F5F5F5F5F5F5F5F5F5F5F5F5F5F5F5F5F5F5F5F5F5F5F5F5F5F5F5F5F5F5F5F5F5F5F5F5F5F5E2F5F5E200E2F5F5E2F5F5F5F5F5F5F5F5F5F5F5F5F5F5F5F5F5F5F5F5F5F5F5F5F5F5F5F5F5F5F5F5F5F5F5F5F5
310
F5F5F5F5F5F5F5F5F5F5F5F5F5F5F5F5F5F5F5F5F5F5F5F5F5F5F5F5F5F5F5F5F5F5F5F5F5F5F5F5F5F5F5F5F5F5F5F5F5F5F5F5F5F5E2F5F5E2CDE2F5F5E2F5F5F5F5F5F5F5F5F5F5F5F5F5F5F5F5F5F5F5F5F5F5F5F5F5F5F5F5F5F5F5F5F5F5F5F5F5F5F5F5F5F5F5F5F5F5F5F5F5F5F5F5F5F5F5F5F5F5F5F5F5F5F5F5
310
F5F5F5F5F5F5F5F5F5F5F5F5F5F5F5F5F5F5F5F5F5F5F5F5F5F5F5E2F5F5E200E2F5F5E2F5F5F5F5F5F5F5F5F5F5F5F5F5F5F5F5F5F5F5F5F5F5F5F5F5F5F5F5F5F5F5F5F5F5F5F5F5F5F5F5F5F5F5F5F5F5F5F5F5F5F5F5F5F5F5F5F5F5F5F5F5F5F5F5F5F5F5F5F5F5F5F5F5F5F5F5F5F5F5F5F5F5F5F5F5F5F5F5F5F5F5
310
E2F5F5E2CDE2F5F5E2F5F5F5F5F5F5F5F5F5F5F5F5F5F5F5F5F5F5F5F5F5F5F5F5F5F5F5F5F5F5F5F5F5F5F5F5F5F5F5F5F5F5F5F5F5F5F5F5F5F5F5F5F5F5F5F5F5F5F5F5F5F5F5F5F5F5F5F5F5F5F5F5F5F5F5F5F5F5F5F5F5F5F5F5F5F5F5F5F5F5F5E2F5F5E200E2F5F5F5F5F5F5F5F5F5F5F5F5F5F5F5F5F5F5F5F5F5
310
F5F5F5F5F5F5F5F5F5F5F5F5F5F5F5F5F5F5F5F5F5F5F5F5F5F5F5F5F5F5F5F5F5F5F5F5F5F5F5F5F5F5F5F5F5F5F5F5F5F5F5F5F5F5F5F5F5F5F5F5F5F5F5F5F5F5F5F5F5F5F5F5F5F5F5F5E2CDE2F5F5F5F5F5F5F5F5F5F5F5F5F5F5F5F5F5F5F5F5F5F5F5F5F5F5F5F5F5F5F5F5F5F5F5F5F5F5F5F5F5F5F5F5F5F5F5F5
310
F5F5F5F5F5F5F5F5F5F5F5F5F5F5F5F5F5F5F5F5F5F5F5F5F5F5F5F5F5F5F5F5F5F5F5F5F5F5F5F5F5F5F5F5F5F5F5F5F5E200E2F5F5F5F5F5F5F5F5F5F5F5F5F5F5F5F5F5F5F5F5F5F5F5F5F5F5F5F5F5F5F5F5F5F5F5F5F5F5F5F5F5F5F5F5F5F5F5F5F5F5F5F5F5F5F5F5F5F5F5F5F5F5F5F5F5F5F5F5F5F5F5F5F5F5F5
310
F5F5F5F5F5F5F5F5F5F5F5F5F5F5F5F5F5F5F5F5F5F5E2CDE2F5F5F5F5F5F5F5F5F5F5F5F5F5F5F5F5F5F5F5F5F5F5F5F5F5F5F5F5F5F5F5F5F5F5F5F5F5F5F5F5F5F5F5F5F5F5F5F5F5F5F5F5F5F5F5F5F5F5F5F5F5F5F5F5F5F5F5F5F5F5F5F5F5F5F5F5F5F5F5F5F5F5F5F5F5F5F5F5F5F5F5F5F5F5F5F5F5E200E2F5F5
310
F5F5F5F5F5F5F5F5F5F5F5F5F5F5F5F5F5F5F5F5F5F5F5F5F5F5F5F5F5F5F5F5F5F5F5F5F5F5F5F5F5F5F5F5F5F5F5F5F5F5F5F5F5F5F5F5F5F5F5F5F5F5F5F5F5F5F5F5F5F5F5F5F5F5F5F5F5F5F5F5F5F5F5F5F5F5F5F5F5F5F5F5F5F5F5E2CDE2F5F5F5F5F5F5F5F5F5F5F5F5F5F5F5F5F5F5F5F5F5F5F5F5F5F5F5F5F5
310
F5F5F5F5F5F5F5F5F5F5F5F5F5F5F5F5F5F5F5F5F5F5F5F5F5F5F5F5F5F5F5F5F5F5F5F5F5F5F5F5F5F5F5F5F5F5F5F5F5F5F5F5F5F5F5F5F5F5F5F5F5F5F5F5F5F5F5F5E200E2F5F5F5F5F5F5F5F5F5F5F5F5F5F5F5F5F5F5F5F5F5F5F5F5F5F5F5F5F5F5F5F5F5F5F5F5F5F5F5F5F5F5F5F5F5F5F5F5F5F5F5F5F5F5F5F5
310
F5F5F5F5F5F5F5F5F5F5F5F5F5F5F5F5F5F5F5F5F5F5F5F5F5F5F5F5F5F5F5F5F5F5F5F5F5F5F5F5F5E2CDE2F5F5F5F5F5F5F5F5F5F5F5F5F5F5F5F5F5F5F5F5F5F5F5F5F5F5F5F5F5F5F5F5F5F5F5F5F5F5F5F5F5F5F5F5F5F5F5F5F5F5F5F5F5F5F5F5F5F5F5F5F5F5F5F5F5F5F5F5F5F5F5F5F5F5F5F5F5F5F5F5F5F5F5
310
F5F5F5F5F5F5F5F5F5F5F5F5F5F5E200E2F5F5F5F5F5F5F5F5F5F5F5F5F5F5F5F5F5F5F5F5F5F5F5F5F5F5F5F5F5F5F5F5F5F5F5F5F5F5F5F5F5F5F5F5F5F5F5F5F5F5F5F5F5F5F5F5F5F5F5F5F5F5F5F5F5F5F5F5F5F5F5F5F5F5F5F5F5F5F5F5F5F5F5F5F5F5F5F5F5F5F5F5F5F5F5F5F5E2CDE2F5F5E2F5F5F5F5F5F5F5
310
F5F5F5F5F5F5F5F5F5F5F5F5F5F5F5F5F5F5F5F5F5F5F5F5F5F5F5F5F5F5F5F5F5F5F5F5F5F5F5F5F5F5F5F5F5F5F5F5F5F5F5F5F5F5F5F5F5F5F5F5F5F5F5F5F5F5F5F5F5F5F5F5F5F5F5F5F5F5F5F5F5F5F5F5E2F5F5E200E2F5F5E2F5F5F5F5F5F5F5F5F5F5F5F5F5F5F5F5F5F5F5F5F5F5F5F5F5F5F5F5F5F5F5F5F5F5
310
F5F5F5F5F5F5F5F5F5F5F5F5F5F5F5F5F5F5F5F5F5F5F5F5F5F5F5F5F5F5F5F5F5F5F5F5F5F5F5F5F5F5F5F5F5F5F5F5F5F5F5F5F5F5F5F5F5E2F5F5E2CDE2F5F5E2F5F5F5F5F5F5F5F5F5F5F5F5F5F5F5F5F5F5F5F5F5F5F5F5F5F5F5F5F5F5F5F5F5F5F5F5F5F5F5F5F5F5F5F5F5F5F5F5F5F5F5F5F5F5F5F5F5F5F5F5F5
310
F5F5F5F5F5F5F5F5F5F5F5F5F5F5F5F5F5F5F5F5F5F5F5F5F5F5F5F5F5F5E2F5F5E200E2F5F5E2F5F5F5F5F5F5F5F5F5F5F5F5F5F5F5F5F5F5F5F5F5F5F5F5F5F5F5F5F5F5F5F5F5F5F5F5F5F5F5F5F5F5F5F5F5F5F5F5F5F5F5F5F5F5F5F5F5F5F5F5F5F5F5F5F5F5F5F5F5F5F5F5F5F5F5F5F5F5F5F5F5F5F5F5F5F5F5F5
310
F5F5F5E2F5F5E2CDE2F5F5E2F5F5F5F5F5F5F5F5F5F5F5F5F5F5F5F5F5F5F5F5F5F5F5F5F5F5F5F5F5F5F5F5F5F5F5F5F5F5F5F5F5F5F5F5F5F5F5F5F5F5F5F5F5F5F5F5F5F5F5F5F5F5F5F5F5F5F5F5F5F5F5F5F5F5F5F5F5F5F5F5F5F5F5F5F5F5F5F5F5F5F5E2F5F5E200E2F5F5E2F5F5F5F5F5F5F5F5F5F5F5F5F5F5F5
310
F5F5F5F5F5F5F5F5F5F5F5F5F5F5F5F5F5F5F5F5F5F5F5F5F5F5F5F5F5F5F5F5F5F5F5F5F5F5F5F5F5F5F5F5F5F5F5F5F5F5F5F5F5F5F5F5F5F5F5F5F5F5F5F5F5F5F5F5F5F5F5F5F5F5F5F5E2F5F5E2CDE2F5F5E2F5F5F5F5F5F5F5F5F5F5F5F5F5F5F5F5F5F5F5F5F5F5F5F5F5F5F5F5F5F5F5F5F5F5F5F5F5F5F5F5F5F5
310
F5F5F5F5F5F5F5F5F5F5F5F5F5F5F5F5F5F5F5F5F5F5F5F5F5F5F5F5F5F5F5F5F5F5F5F5F5F5F5F5F5F5F5F5F5F5F5F5F5E2F5F5E200E2F5F5E2F5F5F5F5F5F5F5F5F5F5F5F5F5F5F5F5F5F5F5F5F5F5F5F5F5F5F5F5F5F5F5F5F5F5F5F5F5F5F5F5F5F5F5F5F5F5F5F5F5F5F5F5F5F5F5F5F5F5F5F5F5F5F5F5F5F5F5F5F5
310
F5F5F5F5F5F5F5F5F5F5F5F5F5F5F5F5F5F5F5F5F5F5E2F5F5E2CDE2F5F5E2F5F5F5F5F5F5F5F5F5F5F5F5F5F5F5F5F5F5F5F5F5F5F5F5F5F5F5F5F5F5F5F5F5F5F5F5F5F5F5F5F5F5F5F5F5F5F5F5F5F5F5F5F5F5F5F5F5F5F5F5F5F5F5F5F5F5F5F5F5F5F5F5F5F5F5F5F5F5F5F5F5F5F5F5F5F5F5F5F5F5F5E2F5F5E200
310
E2F5F5E2F5F5F5F5F5F5F5F5F5F5F5F5F5F5F5F5F5F5F5F5F5F5F5F5F5F5F5F5F5F5F5F5F5F5F5F5F5F5F5F5F5F5F5F5F5F5F5F5F5F5F5F5F5F5F5F5F5F5F5F5F5F5F5F5F5F5F5F5F5F5F5F5F5F5F5F5F5F5F5F5F5F5F5F5F5F5F5F5F5F5F5E2F5F5E207E2F5F5E2F5F5F5F5F5F5F5F5F5F5F5F5F5F5F5F5F5F5F5F5F5F5F5
310
F5F5F5F5F5F5F5F5F5F5F5F5F5F5F5F5F5F5F5F5F5F5F5F5F5F5F5F5F5F5F5F5F5F5F5F5F5F5F5F5F5F5F5F5F5F5F5F5F5F5F5F5F5F5F5F5F5F5F5F5F5F5F5F5F5F5F5F5E2F5F5E200E2F5F5E2F5F5F5F5F5F5F5F5F5F5F5F5F5F5F5F5F5F5F5F5F5F5F5F5F5F5F5F5F5F5F5F5F5F5F5F5F5F5F5F5F5F5F5F5F5F5F5F5F5F5
310
F5F5F5F5F5F5F5F5F5F5F5F5F5F5F5F5F5F5F5F5F5F5F5F5F5F5F5F5F5F5F5F5F5F5F5F5F5F5F5F5F5E2F5F5E207E2F5F5E2F5F5F5F5F5F5F5F5F5F5F5F5F5F5F5F5F5F5F5F5F5F5F5F5F5F5F5F5F5F5F5F5F5F5F5F5F5F5F5F5F5F5F5F5F5F5F5F5F5F5F5F5F5F5F5F5F5F5F5F5F5F5F5F5F5F5F5F5F5F5F5F5F5F5F5F5F5
310
F5F5F5F5F5F5F5F5F5F5F5F5F5F5E2F5F5E200E2F5F5E2F5F5F5F5F5F5F5F5F5F5F5F5F5F5F5F5F5F5F5F5F5F5F5F5F5F5F5F5F5F5F5F5F5F5F5F5F5F5F5F5F5F5F5F5F5F5F5F5F5F5F5F5F5F5F5F5F5F5F5F5F5F5F5F5F5F5F5F5F5F5F5F5F5F5F5F5F5F5F5F5F5F5F5F5F5F5F5F5F5F5F5E2F5F5E207E2F5F5E2F5F5F5F5
310
F5F5F5F5F5F5F5F5F5F5F5F5F5F5F5F5F5F5F5F5F5F5F5F5F5F5F5F5F5F5F5F5F5F5F5F5F5F5F5F5F5F5F5F5F5F5F5F5F5F5F5F5F5F5F5F5F5F5F5F5F5F5F5F5F5F5F5F5F5F5F5F5F5F5F5F5F5F5F5F5F5F5F5F5F5F5F5E2F5F5E200E2F5F5E2F5F5F5F5F5F5F5F5F5F5F5F5F5F5F5F5F5F5F5F5F5F5F5F5F5F5F5F5F5F5F5
310
F5F5F5F5F5F5F5F5F5F5F5F5F5F5F5F5F5F5F5F5F5F5F5F5F5F5F5F5F5F5F5F5F5F5F5F5F5F5F5F5F5F5F5F5F5F5F5F5F5F5F5F5F5F5F5F5F5F5F5F5E2F5F5E207E2F5F5E2F5F5F5F5F5F5F5F5F5F5F5F5F5F5F5F5F5F5F5F5F5F5F5F5F5F5F5F5F5F5F5F5F5F5F5F5F5F5F5F5F5F5F5F5F5F5F5F5F5F5F5F5F5F5F5F5F5F5
310
F5F5F5F5F5F5F5F5F5F5F5F5F5F5F5F5F5F5F5F5F5F5F5F5F5F5F5F5F5F5F5F5F5E2F5F5E200E2F5F5F5F5F5F5F5F5F5F5F5F5F5F5F5F5F5F5F5F5F5F5F5F5F5F5F5F5F5F5F5F5F5F5F5F5F5F5F5F5F5F5F5F5F5F5F5F5F5F5F5F5F5F5F5F5F5F5F5F5F5F5F5F5F5F5F5F5F5F5F5F5F5F5F5F5F5F5F5F5F5F5F5F5F5F5F5F5
310
F5F5F5F5F5F5F5F5F5E207E2F5F5F5F5F5F5F5F5F5F5F5F5F5F5F5F5F5F5F5F5F5F5F5F5F5F5F5F5F5F5F5F5F5F5F5F5F5F5F5F5F5F5F5F5F5F5F5F5F5F5F5F5F5F5F5F5F5F5F5F5F5F5F5F5F5F5F5F5F5F5F5F5F5F5F5F5F5F5F5F5F5F5F5F5F5F5F5F5F5F5F5F5F5F5F5F5F5E200E2F5F5F5F5F5F5F5F5F5F5F5F5F5F5F5
310
F5F5F5F5F5F5F5F5F5F5F5F5F5F5F5F5F5F5F5F5F5F5F5F5F5F5F5F5F5F5F5F5F5F5F5F5F5F5F5F5F5F5F5F5F5F5F5F5F5F5F5F5F5F5F5F5F5F5F5F5F5F5F5F5F5F5F5F5F5F5F5F5F5F5F5F5F5F5F5F5F5F5E200E2F5F5F5F5F5F5F5F5F5F5F5F5F5F5F5F5F5F5F5F5F5F5F5F5F5F5F5F5F5F5F5F5F5F5F5F5F5F5F5F5F5F5
310
F5F5F5F5F5F5F5F5F5F5F5F5F5F5F5F5F5F5F5F5F5F5F5F5F5F5F5F5F5F5F5F5F5F5F5F5F5F5F5F5F5F5F5F5F5F5F5F5F5F5F5F5F5F5F5E200E2F5F5F5F5F5F5F5F5F5F5F5F5F5F5F5F5F5F5F5F5F5F5F5F5F5F5F5F5F5F5F5F5F5F5F5F5F5F5F5F5F5F5F5F5F5F5F5F5F5F5F5F5F5F5F5F5F5F5F5F5F5F5F5F5F5F5F5F5F5
310
F5F5F5F5F5F5F5F5F5F5F5F5F5F5F5F5F5F5F5F5F5F5F5F5F5F5F5F5E200E2F5F5F5F5F5F5F5F5F5F5F5F5F5F5F5F5F5F5F5F5F5F5F5F5F5F5F5F5F5F5F5F5F5F5F5F5F5F5F5F5F5F5F5F5F5F5F5F5F5F5F5F5F5F5F5F5F5F5F5F5F5F5F5F5F5F5F5F5F5F5F5F5F5F5F5F5F5F5F5F5F5F5F5F5F5F5F5F5F5F5F5F5F5F5F5F5
310
F5E200E2F5F5F5F5F5F5F5F5F5F5F5F5F5F5F5F5F5F5F5F5F5F5F5F5F5F5F5F5F5F5F5F5F5F5F5F5F5F5F5F5F5F5F5F5F5F5F5F5F5F5F5F5F5F5F5F5F5F5F5F5F5F5F5F5F5F5F5F5F5F5F5F5F5F5F5F5F5F5F5F5F5F5F5F5F5F5F5F5F5F5F5F5F5F5F5F5F5E200E2F5F5F5F5F5F5F5F5F5F5F5F5F5F5F5F5F5F5F5F5F5F5F5
310
F5F5F5F5F5F5F5F5F5F5F5F5F5F5F5F5F5F5F5F5F5F5F5F5F5F5F5F5F5F5F5F5F5F5F5F5F5F5F5F5F5F5F5F5F5F5F5F5F5F5F5F5F5F5F5F5F5F5F5F5F5F5F5F5F5F5F5F5F5F5F5F5F5F5E200E2F5F5F5F5F5F5F5F5F5F5F5F5F5F5F5F5F5F5F5F5F5F5F5F5F5F5F5F5F5F5F5F5F5F5F5F5F5F5F5F5F5F5F5F5F5F5F5F5F5F5
310
F5F5F5F5F5F5F5F5F5F5F5F5F5F5F5F5F5F5F5F5F5F5F5F5F5F5F5F5F5F5F5F5F5F5F5F5F5F5F5F5F5F5F5F5F5F5F5E200E2F5F5F5F5F5F5F5F5F5F5F5F5F5F5F5F5F5F5F5F5F5F5F5F5F5F5F5F5F5F5F5F5F5F5F5F5F5F5F5F5F5F5F5F5F5F5F5F5F5F5F5F5F5F5F5F5F5F5F5F5F5F5F5F5F5F5F5F5F5F5F5F5F5F5F5F5F5
310
F5F5F5F5F5F5F5F5F5F5F5F5F5F5F5F5F5F5F5F5E200E2F5F5E2F5F5F5F5F5F5F5F5F5F5F5F5F5F5F5F5F5F5F5F5F5F5F5F5F5F5F5F5F5F5F5F5F5F5F5F5F5F5F5F5F5F5F5F5F5F5F5F5F5F5F5F5F5F5F5F5F5F5F5F5F5F5F5F5F5F5F5F5F5F5F5F5F5F5F5F5F5F5F5F5F5F5F5F5F5F5F5F5F5F5F5E2F5F5E200E2F5F5E2F5
310
F5F5F5F5F5F5F5F5F5F5F5F5F5F5F5F5F5F5F5F5F5F5F5F5F5F5F5F5F5F5F5F5F5F5F5F5F5F5F5F5F5F5F5F5F5F5F5F5F5F5F5F5F5F5F5F5F5F5F5F5F5F5F5F5F5F5F5F5F5F5F5F5F5F5F5F5F5F5F5F5F5F5F5F5F5F5F5F5F5F5E2F5F5E200E2F5F5E2F5F5F5F5F5F5F5F5F5F5F5F5F5F5F5F5F5F5F5F5F5F5F5F5F5F5F5F5
310
F5F5F5F5F5F5F5F5F5F5F5F5F5F5F5F5F5F5F5F5F5F5F5F5F5F5F5F5F5F5F5F5F5F5F5F5F5F5F5F5F5F5F5F5F5F5F5F5F5F5F5F5F5F5F5F5F5F5F5F5F5F5F5E2F5F5E200E2F5F5E2F5F5F5F5F5F5F5F5F5F5F5F5F5F5F5F5F5F5F5F5F5F5F5F5F5F5F5F5F5F5F5F5F5F5F5F5F5F5F5F5F5F5F5F5F5F5F5F5F5F5F5F5F5F5F5
310
F5F5F5F5F5F5F5F5F5F5F5F5F5F5F5F5F5F5F5F5F5F5F5F5F5F5F5F5F5F5F5F5F5F5F5F5E2F5F5E200E2F5F5E2F5F5F5F5F5F5F5F5F5F5F5F5F5F5F5F5F5F5F5F5F5F5F5F5F5F5F5F5F5F5F5F5F5F5F5F5F5F5F5F5F5F5F5F5F5F5F5F5F5F5F5F5F5F5F5F5F5F5F5F5F5F5F5F5F5F5F5F5F5F5F5F5F5F5F5F5F5F5F5F5F5F5
310
F5F5F5F5F5F5F5F5F5E2F5F5E200E2F5F5E2F5F5F5F5F5F5F5F5F5F5F5F5F5F5F5F5F5F5F5F5F5F5F5F5F5F5F5F5F5F5F5F5F5F5F5F5F5F5F5F5F5F5F5F5F5F5F5F5F5F5F5F5F5F5F5F5F5F5F5F5F5F5F5F5F5F5F5F5F5F5F5F5F5F5F5F5F5F5F5F5F5F5F5F5F5F5F5F5F5F5F5E2F5F5E200E2F5F5E2F5F5F5F5F5F5F5F5F5
310
F5F5F5F5F5F5F5F5F5F5F5F5F5F5F5F5F5F5F5F5F5F5F5F5F5F5F5F5F5F5F5F5F5F5F5F5F5F5F5F5F5F5F5F5F5F5F5F5F5F5F5F5F5F5F5F5F5F5F5F5F5F5F5F5F5F5F5F5F5F5F5F5F5F5F5F5F5F5F5F5F5F5E2F5F5E200E2F5F5E2F5F5F5F5F5F5F5F5F5F5F5F5F5F5F5F5F5F5F5F5F5F5F5F5F5F5F5F5F5F5F5F5F5F5F5F5
310
F5F5F5F5F5F5F5F5F5F5F5F5F5F5F5F5F5F5F5F5F5F5F5F5F5F5F5F5F5F5F5F5F5F5F5F5F5F5F5F5F5F5F5F5F5F5F5F5F5F5F5F5F5F5F5E2F5F5E200E2F5F5E2F5F5F5F5F5F5F5F5F5F5F5F5F5F5F5F5F5F5F5F5F5F5F5F5F5F5F5F5F5F5F5F5F5F5F5F5F5F5F5F5F5F5F5F5F5F5F5F5F5F5F5F5F5F5F5F5F5F5F5F5F5F5F5
310
F5F5F5F5F5F5F5F5F5F5F5F5F5F5F5F5F5F5F5F5F5F5F5F5F5F5F5F5E2F5F5E200E2F5F5E2F5F5F5F5F5F5F5F5F5F5F5F5F5F5F5F5F5F5F5F5F5F5F5F5F5F5F5F5F5F5F5F5F5F5F5F5F5F5F5F5F5F5F5F5F5F5F5F5F5F5F5F5F5F5F5F5F5F5F5F5F5F5F5F5F5F5F5F5F5F5F5F5F5F5F5F5F5F5F5F5F5F5F5F5F5F5F5F5F5F5
310
F5E2F5F5E200E2F5F5E2F5F5F5F5F5F5F5F5F5F5F5F5F5F5F5F5F5F5F5F5F5F5F5F5F5F5F5F5F5F5F5F5F5F5F5F5F5F5F5F5F5F5F5F5F5F5F5F5F5F5F5F5F5F5F5F5F5F5F5F5F5F5F5F5F5F5F5F5F5F5F5F5F5F5F5F5F5F5F5F5F5F5F5F5F5F5F5F5F5F5F5E2F5F5E200E2F5F5E2F5F5F5F5F5F5F5F5F5F5F5F5F5F5F5F5F5
310
F5F5F5F5F5F5F5F5F5F5F5F5F5F5F5F5F5F5F5F5F5F5F5F5F5F5F5F5F5F5F5F5F5F5F5F5F5F5F5F5F5F5F5F5F5F5F5F5F5F5F5F5F5F5F5F5F5F5F5F5F5F5F5F5F5F5F5F5F5F5F5F5F5F5E2F5F5E200E2F5F5E2F5F5F5F5F5F5F5F5F5F5F5F5F5F5F5F5F5F5F5F5F5F5F5F5F5F5F5F5F5F5F5F5F5F5F5F5F5F5F5F5F5F5F5F5
310
F5F5F5F5F5F5F5F5F5F5F5F5F5F5F5F5F5F5F5F5F5F5F5F5F5F5F5F5F5F5F5F5F5F5F5F5F5F5F5F5F5F5F5F5F5F5F5E2F5F5E200E2F5F5E2F5F5F5F5F5F5F5F5F5F5F5F5F5F5F5F5F5F5F5F5F5F5F5F5F5F5F5F5F5F5F5F5F5F5F5F5F5F5F5F5F5F5F5F5F5F5F5F5F5F5F5F5F5F5F5F5F5F5F5F5F5F5F5F5F5F5F5F5F5F5F5
310
F5F5F5F5F5F5F5F5F5F5F5F5F5F5F5F5F5F5F5F5E2F5F5E200E2F5F5E2F5F5F5F5F5F5F5F5F5F5F5F5F5F5F5F5F5F5F5F5F5F5F5F5F5F5F5F5F5F5F5F5F5F5F5F5F5F5F5F5F5F5F5F5F5F5F5F5F5F5F5F5F5F5F5F5F5F5F5F5F5F5F5F5F5F5F5F5F5F5F5F5F5F5F5F5F5F5F5F5F5F5F5F5F5F5F5F5F5F5F5E2F5F5E200E2F5
310
F5E2F5F5F5F5F5F5F5F5F5F5F5F5F5F5F5F5F5F5F5F5F5F5F5F5F5F5F5F5F5F5F5F5F5F5F5F5F5F5F5F5F5F5F5F5F5F5F5F5F5F5F5F5F5F5F5F5F5F5F5F5F5F5F5F5F5F5F5F5F5F5F5F5F5F5F5F5F5F5F5F5F5F5F5F5F5F5F5F5F5F5F5E2F5F5E200E2F5F5E2F5F5F5F5F5F5F5F5F5F5F5F5F5F5F5F5F5F5F5F5F5F5F5F5F5
310
F5F5F5F5F5F5F5F5F5F5F5F5F5F5F5F5F5F5F5F5F5F5F5F5F5F5F5F5F5F5F5F5F5F5F5F5F5F5F5F5F5F5F5F5F5F5F5F5F5F5F5F5F5F5F5F5F5F5F5F5F5F5F5F5F5F5E2F5F5E200E2F5F5F5F5F5F5F5F5F5F5F5F5F5F5F5F5F5F5F5F5F5F5F5F5F5F5F5F5F5F5F5F5F5F5F5F5F5F5F5F5F5F5F5F5F5F5F5F5F5F5F5F5F5F5F5
310
F5F5F5F5F5F5F5F5F5F5F5F5F5F5F5F5F5F5F5F5F5F5F5F5F5F5F5F5F5F5F5F5F5F5F5F5F5F5F5F5F5F5E200E2F5F5F5F5F5F5F5F5F5F5F5F5F5F5F5F5F5F5F5F5F5F5F5F5F5F5F5F5F5F5F5F5F5F5F5F5F5F5F5F5F5F5F5F5F5F5F5F5F5F5F5F5F5F5F5F5F5F5F5F5F5F5F5F5F5F5F5F5F5F5F5F5F5F5F5F5F5F5F5F5F5F5
310
F5F5F5F5F5F5F5F5F5F5F5F5F5F5F5E200E2F5F5F5F5F5F5F5F5F5F5F5F5F5F5F5F5F5F5F5F5F5F5F5F5F5F5F5F5F5F5F5F5F5F5F5F5F5F5F5F5F5F5F5F5F5F5F5F5F5F5F5F5F5F5F5F5F5F5F5F5F5F5F5F5F5F5F5F5F5F5F5F5F5F5F5F5F5F5F5F5F5F5F5F5F5F5F5F5F5F5F5F5F5F5F5F5F5E200E2F5F5F5F5F5F5F5F5F5
310
F5F5F5F5F5F5F5F5F5F5F5F5F5F5F5F5F5F5F5F5F5F5F5F5F5F5F5F5F5F5F5F5F5F5F5F5F5F5F5F5F5F5F5F5F5F5F5F5F5F5F5F5F5F5F5F5F5F5F5F5F5F5F5F5F5F5F5F5F5F5F5F5F5F5F5F5F5F5F5F5F5F5F5F5F5F5F5F5E200E2F5F5F5F5F5F5F5F5F5F5F5F5F5F5F5F5F5F5F5F5F5F5F5F5F5F5F5F5F5F5F5F5F5F5F5F5
310
F5F5F5F5F5F5F5F5F5F5F5F5F5F5F5F5F5F5F5F5F5F5F5F5F5F5F5F5F5F5F5F5F5F5F5F5F5F5F5F5F5F5F5F5F5F5F5F5F5F5F5F5F5F5F5F5F5F5F5F5F5E200E2F5F5F5F5F5F5F5F5F5F5F5F5F5F5F5F5F5F5F5F5F5F5F5F5F5F5F5F5F5F5F5F5F5F5F5F5F5F5F5F5F5F5F5F5F5F5F5F5F5F5F5F5F5F5F5F5F5F5F5F5F5F5F5
310
F5F5F5F5F5F5F5F5F5F5F5F5F5F5F5F5F5F5F5F5F5F5F5F5F5F5F5F5F5F5F5F5F5F5E200E2F5F5F5F5F5F5F5F5F5F5F5F5F5F5F5F5F5F5F5F5F5F5F5F5F5F5F5F5F5F5F5F5F5F5F5F5F5F5F5F5F5F5F5F5F5F5F5F5F5F5F5F5F5F5F5F5F5F5F5F5F5F5F5F5F5F5F5F5F5F5F5F5F5F5F5F5F5F5F5F5F5F5F5F5F5F5F5F5F5F5
310
F5F5F5F5F5F5F5E200E2F5F5F5F5F5F5F5F5F5F5F5F5F5F5F5F5F5F5F5F5F5F5F5F5F5F5F5F5F5F5F5F5F5F5F5F5F5F5F5F5F5F5F5F5F5F5F5F5F5F5F5F5F5F5F5F5F5F5F5F5F5F5F5F5F5F5F5F5F5F5F5F5F5F5F5F5F5F5F5F5F5F5F5F5F5F5F5F5F5F5F5F5F5F5F5F5F5E200E2F5F5F5F5F5F5F5F5F5F5F5F5F5F5F5F5F5
310
F5F5F5F5F5F5F5F5F5F5F5F5F5F5F5F5F5F5F5F5F5F5F5F5F5F5F5F5F5F5F5F5F5F5F5F5F5F5F5F5F5F5F5F5F5F5F5F5F5F5F5F5F5F5F5F5F5F5F5F5F5F5F5F5F5F5F5F5F5F5F5F5F5F5F5F5F5F5F5F5E200E2F5F5E2F5F5F5F5F5F5F5F5F5F5F5F5F5F5F5F5F5F5F5F5F5F5F5F5F5F5F5F5F5F5F5F5F5F5F5F5F5F5F5F5F5
310
F5F5F5F5F5F5F5F5F5F5F5F5F5F5F5F5F5F5F5F5F5F5F5F5F5F5F5F5F5F5F5F5F5F5F5F5F5F5F5F5F5F5F5F5F5F5F5F5F5F5E2F5F5E200E2F5F5E2F5F5F5F5F5F5F5F5F5F5F5F5F5F5F5F5F5F5F5F5F5F5F5F5F5F5F5F5F5F5F5F5F5F5F5F5F5F5F5F5F5F5F5F5F5F5F5F5F5F5F5F5F5F5F5F5F5F5F5F5F5F5F5F5F5F5F5F5
310
F5F5F5F5F5F5F5F5F5F5F5F5F5F5F5F5F5F5F5F5F5F5F5E2F5F5E200E2F5F5E2F5F5F5F5F5F5F5F5F5F5F5F5F5F5F5F5F5F5F5F5F5F5F5F5F5F5F5F5F5F5F5F5F5F5F5F5F5F5F5F5F5F5F5F5F5F5F5F5F5F5F5F5F5F5F5F5F5F5F5F5F5F5F5F5F5F5F5F5F5F5F5F5F5F5F5F5F5F5F5F5F5F5F5F5F5F5F5F5F5F5F5E2F5F5E2
310
00E2F5F5E2F5F5F5F5F5F5F5F5F5F5F5F5F5F5F5F5F5F5F5F5F5F5F5F5F5F5F5F5F5F5F5F5F5F5F5F5F5F5F5F5F5F5F5F5F5F5F5F5F5F5F5F5F5F5F5F5F5F5F5F5F5F5F5F5F5F5F5F5F5F5F5F5F5F5F5F5F5F5F5F5F5F5F5F5F5F5F5F5F5F5F5E2F5F5E200E2F5F5E2F5F5F5F5F5F5F5F5F5F5F5F5F5F5F5F5F5F5F5F5F5F5
310
F5F5F5F5F5F5F5F5F5F5F5F5F5F5F5F5F5F5F5F5F5F5F5F5F5F5F5F5F5F5F5F5F5F5F5F5F5F5F5F5F5F5F5F5F5F5F5F5F5F5F5F5F5F5F5F5F5F5F5F5F5F5F5F5F5F5F5F5F5E2F5F5E200E2F5F5E2F5F5F5F5F5F5F5F5F5F5F5F5F5F5F5F5F5F5F5F5F5F5F5F5F5F5F5F5F5F5F5F5F5F5F5F5F5F5F5F5F5F5F5F5F5F5F5F5F5
310
F5F5F5F5F5F5F5F5F5F5F5F5F5F5F5F5F5F5F5F5F5F5F5F5F5F5F5F5F5F5F5F5F5F5F5F5F5F5F5F5F5F5E2F5F5E200E2F5F5E2F5F5F5F5F5F5F5F5F5F5F5F5F5F5F5F5F5F5F5F5F5F5F5F5F5F5F5F5F5F5F5F5F5F5F5F5F5F5F5F5F5F5F5F5F5F5F5F5F5F5F5F5F5F5F5F5F5F5F5F5F5F5F5F5F5F5F5F5F5F5F5F5F5F5F5F5
310
F5F5F5F5F5F5F5F5F5F5F5F5F5F5F5E2F5F5E200E2F5F5E2F5F5F5F5F5F5F5F5F5F5F5F5F5F5F5F5F5F5F5F5F5F5F5F5F5F5F5F5F5F5F5F5F5F5F5F5F5F5F5F5F5F5F5F5F5F5F5F5F5F5F5F5F5F5F5F5F5F5F5F5F5F5F5F5F5F5F5F5F5F5F5F5F5F5F5F5F5F5F5F5F5F5F5F5F5F5F5F5F5F5F5E2F5F5E200E2F5F5E2F5F5F5
310
F5F5F5F5F5F5F5F5F5F5F5F5F5F5F5F5F5F5F5F5F5F5F5F5F5F5F5F5F5F5F5F5F5F5F5F5F5F5F5F5F5F5F5F5F5F5F5F5F5F5F5F5F5F5F5F5F5F5F5F5F5F5F5F5F5F5F5F5F5F5F5F5F5F5F5F5F5F5F5F5F5F5F5F5F5F5F5F5E2F5F5E200E2F5F5E2F5F5F5F5F5F5F5F5F5F5F5F5F5F5F5F5F5F5F5F5F5F5F5F5F5F5F5F5F5F5
310
F5F5F5F5F5F5F5F5F5F5F5F5F5F5F5F5F5F5F5F5F5F5F5F5F5F5F5F5F5F5F5F5F5F5F5F5F5F5F5F5F5F5F5F5F5F5F5F5F5F5F5F5F5F5F5F5F5F5F5F5F5E2F5F5E200E2F5F5E2F5F5F5F5F5F5F5F5F5F5F5F5F5F5F5F5F5F5F5F5F5F5F5F5F5F5F5F5F5F5F5F5F5F5F5F5F5F5F5F5F5F5F5F5F5F5F5F5F5F5F5F5F5F5F5F5F5
310
F5F5F5F5F5F5F5F5F5F5F5F5F5F5F5F5F5F5F5F5F5F5F5F5F5F5F5F5F5F5F5F5F5F5E2F5F5E200E2F5F5E2F5F5F5F5F5F5F5F5F5F5F5F5F5F5F5F5F5F5F5F5F5F5F5F5F5F5F5F5F5F5F5F5F5F5F5F5F5F5F5F5F5F5F5F5F5F5F5F5F5F5F5F5F5F5F5F5F5F5F5F5F5F5F5F5F5F5F5F5F5F5F5F5F5F5F5F5F5F5F5F5F5F5F5F5
310
F5F5F5F5F5F5F5E2F5F5E200E2F5F5E2F5F5F5F5F5F5F5F5F5F5F5F5F5F5F5F5F5F5F5F5F5F5F5F5F5F5F5F5F5F5F5F5F5F5F5F5F5F5F5F5F5F5F5F5F5F5F5F5F5F5F5F5F5F5F5F5F5F5F5F5F5F5F5F5F5F5F5F5F5F5F5F5F5F5F5F5F5F5F5F5F5F5F5F5F5F5F5F5F5F5F5E2F5F5E200E2F5F5E2F5F5F5F5F5F5F5F5F5F5F5
310
F5F5F5F5F5F5F5F5F5F5F5F5F5F5F5F5F5F5F5F5F5F5F5F5F5F5F5F5F5F5F5F5F5F5F5F5F5F5F5F5F5F5F5F5F5F5F5F5F5F5F5F5F5F5F5F5F5F5F5F5F5F5F5F5F5F5F5F5F5F5F5F5F5F5F5F5F5F5F5F5E2F5F5E200E2F5F5E2F5F5F5F5F5F5F5F5F5F5F5F5F5F5F5F5F5F5F5F5F5F5F5F5F5F5F5F5F5F5F5F5F5F5F5F5F5F5
310
F5F5F5F5F5F5F5F5F5F5F5F5F5F5F5F5F5F5F5F5F5F5F5F5F5F5F5F5F5F5F5F5F5F5F5F5F5F5F5F5F5F5F5F5F5F5F5F5F5F5F5F5F5E2F5F5E200E2F5F5E2F5F5F5F5F5F5F5F5F5F5F5F5F5F5F5F5F5F5F5F5F5F5F5F5F5F5F5F5F5F5F5F5F5F5F5F5F5F5F5F5F5F5F5F5F5F5F5F5F5F5F5F5F5F5F5F5F5F5F5F5F5F5F5F5F5
310
F5F5F5F5F5F5F5F5F5F5F5F5F5F5F5F5F5F5F5F5F5F5F5F5F5F5E2F5F5E200E2F5F5E2F5F5F5F5F5F5F5F5F5F5F5F5F5F5F5F5F5F5F5F5F5F5F5F5F5F5F5F5F5F5F5F5F5F5F5F5F5F5F5F5F5F5F5F5F5F5F5F5F5F5F5F5F5F5F5F5F5F5F5F5F5F5F5F5F5F5F5F5F5F5F5F5F5F5F5F5F5F5F5F5F5F5F5F5F5F5F5F5F5F5F5E2
310
F5F5E200E2F5F5F5F5F5F5F5F5F5F5F5F5F5F5F5F5F5F5F5F5F5F5F5F5F5F5F5F5F5F5F5F5F5F5F5F5F5F5F5F5F5F5F5F5F5F5F5F5F5F5F5F5F5F5F5F5F5F5F5F5F5F5F5F5F5F5F5F5F5F5F5F5F5F5F5F5F5F5F5F5F5F5F5F5F5F5F5F5F5F5F5F5F5F5F5F5F5E200E2F5F5F5F5F5F5F5F5F5F5F5F5F5F5F5F5F5F5F5F5F5F5
310
F5F5F5F5F5F5F5F5F5F5F5F5F5F5F5F5F5F5F5F5F5F5F5F5F5F5F5F5F5F5F5F5F5F5F5F5F5F5F5F5F5F5F5F5F5F5F5F5F5F5F5F5F5F5F5F5F5F5F5F5F5F5F5F5F5F5F5F5F5F5F5F5F5F5F5E200E2F5F5F5F5F5F5F5F5F5F5F5F5F5F5F5F5F5F5F5F5F5F5F5F5F5F5F5F5F5F5F5F5F5F5F5F5F5F5F5F5F5F5F5F5F5F5F5F5F5
310
F5F5F5F5F5F5F5F5F5F5F5F5F5F5F5F5F5F5F5F5F5F5F5F5F5F5F5F5F5F5F5F5F5F5F5F5F5F5F5F5F5F5F5F5F5F5F5F5E200E2F5F5F5F5F5F5F5F5F5F5F5F5F5F5F5F5F5F5F5F5F5F5F5F5F5F5F5F5F5F5F5F5F5F5F5F5F5F5F5F5F5F5F5F5F5F5F5F5F5F5F5F5F5F5F5F5F5F5F5F5F5F5F5F5F5F5F5F5F5F5F5F5F5F5F5F5
310
F5F5F5F5F5F5F5F5F5F5F5F5F5F5F5F5F5F5F5F5F5E200E2F5F5F5F5F5F5F5F5F5F5F5F5F5F5F5F5F5F5F5F5F5F5F5F5F5F5F5F5F5F5F5F5F5F5F5F5F5F5F5F5F5F5F5F5F5F5F5F5F5F5F5F5F5F5F5F5F5F5F5F5F5F5F5F5F5F5F5F5F5F5F5F5F5F5F5F5F5F5F5F5F5F5F5F5F5F5F5F5F5F5F5F5F5F5F5F5F5E200E2F5F5F5
310
F5F5F5F5F5F5F5F5F5F5F5F5F5F5F5F5F5F5F5F5F5F5F5F5F5F5F5F5F5F5F5F5F5F5F5F5F5F5F5F5F5F5F5F5F5F5F5F5F5F5F5F5F5F5F5F5F5F5F5F5F5F5F5F5F5F5F5F5F5F5F5F5F5F5F5F5F5F5F5F5F5F5F5F5F5F5F5F5F5F5F5F5F5F5E200E2F5F5F5F5F5F5F5F5F5F5F5F5F5F5F5F5F5F5F5F5F5F5F5F5F5F5F5F5F5F5
310
F5F5F5F5F5F5F5F5F5F5F5F5F5F5F5F5F5F5F5F5F5F5F5F5F5F5F5F5F5F5F5F5F5F5F5F5F5F5F5F5F5F5F5F5F5F5F5F5F5F5F5F5F5F5F5F5F5F5F5F5F5F5F5F5F5F5F5E200E2F5F5F5F5F5F5F5F5F5F5F5F5F5F5F5F5F5F5F5F5F5F5F5F5F5F5F5F5F5F5F5F5F5F5F5F5F5F5F5F5F5F5F5F5F5F5F5F5F5F5F5F5F5F5F5F5F5
310
F5F5F5F5F5F5F5F5F5F5F5F5F5F5F5F5F5F5F5F5F5F5F5F5F5F5F5F5F5F5F5F5F5F5F5F5F5F5F5F5E200E2F5F5F5F5F5F5F5F5F5F5F5F5F5F5F5F5F5F5F5F5F5F5F5F5F5F5F5F5F5F5F5F5F5F5F5F5F5F5F5F5F5F5F5F5F5F5F5F5F5F5F5F5F5F5F5F5F5F5F5F5F5F5F5F5F5F5F5F5F5F5F5F5F5F5F5F5F5F5F5F5F5F5F5F5
310
F5F5F5F5F5F5F5F5F5F5F5F5F5E200E2F5F5F5F5F5F5F5F5F5F5F5F5F5F5F5F5F5F5F5F5F5F5F5F5F5F5F5F5F5F5F5F5F5F5F5F5F5F5F5F5F5F5F5F5F5F5F5F5F5F5F5F5F5F5F5F5F5F5F5F5F5F5F5F5F5F5F5F5F5F5F5F5F5F5F5F5F5F5F5F5F5F5F5F5F5F5F5F5F5F5F5F5F5F5F5F5F5E200E2F5F5E2F5F5F5F5F5F5F5F5
310
F5F5F5F5F5F5F5F5F5F5F5F5F5F5F5F5F5F5F5F5F5F5F5F5F5F5F5F5F5F5F5F5F5F5F5F5F5F5F5F5F5F5F5F5F5F5F5F5F5F5F5F5F5F5F5F5F5F5F5F5F5F5F5F5F5F5F5F5F5F5F5F5F5F5F5F5F5F5F5F5F5F5F5E2F5F5E200E2F5F5E2F5F5F5F5F5F5F5F5F5F5F5F5F5F5F5F5F5F5F5F5F5F5F5F5F5F5F5F5F5F5F5F5F5F5F5
310
F5F5F5F5F5F5F5F5F5F5F5F5F5F5F5F5F5F5F5F5F5F5F5F5F5F5F5F5F5F5F5F5F5F5F5F5F5F5F5F5F5F5F5F5F5F5F5F5F5F5F5F5F5F5F5F5E2F5F5E200E2F5F5E2F5F5F5F5F5F5F5F5F5F5F5F5F5F5F5F5F5F5F5F5F5F5F5F5F5F5F5F5F5F5F5F5F5F5F5F5F5F5F5F5F5F5F5F5F5F5F5F5F5F5F5F5F5F5F5F5F5F5F5F5F5F5
310
F5F5F5F5F5F5F5F5F5F5F5F5F5F5F5F5F5F5F5F5F5F5F5F5F5F5F5F5F5E2F5F5E200E2F5F5E2F5F5F5F5F5F5F5F5F5F5F5F5F5F5F5F5F5F5F5F5F5F5F5F5F5F5F5F5F5F5F5F5F5F5F5F5F5F5F5F5F5F5F5F5F5F5F5F5F5F5F5F5F5F5F5F5F5F5F5F5F5F5F5F5F5F5F5F5F5F5F5F5F5F5F5F5F5F5F5F5F5F5F5F5F5F5F5F5F5
310
F5F5E2F5F5E200E2F5F5E2F5F5F5F5F5F5F5F5F5F5F5F5F5F5F5F5F5F5F5F5F5F5F5F5F5F5F5F5F5F5F5F5F5F5F5F5F5F5F5F5F5F5F5F5F5F5F5F5F5F5F5F5F5F5F5F5F5F5F5F5F5F5F5F5F5F5F5F5F5F5F5F5F5F5F5F5F5F5F5F5F5F5F5F5F5F5F5F5F5F5F5E2F5F5E200E2F5F5E2F5F5F5F5F5F5F5F5F5F5F5F5F5F5F5F5
310
F5F5F5F5F5F5F5F5F5F5F5F5F5F5F5F5F5F5F5F5F5F5F5F5F5F5F5F5F5F5F5F5F5F5F5F5F5F5F5F5F5F5F5F5F5F5F5F5F5F5F5F5F5F5F5F5F5F5F5F5F5F5F5F5F5F5F5F5F5F5F5F5F5F5F5E2F5F5E200E2F5F5E2F5F5F5F5F5F5F5F5F5F5F5F5F5F5F5F5F5F5F5F5F5F5F5F5F5F5F5F5F5F5F5F5F5F5F5F5F5F5F5F5F5F5F5
310
F5F5F5F5F5F5F5F5F5F5F5F5F5F5F5F5F5F5F5F5F5F5F5F5F5F5F5F5F5F5F5F5F5F5F5F5F5F5F5F5F5F5F5F5F5F5F5F5E2F5F5E200E2F5F5E2F5F5F5F5F5F5F5F5F5F5F5F5F5F5F5F5F5F5F5F5F5F5F5F5F5F5F5F5F5F5F5F5F5F5F5F5F5F5F5F5F5F5F5F5F5F5F5F5F5F5F5F5F5F5F5F5F5F5F5F5F5F5F5F5F5F5F5F5F5F5
310
F5F5F5F5F5F5F5F5F5F5F5F5F5F5F5F5F5F5F5F5F5E2F5F5E200E2F5F5E2F5F5F5F5F5F5F5F5F5F5F5F5F5F5F5F5F5F5F5F5F5F5F5F5F5F5F5F5F5F5F5F5F5F5F5F5F5F5F5F5F5F5F5F5F5F5F5F5F5F5F5F5F5F5F5F5F5F5F5F5F5F5F5F5F5F5F5F5F5F5F5F5F5F5F5F5F5F5F5F5F5F5F5F5F5F5F5F5F5F5F5E2F5F5E200E2
310
F5F5E2F5F5F5F5F5F5F5F5F5F5F5F5F5F5F5F5F5F5F5F5F5F5F5F5F5F5F5F5F5F5F5F5F5F5F5F5F5F5F5F5F5F5F5F5F5F5F5F5F5F5F5F5F5F5F5F5F5F5F5F5F5F5F5F5F5F5F5F5F5F5F5F5F5F5F5F5F5F5F5F5F5F5F5F5F5F5F5F5F5F5F5E2F5F5E200E2F5F5E2F5F5F5F5F5F5F5F5F5F5F5F5F5F5F5F5F5F5F5F5F5F5F5F5
310
F5F5F5F5F5F5F5F5F5F5F5F5F5F5F5F5F5F5F5F5F5F5F5F5F5F5F5F5F5F5F5F5F5F5F5F5F5F5F5F5F5F5F5F5F5F5F5F5F5F5F5F5F5F5F5F5F5F5F5F5F5F5F5F5F5F5F5E2F5F5E200E2F5F5E2F5F5F5F5F5F5F5F5F5F5F5F5F5F5F5F5F5F5F5F5F5F5F5F5F5F5F5F5F5F5F5F5F5F5F5F5F5F5F5F5F5F5F5F5F5F5F5F5F5F5F5
310
F5F5F5F5F5F5F5F5F5F5F5F5F5F5F5F5F5F5F5F5F5F5F5F5F5F5F5F5F5F5F5F5F5F5F5F5F5F5F5F5E2F5F5E200E2F5F5E2F5F5F5F5F5F5F5F5F5F5F5F5F5F5F5F5F5F5F5F5F5F5F5F5F5F5F5F5F5F5F5F5F5F5F5F5F5F5F5F5F5F5F5F5F5F5F5F5F5F5F5F5F5F5F5F5F5F5F5F5F5F5F5F5F5F5F5F5F5F5F5F5F5F5F5F5F5F5
310
F5F5F5F5F5F5F5F5F5F5F5F5F5E2F5F5E200E2F5F5E2F5F5F5F5F5F5F5F5F5F5F5F5F5F5F5F5F5F5F5F5F5F5F5F5F5F5F5F5F5F5F5F5F5F5F5F5F5F5F5F5F5F5F5F5F5F5F5F5F5F5F5F5F5F5F5F5F5F5F5F5F5F5F5F5F5F5F5F5F5F5F5F5F5F5F5F5F5F5F5F5F5F5F5F5F5F5F5F5F5F5F5E2F5F5E200E2F5F5E2F5F5F5F5F5
310
F5F5F5F5F5F5F5F5F5F5F5F5F5F5F5F5F5F5F5F5F5F5F5F5F5F5F5F5F5F5F5F5F5F5F5F5F5F5F5F5F5F5F5F5F5F5F5F5F5F5F5F5F5F5F5F5F5F5F5F5F5F5F5F5F5F5F5F5F5F5F5F5F5F5F5F5F5F5F5F5F5F5F5F5F5F5E2F5F5E200E2F5F5E2F5F5F5F5F5F5F5F5F5F5F5F5F5F5F5F5F5F5F5F5F5F5F5F5F5F5F5F5F5F5F5F5
310
F5F5F5F5F5F5F5F5F5F5F5F5F5F5F5F5F5F5F5F5F5F5F5F5F5F5F5F5F5F5F5F5F5F5F5F5F5F5F5F5F5F5F5F5F5F5F5F5F5F5F5F5F5F5F5F5F5F5F5E2F5F5E200E2F5F5E2F5F5F5F5F5F5F5F5F5F5F5F5F5F5F5F5F5F5F5F5F5F5F5F5F5F5F5F5F5F5F5F5F5F5F5F5F5F5F5F5F5F5F5F5F5F5F5F5F5F5F5F5F5F5F5F5F5F5F5
310
F5F5F5F5F5F5F5F5F5F5F5F5F5F5F5F5F5F5F5F5F5F5F5F5F5F5F5F5F5F5F5F5E2F5F5E200E2F5F5F5F5F5F5F5F5F5F5F5F5F5F5F5F5F5F5F5F5F5F5F5F5F5F5F5F5F5F5F5F5F5F5F5F5F5F5F5F5F5F5F5F5F5F5F5F5F5F5F5F5F5F5F5F5F5F5F5F5F5F5F5F5F5F5F5F5F5F5F5F5F5F5F5F5F5F5F5F5F5F5F5F5F5F5F5F5F5
310
F5F5F5F5F5F5F5F5E200E2F5F5F5F5F5F5F5F5F5F5F5F5F5F5F5F5F5F5F5F5F5F5F5F5F5F5F5F5F5F5F5F5F5F5F5F5F5F5F5F5F5F5F5F5F5F5F5F5F5F5F5F5F5F5F5F5F5F5F5F5F5F5F5F5F5F5F5F5F5F5F5F5F5F5F5F5F5F5F5F5F5F5F5F5F5F5F5F5F5F5F5F5F5F5F5F5F5E200E2F5F5F5F5F5F5F5F5F5F5F5F5F5F5F5F5
310
F5F5F5F5F5F5F5F5F5F5F5F5F5F5F5F5F5F5F5F5F5F5F5F5F5F5F5F5F5F5F5F5F5F5F5F5F5F5F5F5F5F5F5F5F5F5F5F5F5F5F5F5F5F5F5F5F5F5F5F5F5F5F5F5F5F5F5F5F5F5F5F5F5F5F5F5F5F5F5F5F5E200E2F5F5F5F5F5F5F5F5F5F5F5F5F5F5F5F5F5F5F5F5F5F5F5F5F5F5F5F5F5F5F5F5F5F5F5F5F5F5F5F5F5F5F5
310
F5F5F5F5F5F5F5F5F5F5F5F5F5F5F5F5F5F5F5F5F5F5F5F5F5F5F5F5F5F5F5F5F5F5F5F5F5F5F5F5F5F5F5F5F5F5F5F5F5F5F5F5F5F5E200E2F5F5F5F5F5F5F5F5F5F5F5F5F5F5F5F5F5F5F5F5F5F5F5F5F5F5F5F5F5F5F5F5F5F5F5F5F5F5F5F5F5F5F5F5F5F5F5F5F5F5F5F5F5F5F5F5F5F5F5F5F5F5F5F5F5F5F5F5F5F5
310
F5F5F5F5F5F5F5F5F5F5F5F5F5F5F5F5F5F5F5F5F5F5F5F5F5F5F5E200E2F5F5F5F5F5F5F5F5F5F5F5F5F5F5F5F5F5F5F5F5F5F5F5F5F5F5F5F5F5F5F5F5F5F5F5F5F5F5F5F5F5F5F5F5F5F5F5F5F5F5F5F5F5F5F5F5F5F5F5F5F5F5F5F5F5F5F5F5F5F5F5F5F5F5F5F5F5F5F5F5F5F5F5F5F5F5F5F5F5F5F5F5F5F5F5F5F5
310
E200E2F5F5F5F5F5F5F5F5F5F5F5F5F5F5F5F5F5F5F5F5F5F5F5F5F5F5F5F5F5F5F5F5F5F5F5F5F5F5F5F5F5F5F5F5F5F5F5F5F5F5F5F5F5F5F5F5F5F5F5F5F5F5F5F5F5F5F5F5F5F5F5F5F5F5F5F5F5F5F5F5F5F5F5F5F5F5F5F5F5F5F5F5F5F5F5F5F5E200E2F5F5F5F5F5F5F5F5F5F5F5F5F5F5F5F5F5F5F5F5F5F5F5F5
310
F5F5F5F5F5F5F5F5F5F5F5F5F5F5F5F5F5F5F5F5F5F5F5F5F5F5F5F5F5F5F5F5F5F5F5F5F5F5F5F5F5F5F5F5F5F5F5F5F5F5F5F5F5F5F5F5F5F5F5F5F5F5F5F5F5F5F5F5F5F5F5F5F5E200E2F5F5F5F5F5F5F5F5F5F5F5F5F5F5F5F5F5F5F5F5F5F5F5F5F5F5F5F5F5F5F5F5F5F5F5F5F5F5F5F5F5F5F5F5F5F5F5F5F5F5F5
310
F5F5F5F5F5F5F5F5F5F5F5F5F5F5F5F5F5F5F5F5F5F5F5F5F5F5F5F5F5F5F5F5F5F5F5F5F5F5F5F5F5F5F5F5F5F5E200E2F5F5E2F5F5F5F5F5F5F5F5F5F5F5F5F5F5F5F5F5F5F5F5F5F5F5F5F5F5F5F5F5F5F5F5F5F5F5F5F5F5F5F5F5F5F5F5F5F5F5F5F5F5F5F5F5F5F5F5F5F5F5F5F5F5F5F5F5F5F5F5F5F5F5F5F5F5F5
310
F5F5F5F5F5F5F5F5F5F5F5F5F5F5F5F5E2F5F5E200E2F5F5E2F5F5F5F5F5F5F5F5F5F5F5F5F5F5F5F5F5F5F5F5F5F5F5F5F5F5F5F5F5F5F5F5F5F5F5F5F5F5F5F5F5F5F5F5F5F5F5F5F5F5F5F5F5F5F5F5F5F5F5F5F5F5F5F5F5F5F5F5F5F5F5F5F5F5F5F5F5F5F5F5F5F5F5F5F5F5F5F5F5F5F5E2F5F5E200E2F5F5E2F5F5
310
F5F5F5F5F5F5F5F5F5F5F5F5F5F5F5F5F5F5F5F5F5F5F5F5F5F5F5F5F5F5F5F5F5F5F5F5F5F5F5F5F5F5F5F5F5F5F5F5F5F5F5F5F5F5F5F5F5F5F5F5F5F5F5F5F5F5F5F5F5F5F5F5F5F5F5F5F5F5F5F5F5F5F5F5F5F5F5F5F5E2F5F5E200E2F5F5E2F5F5F5F5F5F5F5F5F5F5F5F5F5F5F5F5F5F5F5F5F5F5F5F5F5F5F5F5F5
310
F5F5F5F5F5F5F5F5F5F5F5F5F5F5F5F5F5F5F5F5F5F5F5F5F5F5F5F5F5F5F5F5F5F5F5F5F5F5F5F5F5F5F5F5F5F5F5F5F5F5F5F5F5F5F5F5F5F5F5F5F5F5E2F5F5E200E2F5F5E2F5F5F5F5F5F5F5F5F5F5F5F5F5F5F5F5F5F5F5F5F5F5F5F5F5F5F5F5F5F5F5F5F5F5F5F5F5F5F5F5F5F5F5F5F5F5F5F5F5F5F5F5F5F5F5F5
310
F5F5F5F5F5F5F5F5F5F5F5F5F5F5F5F5F5F5F5F5F5F5F5F5F5F5F5F5F5F5F5F5F5F5F5E2F5F5E200E2F5F5E2F5F5F5F5F5F5F5F5F5F5F5F5F5F5F5F5F5F5F5F5F5F5F5F5F5F5F5F5F5F5F5F5F5F5F5F5F5F5F5F5F5F5F5F5F5F5F5F5F5F5F5F5F5F5F5F5F5F5F5F5F5F5F5F5F5F5F5F5F5F5F5F5F5F5F5F5F5F5F5F5F5F5F5
310
F5F5F5F5F5F5F5F5E2F5F5E200E2F5F5E2F5F5F5F5F5F5F5F5F5F5F5F5F5F5F5F5F5F5F5F5F5F5F5F5F5F5F5F5F5F5F5F5F5F5F5F5F5F5F5F5F5F5F5F5F5F5F5F5F5F5F5F5F5F5F5F5F5F5F5F5F5F5F5F5F5F5F5F5F5F5F5F5F5F5F5F5F5F5F5F5F5F5F5F5F5F5F5F5F5F5F5E2F5F5E200E2F5F5E2F5F5F5F5F5F5F5F5F5F5
310
F5F5F5F5F5F5F5F5F5F5F5F5F5F5F5F5F5F5F5F5F5F5F5F5F5F5F5F5F5F5F5F5F5F5F5F5F5F5F5F5F5F5F5F5F5F5F5F5F5F5F5F5F5F5F5F5F5F5F5F5F5F5F5F5F5F5F5F5F5F5F5F5F5F5F5F5F5F5F5F5F5E2F5F5E200E2F5F5E2E2E2E2E2E2E2E2F5F5F5F5F5F5F5F5E2E2E2E2E2E2E2E2E2E2E2E2E2E2E2F5F5F5F5F5F5F5
310
F5E2E2E2E2E2E2E2E2E2E2E2E2E2E2E2F5F5F5F5F5F5F5F5E2E2E2E2E2E2E2E2E2E2E2E2E2E2E2F5F5F5F5F5F5F5F5E2E2E2E2E2E2E2E2F5F5E200E2F5F5F5F5F5F5F5F5F5F5F5F5F5F5F5F5F5F5F5F5F5F5F5F5F5F5F5F5F5F5F5F5F5F5F5F5F5F5F5F5F5F5F5F5F5F5F5F5F5F5F5F5F5F5F5F5F5F5F5F5F5F5F5F5F5F5F5
310
F5F5F5F5F5F5F5F5F5F5F5F5F5F5F5F5F5F5F5F5F5F5F5F5F5F5F5F5F5F5E200E2F5F5F5F5F5F5F5F5F5F5F5F5F5F5F5F5F5F5F5F5F5F5F5F5F5F5F5F5F5F5F5F5F5F5F5F5F5F5F5F5F5F5F5F5F5F5F5F5F5F5F5F5F5F5F5F5F5F5F5F5F5F5F5F5F5F5F5F5F5F5F5F5F5F5F5F5F5F5F5F5F5F5F5F5F5F5F5F5F5F5F5F5F5F5
310
F5F5F5E200E2F5F5F5F5F5F5F5F5F5F5F5F5F5F5F5F5F5F5F5F5F5F5F5F5F5F5F5F5F5F5F5F5F5F5F5F5F5F5F5F5F5F5F5F5F5F5F5F5F5F5F5F5F5F5F5F5F5F5F5F5F5F5F5F5F5F5F5F5F5F5F5F5F5F5F5F5F5F5F5F5F5F5F5F5F5F5F5F5F5F5F5F5F5F5F5F5F5E200E2E2E2E2E2E2E2E2E2E2E2E2E2E2E2E2E2E2E2E2E2E2
310
E2E2E2E2E2E2E2E2E2E2E2E2E2E2E2E2E2E2E2E2E2E2E2E2E2E2E2E2E2E2E2E2E2E2E2E2E2E2E2E2E2E2E2E2E2E2E2E2E2E2E2E2E2E2E2E2E2E2E2E2E2E2E2E2E2E2E2E2E2E2E2E2E2E2E2E2E200
  0
XRECORD
  5
2058
102
{ACAD_REACTORS
330
2057
102
}
330
2057
100
AcDbXrecord
280
     1
102
SHADEPLOT
 70
     0
102
SHADEPLOTRESLEVEL
 70
     2
102
SHADEPLOTCUSTOMDPI
 70
   300
  0
ENDSEC
  0
EOF
