  0
SECTION
  2
HEADER
  9
$ACADVER
  1
AC1021
  9
$ACADMAINTVER
 70
    51
  9
$DWGCODEPAGE
  3
ANSI_1252
  9
$LASTSAVEDBY
  1
jiraut
  9
$INSBASE
 10
0.0
 20
0.0
 30
0.0
  9
$EXTMIN
 10
5374.151176334195
 20
-3561.326129659102
 30
0.0
  9
$EXTMAX
 10
9871.286258449499
 20
910.4771853516245
 30
0.0
  9
$LIMMIN
 10
-1091.180495341761
 20
-619.6501650024412
  9
$LIMMAX
 10
1056.97244419739
 20
951.0353648293053
  9
$ORTHOMODE
 70
     0
  9
$REGENMODE
 70
     1
  9
$FILLMODE
 70
     1
  9
$QTEXTMODE
 70
     0
  9
$MIRRTEXT
 70
     1
  9
$LTSCALE
 40
1.0
  9
$ATTMODE
 70
     1
  9
$TEXTSIZE
 40
100.0
  9
$TRACEWID
 40
0.05
  9
$TEXTSTYLE
  7
VOESTB
  9
$CLAYER
  8
50
  9
$CELTYPE
  6
BYLAYER
  9
$CECOLOR
 62
   256
  9
$CELTSCALE
 40
1.0
  9
$DISPSILH
 70
     0
  9
$DIMSCALE
 40
10.0
  9
$DIMASZ
 40
0.25
  9
$DIMEXO
 40
0.1
  9
$DIMDLI
 40
0.5
  9
$DIMRND
 40
0.0
  9
$DIMDLE
 40
0.0
  9
$DIMEXE
 40
0.25
  9
$DIMTP
 40
0.0
  9
$DIMTM
 40
0.0
  9
$DIMTXT
 40
0.25
  9
$DIMCEN
 40
0.0
  9
$DIMTSZ
 40
0.0
  9
$DIMTOL
 70
     0
  9
$DIMLIM
 70
     0
  9
$DIMTIH
 70
     0
  9
$DIMTOH
 70
     0
  9
$DIMSE1
 70
     0
  9
$DIMSE2
 70
     0
  9
$DIMTAD
 70
     0
  9
$DIMZIN
 70
     0
  9
$DIMBLK
  1

  9
$DIMASO
 70
     1
  9
$DIMSHO
 70
     1
  9
$DIMPOST
  1

  9
$DIMAPOST
  1

  9
$DIMALT
 70
     0
  9
$DIMALTD
 70
     2
  9
$DIMALTF
 40
25.4
  9
$DIMLFAC
 40
1.0
  9
$DIMTOFL
 70
     0
  9
$DIMTVP
 40
0.0
  9
$DIMTIX
 70
     0
  9
$DIMSOXD
 70
     0
  9
$DIMSAH
 70
     0
  9
$DIMBLK1
  1

  9
$DIMBLK2
  1

  9
$DIMSTYLE
  2
TYPENBLATT_M50
  9
$DIMCLRD
 70
     0
  9
$DIMCLRE
 70
     0
  9
$DIMCLRT
 70
     0
  9
$DIMTFAC
 40
1.0
  9
$DIMGAP
 40
0.075
  9
$DIMJUST
 70
     0
  9
$DIMSD1
 70
     0
  9
$DIMSD2
 70
     0
  9
$DIMTOLJ
 70
     1
  9
$DIMTZIN
 70
     0
  9
$DIMALTZ
 70
     0
  9
$DIMALTTZ
 70
     0
  9
$DIMUPT
 70
     0
  9
$DIMDEC
 70
     0
  9
$DIMTDEC
 70
     4
  9
$DIMALTU
 70
     2
  9
$DIMALTTD
 70
     2
  9
$DIMTXSTY
  7
VOEST
  9
$DIMAUNIT
 70
     0
  9
$DIMADEC
 70
     0
  9
$DIMALTRND
 40
0.0
  9
$DIMAZIN
 70
     0
  9
$DIMDSEP
 70
    46
  9
$DIMATFIT
 70
     3
  9
$DIMFRAC
 70
     0
  9
$DIMLDRBLK
  1

  9
$DIMLUNIT
 70
     2
  9
$DIMLWD
 70
    -2
  9
$DIMLWE
 70
    -2
  9
$DIMTMOVE
 70
     0
  9
$DIMFXL
 40
1.25
  9
$DIMFXLON
 70
     0
  9
$DIMJOGANG
 40
1.570796326794896
  9
$DIMTFILL
 70
     0
  9
$DIMTFILLCLR
 70
     0
  9
$DIMARCSYM
 70
     0
  9
$DIMLTYPE
  6

  9
$DIMLTEX1
  6

  9
$DIMLTEX2
  6

  9
$LUNITS
 70
     2
  9
$LUPREC
 70
     4
  9
$SKETCHINC
 40
0.1
  9
$FILLETRAD
 40
10.0
  9
$AUNITS
 70
     0
  9
$AUPREC
 70
     4
  9
$MENU
  1
acad
  9
$ELEVATION
 40
0.0
  9
$PELEVATION
 40
0.0
  9
$THICKNESS
 40
0.0
  9
$LIMCHECK
 70
     0
  9
$CHAMFERA
 40
0.0
  9
$CHAMFERB
 40
0.0
  9
$CHAMFERC
 40
1.0
  9
$CHAMFERD
 40
0.0
  9
$SKPOLY
 70
     0
  9
$TDCREATE
 40
2451353.418328530
  9
$TDUCREATE
 40
2451353.376661864
  9
$TDUPDATE
 40
2455258.481853125
  9
$TDUUPDATE
 40
2455258.440186459
  9
$TDINDWG
 40
2.4774919444
  9
$TDUSRTIMER
 40
2.4774919444
  9
$USRTIMER
 70
     1
  9
$ANGBASE
 50
0.0
  9
$ANGDIR
 70
     0
  9
$PDMODE
 70
     0
  9
$PDSIZE
 40
0.0
  9
$PLINEWID
 40
0.0
  9
$SPLFRAME
 70
     0
  9
$SPLINETYPE
 70
     6
  9
$SPLINESEGS
 70
     8
  9
$HANDSEED
  5
2605
  9
$SURFTAB1
 70
     6
  9
$SURFTAB2
 70
     6
  9
$SURFTYPE
 70
     6
  9
$SURFU
 70
     6
  9
$SURFV
 70
     6
  9
$UCSBASE
  2

  9
$UCSNAME
  2

  9
$UCSORG
 10
0.0
 20
0.0
 30
0.0
  9
$UCSXDIR
 10
1.0
 20
0.0
 30
0.0
  9
$UCSYDIR
 10
0.0
 20
1.0
 30
0.0
  9
$UCSORTHOREF
  2

  9
$UCSORTHOVIEW
 70
     0
  9
$UCSORGTOP
 10
0.0
 20
0.0
 30
0.0
  9
$UCSORGBOTTOM
 10
0.0
 20
0.0
 30
0.0
  9
$UCSORGLEFT
 10
0.0
 20
0.0
 30
0.0
  9
$UCSORGRIGHT
 10
0.0
 20
0.0
 30
0.0
  9
$UCSORGFRONT
 10
0.0
 20
0.0
 30
0.0
  9
$UCSORGBACK
 10
0.0
 20
0.0
 30
0.0
  9
$PUCSBASE
  2

  9
$PUCSNAME
  2

  9
$PUCSORG
 10
0.0
 20
0.0
 30
0.0
  9
$PUCSXDIR
 10
1.0
 20
0.0
 30
0.0
  9
$PUCSYDIR
 10
0.0
 20
1.0
 30
0.0
  9
$PUCSORTHOREF
  2

  9
$PUCSORTHOVIEW
 70
     0
  9
$PUCSORGTOP
 10
0.0
 20
0.0
 30
0.0
  9
$PUCSORGBOTTOM
 10
0.0
 20
0.0
 30
0.0
  9
$PUCSORGLEFT
 10
0.0
 20
0.0
 30
0.0
  9
$PUCSORGRIGHT
 10
0.0
 20
0.0
 30
0.0
  9
$PUCSORGFRONT
 10
0.0
 20
0.0
 30
0.0
  9
$PUCSORGBACK
 10
0.0
 20
0.0
 30
0.0
  9
$USERI1
 70
     0
  9
$USERI2
 70
     0
  9
$USERI3
 70
     0
  9
$USERI4
 70
     0
  9
$USERI5
 70
     0
  9
$USERR1
 40
0.0
  9
$USERR2
 40
0.0
  9
$USERR3
 40
0.0
  9
$USERR4
 40
0.0
  9
$USERR5
 40
0.0
  9
$WORLDVIEW
 70
     1
  9
$SHADEDGE
 70
     3
  9
$SHADEDIF
 70
    70
  9
$TILEMODE
 70
     1
  9
$MAXACTVP
 70
    48
  9
$PINSBASE
 10
0.0
 20
0.0
 30
0.0
  9
$PLIMCHECK
 70
     0
  9
$PEXTMIN
 10
1.000000000000000E+20
 20
1.000000000000000E+20
 30
1.000000000000000E+20
  9
$PEXTMAX
 10
-1.000000000000000E+20
 20
-1.000000000000000E+20
 30
-1.000000000000000E+20
  9
$PLIMMIN
 10
-0.2810685767455632
 20
-0.2449951058284719
  9
$PLIMMAX
 10
7.997916254848838
 20
11.46242428561498
  9
$UNITMODE
 70
     0
  9
$VISRETAIN
 70
     1
  9
$PLINEGEN
 70
     0
  9
$PSLTSCALE
 70
     1
  9
$TREEDEPTH
 70
  3020
  9
$CMLSTYLE
  2
STANDARD
  9
$CMLJUST
 70
     0
  9
$CMLSCALE
 40
1.0
  9
$PROXYGRAPHICS
 70
     1
  9
$MEASUREMENT
 70
     0
  9
$CELWEIGHT
370
    -1
  9
$ENDCAPS
280
     0
  9
$JOINSTYLE
280
     0
  9
$LWDISPLAY
290
     0
  9
$INSUNITS
 70
     0
  9
$HYPERLINKBASE
  1

  9
$STYLESHEET
  1

  9
$XEDIT
290
     1
  9
$CEPSNTYPE
380
     0
  9
$PSTYLEMODE
290
     1
  9
$FINGERPRINTGUID
  2
{B7B02B73-C3B6-11D6-A697-000102FA756E}
  9
$VERSIONGUID
  2
{4C21FF45-A731-4B40-8246-0E14EE93786B}
  9
$EXTNAMES
290
     1
  9
$PSVPSCALE
 40
0.0
  9
$OLESTARTUP
290
     0
  9
$SORTENTS
280
    96
  9
$INDEXCTL
280
     0
  9
$HIDETEXT
280
     0
  9
$XCLIPFRAME
290
     0
  9
$HALOGAP
280
     0
  9
$OBSCOLOR
 70
   257
  9
$OBSLTYPE
280
     0
  9
$INTERSECTIONDISPLAY
280
     0
  9
$INTERSECTIONCOLOR
 70
   257
  9
$DIMASSOC
280
     1
  9
$PROJECTNAME
  1

  9
$CAMERADISPLAY
290
     0
  9
$LENSLENGTH
 40
50.0
  9
$CAMERAHEIGHT
 40
0.0
  9
$STEPSPERSEC
 40
2.0
  9
$STEPSIZE
 40
6.0
  9
$3DDWFPREC
 40
2.0
  9
$PSOLWIDTH
 40
0.25
  9
$PSOLHEIGHT
 40
4.0
  9
$LOFTANG1
 40
1.570796326794896
  9
$LOFTANG2
 40
1.570796326794896
  9
$LOFTMAG1
 40
0.0
  9
$LOFTMAG2
 40
0.0
  9
$LOFTPARAM
 70
     7
  9
$LOFTNORMALS
280
     1
  9
$LATITUDE
 40
37.795
  9
$LONGITUDE
 40
-122.394
  9
$NORTHDIRECTION
 40
0.0
  9
$TIMEZONE
 70
 -8000
  9
$LIGHTGLYPHDISPLAY
280
     1
  9
$TILEMODELIGHTSYNCH
280
     1
  9
$CMATERIAL
347
1E52
  9
$SOLIDHIST
280
     1
  9
$SHOWHIST
280
     1
  9
$DWFFRAME
280
     2
  9
$DGNFRAME
280
     0
  9
$REALWORLDSCALE
290
     1
  9
$INTERFERECOLOR
 62
     1
  9
$INTERFEREOBJVS
345
1E5F
  9
$INTERFEREVPVS
346
1E5C
  9
$CSHADOW
280
     0
  9
$SHADOWPLANELOCATION
 40
0.0
  0
ENDSEC
  0
SECTION
  2
CLASSES
  0
CLASS
  1
DICTIONARYVAR
  2
AcDbDictionaryVar
  3
ObjectDBX Classes
 90
        0
 91
       10
280
     0
281
     0
  0
CLASS
  1
ACDBDICTIONARYWDFLT
  2
AcDbDictionaryWithDefault
  3
ObjectDBX Classes
 90
        0
 91
        1
280
     0
281
     0
  0
CLASS
  1
MATERIAL
  2
AcDbMaterial
  3
ObjectDBX Classes
 90
     1153
 91
        3
280
     0
281
     0
  0
CLASS
  1
VISUALSTYLE
  2
AcDbVisualStyle
  3
ObjectDBX Classes
 90
     4095
 91
       16
280
     0
281
     0
  0
CLASS
  1
TABLESTYLE
  2
AcDbTableStyle
  3
ObjectDBX Classes
 90
     4095
 91
        1
280
     0
281
     0
  0
CLASS
  1
DIMASSOC
  2
AcDbDimAssoc
  3
"AcDbDimAssoc|Product Desc:     AcDim ARX App For Dimension|Company:          Autodesk, Inc.|WEB Address:      www.autodesk.com"
 90
        0
 91
        0
280
     0
281
     0
  0
CLASS
  1
SORTENTSTABLE
  2
AcDbSortentsTable
  3
ObjectDBX Classes
 90
        0
 91
        1
280
     0
281
     0
  0
CLASS
  1
SCALE
  2
AcDbScale
  3
ObjectDBX Classes
 90
     1153
 91
       33
280
     0
281
     0
  0
CLASS
  1
MLEADERSTYLE
  2
AcDbMLeaderStyle
  3
ACDB_MLEADERSTYLE_CLASS
 90
     4095
 91
        1
280
     0
281
     0
  0
CLASS
  1
CELLSTYLEMAP
  2
AcDbCellStyleMap
  3
ObjectDBX Classes
 90
     1152
 91
        1
280
     0
281
     0
  0
ENDSEC
  0
SECTION
  2
TABLES
  0
TABLE
  2
VPORT
  5
8
102
{ACAD_XDICTIONARY
360
2592
102
}
330
0
100
AcDbSymbolTable
 70
     1
  0
VPORT
  5
1E47
330
8
100
AcDbSymbolTableRecord
100
AcDbViewportTableRecord
  2
*Active
 70
     0
 10
0.0
 20
0.0
 11
1.0
 21
1.0
 12
8294.240373958194
 22
-1204.014117142338
 13
0.0
 23
0.0
 14
0.5
 24
0.5
 15
0.5
 25
0.5
 16
0.0
 26
0.0
 36
1.0
 17
0.0
 27
0.0
 37
0.0
 40
6141.045667088414
 41
1.6214859437751
 42
50.0
 43
0.0
 44
0.0
 50
0.0
 51
0.0
 71
     0
 72
  5000
 73
     1
 74
     1
 75
     0
 76
     0
 77
     0
 78
     0
281
     0
 65
     1
110
0.0
120
0.0
130
0.0
111
1.0
121
0.0
131
0.0
112
0.0
122
1.0
132
0.0
 79
     0
146
0.0
348
1E5B
 60
     3
 61
     5
292
     1
282
     1
141
0.0
142
0.0
 63
   250
421
  3355443
  0
ENDTAB
  0
TABLE
  2
LTYPE
  5
5
330
0
100
AcDbSymbolTable
 70
     4
  0
LTYPE
  5
12
330
5
100
AcDbSymbolTableRecord
100
AcDbLinetypeTableRecord
  2
BYBLOCK
 70
     0
  3

 72
    65
 73
     0
 40
0.0
  0
LTYPE
  5
13
330
5
100
AcDbSymbolTableRecord
100
AcDbLinetypeTableRecord
  2
BYLAYER
 70
     0
  3

 72
    65
 73
     0
 40
0.0
  0
LTYPE
  5
14
330
5
100
AcDbSymbolTableRecord
100
AcDbLinetypeTableRecord
  2
CONTINUOUS
 70
     0
  3
Solid line
 72
    65
 73
     0
 40
0.0
  0
LTYPE
  5
222
330
5
100
AcDbSymbolTableRecord
100
AcDbLinetypeTableRecord
  2
STRICHPUNKT
 70
     0
  3
Strichpunkt __ . __ . __ . __ . __ . __ . __ . 
 72
    65
 73
     4
 40
25.4
 49
12.7
 74
     0
 49
-6.349999999999999
 74
     0
 49
0.0
 74
     0
 49
-6.349999999999999
 74
     0
  0
LTYPE
  5
223
330
5
100
AcDbSymbolTableRecord
100
AcDbLinetypeTableRecord
  2
STRICHLINIE
 70
     0
  3
Strichlinie __ __ __ __ __ __ __ __ __ __ __ __
 72
    65
 73
     2
 40
19.05
 49
12.7
 74
     0
 49
-6.349999999999999
 74
     0
  0
LTYPE
  5
1F0F
330
5
100
AcDbSymbolTableRecord
100
AcDbLinetypeTableRecord
  2
VERDECKT
 70
     0
  3
Verdeckt __ __ __ __ __ __ __ __ __ __ __ __ __
 72
    65
 73
     2
 40
0.375
 49
0.25
 74
     0
 49
-0.125
 74
     0
  0
ENDTAB
  0
TABLE
  2
LAYER
  5
2
102
{ACAD_XDICTIONARY
360
1F18
102
}
330
0
100
AcDbSymbolTable
 70
    11
  0
LAYER
  5
E
102
{ACAD_XDICTIONARY
360
25EA
102
}
330
2
100
AcDbSymbolTableRecord
100
AcDbLayerTableRecord
  2
0
 70
     0
 62
     7
  6
CONTINUOUS
370
    -3
390
1611
347
1E54
  0
LAYER
  5
12F
102
{ACAD_XDICTIONARY
360
25EC
102
}
330
2
100
AcDbSymbolTableRecord
100
AcDbLayerTableRecord
  2
25
 70
     0
 62
     7
  6
CONTINUOUS
370
    -3
390
1611
347
1E54
  0
LAYER
  5
1DA
102
{ACAD_XDICTIONARY
360
25EE
102
}
330
2
100
AcDbSymbolTableRecord
100
AcDbLayerTableRecord
  2
35
 70
     0
 62
     2
  6
CONTINUOUS
370
    -3
390
1611
347
1E54
  0
LAYER
  5
224
102
{ACAD_XDICTIONARY
360
25F0
102
}
330
2
100
AcDbSymbolTableRecord
100
AcDbLayerTableRecord
  2
KOTIERUNG
 70
     0
 62
     7
  6
CONTINUOUS
370
    -3
390
1611
347
1E54
  0
LAYER
  5
225
330
2
100
AcDbSymbolTableRecord
100
AcDbLayerTableRecord
  2
DEFPOINTS
 70
     0
 62
     7
  6
CONTINUOUS
290
     0
370
    -3
390
1611
347
1E54
  0
LAYER
  5
226
102
{ACAD_XDICTIONARY
360
25F2
102
}
330
2
100
AcDbSymbolTableRecord
100
AcDbLayerTableRecord
  2
18
 70
     0
 62
     1
  6
CONTINUOUS
370
    -3
390
1611
347
1E54
  0
LAYER
  5
425
102
{ACAD_XDICTIONARY
360
25F4
102
}
330
2
100
AcDbSymbolTableRecord
100
AcDbLayerTableRecord
  2
50
 70
     0
 62
    33
  6
CONTINUOUS
370
    -3
390
1611
347
1E54
  0
LAYER
  5
14EF
102
{ACAD_XDICTIONARY
360
25F6
102
}
330
2
100
AcDbSymbolTableRecord
100
AcDbLayerTableRecord
  2
TEXT
 70
     0
 62
     7
  6
CONTINUOUS
370
    -3
390
1611
347
1E54
  0
LAYER
  5
17DE
102
{ACAD_XDICTIONARY
360
25F8
102
}
330
2
100
AcDbSymbolTableRecord
100
AcDbLayerTableRecord
  2
70
 70
     0
 62
     5
  6
CONTINUOUS
370
    -3
390
1611
347
1E54
  0
LAYER
  5
184B
102
{ACAD_XDICTIONARY
360
25FA
102
}
330
2
100
AcDbSymbolTableRecord
100
AcDbLayerTableRecord
  2
ZUSATZTEXTE
 70
     0
 62
     7
  6
CONTINUOUS
370
    -3
390
1611
347
1E54
  0
LAYER
  5
1F10
102
{ACAD_XDICTIONARY
360
1F11
102
}
330
2
100
AcDbSymbolTableRecord
100
AcDbLayerTableRecord
  2
Hilfslinien
 70
     0
 62
     3
  6
CONTINUOUS
290
     0
370
    -3
390
1611
347
1E54
  0
ENDTAB
  0
TABLE
  2
STYLE
  5
3
330
0
100
AcDbSymbolTable
 70
     8
  0
STYLE
  5
F
330
3
100
AcDbSymbolTableRecord
100
AcDbTextStyleTableRecord
  2
STANDARD
 70
     0
 40
0.0
 41
1.0
 50
0.0
 71
     0
 42
25.0
  3
ARIALN.TTF
  4

1001
ACAD
1000
Arial Narrow
1071
       34
  0
STYLE
  5
428
330
3
100
AcDbSymbolTableRecord
100
AcDbTextStyleTableRecord
  2
VOEST
 70
     0
 40
0.0
 41
1.0
 50
0.0
 71
     0
 42
4.0
  3
ARIALN.TTF
  4

1001
ACAD
1000
Arial Narrow
1071
       34
  0
STYLE
  5
15F0
330
3
100
AcDbSymbolTableRecord
100
AcDbTextStyleTableRecord
  2
VOESTB
 70
     0
 40
0.0
 41
1.0
 50
0.0
 71
     0
 42
100.0
  3
ARIALNB.TTF
  4

1001
ACAD
1000
Arial Narrow
1071
 33554466
  0
STYLE
  5
184C
330
3
100
AcDbSymbolTableRecord
100
AcDbTextStyleTableRecord
  2
LOGO1
 70
     0
 40
0.0
 41
1.175
 50
0.0
 71
     0
 42
6.158564712355089
  3
swissb.ttf
  4

1001
ACAD
1000
Swis721 BT
1071
 33554466
  0
STYLE
  5
184D
330
3
100
AcDbSymbolTableRecord
100
AcDbTextStyleTableRecord
  2
LOGO3
 70
     0
 40
0.0
 41
1.175
 50
0.0
 71
     0
 42
6.158564712355089
  3
swissel.ttf
  4

1001
ACAD
1000
Swis721 LtEx BT
1071
       34
  0
STYLE
  5
184E
330
3
100
AcDbSymbolTableRecord
100
AcDbTextStyleTableRecord
  2
LOGO2
 70
     0
 40
0.0
 41
1.175
 50
0.0
 71
     0
 42
6.158564712355089
  3
swiss.ttf
  4

1001
ACAD
1000
Swis721 BT
1071
       34
  0
STYLE
  5
18A6
330
3
100
AcDbSymbolTableRecord
100
AcDbTextStyleTableRecord
  2
AN150
 70
     0
 40
0.0
 41
1.5
 50
0.0
 71
     0
 42
4.0
  3
ARIALN.TTF
  4

1001
ACAD
1000
Arial Narrow
1071
       34
  0
STYLE
  5
1F13
330
3
100
AcDbSymbolTableRecord
100
AcDbTextStyleTableRecord
  2
STYLE1
 70
     0
 40
0.0
 41
1.0
 50
0.0
 71
     0
 42
15.0
  3
ARIALN.TTF
  4

1001
ACAD
1000
Arial Narrow
1071
       34
  0
ENDTAB
  0
TABLE
  2
VIEW
  5
6
330
0
100
AcDbSymbolTable
 70
     0
  0
ENDTAB
  0
TABLE
  2
UCS
  5
7
330
0
100
AcDbSymbolTable
 70
     0
  0
ENDTAB
  0
TABLE
  2
APPID
  5
9
330
0
100
AcDbSymbolTable
 70
     9
  0
APPID
  5
10
330
9
100
AcDbSymbolTableRecord
100
AcDbRegAppTableRecord
  2
ACAD
 70
     0
  0
APPID
  5
24
330
9
100
AcDbSymbolTableRecord
100
AcDbRegAppTableRecord
  2
CONTENTTABDATA
 70
     0
  0
APPID
  5
25
330
9
100
AcDbSymbolTableRecord
100
AcDbRegAppTableRecord
  2
CONTENTCURRENTTAB
 70
     0
  0
APPID
  5
116
330
9
100
AcDbSymbolTableRecord
100
AcDbRegAppTableRecord
  2
CONTENTBLOCKICON
 70
     0
  0
APPID
  5
117
330
9
100
AcDbSymbolTableRecord
100
AcDbRegAppTableRecord
  2
CONTENTBLOCKDESCRIPTION
 70
     0
  0
APPID
  5
1F16
330
9
100
AcDbSymbolTableRecord
100
AcDbRegAppTableRecord
  2
ACAD_PSEXT
 70
     0
  0
APPID
  5
1F17
330
9
100
AcDbSymbolTableRecord
100
AcDbRegAppTableRecord
  2
ACAD_DSTYLE_DIMJOGGED_JOGANGLE_SYMBOL
 70
     0
  0
APPID
  5
25B5
330
9
100
AcDbSymbolTableRecord
100
AcDbRegAppTableRecord
  2
ACAD_DSTYLE_DIMEXT_LENGTH
 70
     0
  0
APPID
  5
25DF
330
9
100
AcDbSymbolTableRecord
100
AcDbRegAppTableRecord
  2
ACAD_MLEADERVER
 70
     0
  0
ENDTAB
  0
TABLE
  2
DIMSTYLE
  5
A
330
0
100
AcDbSymbolTable
 70
     7
100
AcDbDimStyleTable
 71
     2
340
EF9
340
EFA
  0
DIMSTYLE
105
1D
330
A
100
AcDbSymbolTableRecord
100
AcDbDimStyleTableRecord
  2
STANDARD
 70
     0
340
F
  0
DIMSTYLE
105
B80
330
A
100
AcDbSymbolTableRecord
100
AcDbDimStyleTableRecord
  2
TYPENBLATT
 70
     0
 40
100.0
 41
0.25
 42
0.5
 43
0.5
 44
0.25
 73
     0
 74
     0
140
0.25
147
0.125
271
     0
340
428
  0
DIMSTYLE
105
EF9
102
{ACAD_REACTORS
330
170A
330
16E9
330
16E8
330
171C
330
172E
330
172F
330
19AF
330
19B0
330
19B1
330
2245
330
2522
102
}
330
A
100
AcDbSymbolTableRecord
100
AcDbDimStyleTableRecord
  2
TYPENBLATT_M10
 70
     0
 40
100.0
 41
0.25
 42
0.5
 43
0.5
 44
0.25
 73
     0
 74
     0
 77
     1
140
0.25
147
0.075
271
     0
340
428
  0
DIMSTYLE
105
EFA
330
A
100
AcDbSymbolTableRecord
100
AcDbDimStyleTableRecord
  2
TYPENBLATT_M50
 70
     0
 40
500.0
 41
0.25
 42
0.1
 43
0.5
 44
0.25
 73
     0
 74
     0
 77
     1
140
0.25
147
0.075
271
     0
340
428
  0
DIMSTYLE
105
10C6
330
A
100
AcDbSymbolTableRecord
100
AcDbDimStyleTableRecord
  2
TYPENBLATT_BESCHR
 70
     0
 40
100.0
 41
0.25
 42
0.5
 43
0.25
 44
0.25
 73
     0
 74
     0
140
0.25
141
0.0
147
0.075
271
     0
340
428
  0
DIMSTYLE
105
1F14
330
A
100
AcDbSymbolTableRecord
100
AcDbDimStyleTableRecord
  2
ISO-25
 70
     0
 40
10.0
 41
2.5
 42
0.625
 43
3.75
 44
1.25
 73
     0
 74
     0
 77
     1
 78
     8
140
2.5
141
2.5
143
0.03937007874016
147
0.625
171
     3
172
     1
271
     2
272
     2
274
     3
278
    44
283
     0
284
     8
340
F
  0
DIMSTYLE
105
1F15
330
A
100
AcDbSymbolTableRecord
100
AcDbDimStyleTableRecord
  2
Detail
 70
     0
 40
2.0
 41
2.5
 42
0.625
 43
3.75
 44
1.25
 49
1.25
 50
90.0
 73
     0
 74
     0
 78
     8
140
2.5
141
2.5
143
0.03937007874016
147
0.625
171
     3
172
     1
271
     0
272
     0
274
     3
278
    44
283
     0
284
     8
340
F
1001
ACAD_DSTYLE_DIMJOGGED_JOGANGLE_SYMBOL
1070
   384
1040
1.570796326794896
  0
ENDTAB
  0
TABLE
  2
BLOCK_RECORD
  5
1
330
0
100
AcDbSymbolTable
 70
    36
  0
BLOCK_RECORD
  5
18
102
{ACAD_XDICTIONARY
360
2487
102
}
330
1
100
AcDbSymbolTableRecord
100
AcDbBlockTableRecord
  2
*MODEL_SPACE
340
1614
 70
     0
280
     1
281
     0
  0
BLOCK_RECORD
  5
15
330
1
100
AcDbSymbolTableRecord
100
AcDbBlockTableRecord
  2
*PAPER_SPACE
340
1615
 70
     0
280
     1
281
     0
  0
BLOCK_RECORD
  5
175E
330
1
100
AcDbSymbolTableRecord
100
AcDbBlockTableRecord
  2
*D0
340
0
 70
     0
280
     1
281
     0
  0
BLOCK_RECORD
  5
176A
330
1
100
AcDbSymbolTableRecord
100
AcDbBlockTableRecord
  2
*D1
340
0
 70
     0
280
     1
281
     0
  0
BLOCK_RECORD
  5
1776
330
1
100
AcDbSymbolTableRecord
100
AcDbBlockTableRecord
  2
*D2
340
0
 70
     0
280
     1
281
     0
  0
BLOCK_RECORD
  5
1782
330
1
100
AcDbSymbolTableRecord
100
AcDbBlockTableRecord
  2
*D3
340
0
 70
     0
280
     1
281
     0
  0
BLOCK_RECORD
  5
178E
330
1
100
AcDbSymbolTableRecord
100
AcDbBlockTableRecord
  2
*D4
340
0
 70
     0
280
     1
281
     0
  0
BLOCK_RECORD
  5
179B
330
1
100
AcDbSymbolTableRecord
100
AcDbBlockTableRecord
  2
*D5
340
0
 70
     0
280
     1
281
     0
  0
BLOCK_RECORD
  5
1841
330
1
100
AcDbSymbolTableRecord
100
AcDbBlockTableRecord
  2
VOESTALPINE LOGO
340
0
310
2800000020000000200000000100080000000000000400000000000000000000000000000000000000000000000080000080000000808000800000008000800080800000C0C0C000C0DCC000F0CAA6000020400000206000002080000020A0000020C0000020E00000400000004020000040400000406000004080000040A0
310
000040C0000040E00000600000006020000060400000606000006080000060A0000060C0000060E00000800000008020000080400000806000008080000080A0000080C0000080E00000A0000000A0200000A0400000A0600000A0800000A0A00000A0C00000A0E00000C0000000C0200000C0400000C0600000C0800000C0
310
A00000C0C00000C0E00000E0000000E0200000E0400000E0600000E0800000E0A00000E0C00000E0E00040000000400020004000400040006000400080004000A0004000C0004000E00040200000402020004020400040206000402080004020A0004020C0004020E000404000004040200040404000404060004040800040
310
40A0004040C0004040E00040600000406020004060400040606000406080004060A0004060C0004060E00040800000408020004080400040806000408080004080A0004080C0004080E00040A0000040A0200040A0400040A0600040A0800040A0A00040A0C00040A0E00040C0000040C0200040C0400040C0600040C08000
310
40C0A00040C0C00040C0E00040E0000040E0200040E0400040E0600040E0800040E0A00040E0C00040E0E00080000000800020008000400080006000800080008000A0008000C0008000E00080200000802020008020400080206000802080008020A0008020C0008020E00080400000804020008040400080406000804080
310
008040A0008040C0008040E00080600000806020008060400080606000806080008060A0008060C0008060E00080800000808020008080400080806000808080008080A0008080C0008080E00080A0000080A0200080A0400080A0600080A0800080A0A00080A0C00080A0E00080C0000080C0200080C0400080C0600080C0
310
800080C0A00080C0C00080C0E00080E0000080E0200080E0400080E0600080E0800080E0A00080E0C00080E0E000C0000000C0002000C0004000C0006000C0008000C000A000C000C000C000E000C0200000C0202000C0204000C0206000C0208000C020A000C020C000C020E000C0400000C0402000C0404000C0406000C0
310
408000C040A000C040C000C040E000C0600000C0602000C0604000C0606000C0608000C060A000C060C000C060E000C0800000C0802000C0804000C0806000C0808000C080A000C080C000C080E000C0A00000C0A02000C0A04000C0A06000C0A08000C0A0A000C0A0C000C0A0E000C0C00000C0C02000C0C04000C0C06000
310
C0C08000C0C0A000F0FBFF00A4A0A000808080000000FF0000FF000000FFFF00FF000000FF00FF00FFFF0000FFFFFF0000000000000000000000000000000000000000000000000000000000000000000000000000000000000000000000000000000000000000000000000000000000000000000000000000000000000000
310
00000000000000000000000000000000000000000000000000000000000000000000000000000000000000000000000000000000000000000000000000000000000000000000000000000000000000000000000000000000000000000000000000000000000000000000000000000000000000000000000000000000000000
310
00000000000000000000000000000000000000000000000000000000000000000000000000000000000000000000000000000000000000000000000000000000000000000000000000000000000000000000000000000000000000000000000000000000000000000000000000000000000000000000000000000000000000
310
000000000000000000000000000000000000000000000000000000000000000000000000000000000000000000000000000000000000000000000000000000000000000000000000000000000000000000000000000000000000000000000000000000000000000000000000000000000000000000FFFFFFFFFFFFFFFFFFFF
310
FFFFFFFFFFFFFFFFFFFFFFFFFF000000000000000000FFFF00FF00FF00FF00FFA2A2A2A2A2A2A2A2A200000000000000000000000000FFFFFFFFFFFFFFFFFFFFA2A2A2A2A2A2A2A2A2A20000000000000000000000FFFFFFFFFFFFFFFFFFFFFFA2A2A2A2A2A2A2A2A2A2000000000000000000000000000000000000000000
310
00000000000000000000000000000000000000000000000000000000000000000000000000000000000000000000000000000000000000000000000000000000000000000000000000000000000000000000000000000000000000000000000000000000000000000000000000000000000000000000000000000000000000
310
00000000000000000000000000000000000000000000000000000000000000000000000000000000000000000000000000000000000000000000000000000000000000000000000000000000000000000000000000000000000000000000000000000000000000000000000000000000000000000000000000000000000000
310
00000000000000000000000000000000000000000000000000000000000000000000000000000000000000000000000000000000000000000000000000000000000000000000000000000000000000000000000000000000000000000000000000000000000000000000000000000000000000000000000000000000000000
310
0000000000000000000000000000000000000000000000000000000000000000000000000000000000000000000000000000000000000000
102
{BLKREFS
331
1848
102
}
 70
     4
280
     1
281
     0
  0
BLOCK_RECORD
  5
1847
330
1
100
AcDbSymbolTableRecord
100
AcDbBlockTableRecord
  2
LOGO ACAD
340
0
 70
     4
280
     1
281
     0
  0
BLOCK_RECORD
  5
1A35
330
1
100
AcDbSymbolTableRecord
100
AcDbBlockTableRecord
  2
*D8
340
0
 70
     0
280
     1
281
     0
  0
BLOCK_RECORD
  5
1A41
330
1
100
AcDbSymbolTableRecord
100
AcDbBlockTableRecord
  2
*D9
340
0
 70
     0
280
     1
281
     0
  0
BLOCK_RECORD
  5
1A4C
330
1
100
AcDbSymbolTableRecord
100
AcDbBlockTableRecord
  2
*D10
340
0
 70
     0
280
     1
281
     0
  0
BLOCK_RECORD
  5
2246
330
1
100
AcDbSymbolTableRecord
100
AcDbBlockTableRecord
  2
*D31
340
0
 70
     0
280
     1
281
     0
  0
BLOCK_RECORD
  5
2523
330
1
100
AcDbSymbolTableRecord
100
AcDbBlockTableRecord
  2
*D35
340
0
 70
     0
280
     1
281
     0
  0
ENDTAB
  0
ENDSEC
  0
SECTION
  2
BLOCKS
  0
BLOCK
  5
19
330
18
100
AcDbEntity
  8
0
100
AcDbBlockBegin
  2
*MODEL_SPACE
 70
     0
 10
0.0
 20
0.0
 30
0.0
  3
*MODEL_SPACE
  1

  0
ENDBLK
  5
1A
330
18
100
AcDbEntity
  8
0
100
AcDbBlockEnd
  0
BLOCK
  5
16
330
15
100
AcDbEntity
 67
     1
  8
0
100
AcDbBlockBegin
  2
*PAPER_SPACE
 70
     0
 10
0.0
 20
0.0
 30
0.0
  3
*PAPER_SPACE
  1

  0
ENDBLK
  5
17
330
15
100
AcDbEntity
 67
     1
  8
0
100
AcDbBlockEnd
  0
BLOCK
  5
1768
330
175E
100
AcDbEntity
  8
0
100
AcDbBlockBegin
  2
*D0
 70
     1
 10
0.0
 20
0.0
 30
0.0
  3
*D0
  1

  0
LINE
  5
1B58
330
175E
100
AcDbEntity
  8
KOTIERUNG
 62
     0
370
    -2
100
AcDbLine
 10
7260.294337249831
 20
287.7931702119299
 30
0.0
 11
7260.294337249831
 21
-42.97946240429701
 31
0.0
  0
LINE
  5
1B59
330
175E
100
AcDbEntity
  8
KOTIERUNG
 62
     0
370
    -2
100
AcDbLine
 10
7574.920922014918
 20
30.24460021978939
 30
0.0
 11
7574.920922014918
 21
-42.97946240429701
 31
0.0
  0
LINE
  5
1B5A
330
175E
100
AcDbEntity
  8
KOTIERUNG
 62
     0
370
    -2
100
AcDbLine
 10
7310.294337249832
 20
7.02053759570299
 30
0.0
 11
7524.920922014918
 21
7.02053759570299
 31
0.0
  0
SOLID
  5
1B5B
330
175E
100
AcDbEntity
  8
KOTIERUNG
 62
     0
100
AcDbTrace
 10
7310.294337249832
 20
15.35387092903632
 30
0.0
 11
7310.294337249832
 21
-1.312795737630342
 31
0.0
 12
7260.294337249831
 22
7.02053759570299
 32
0.0
 13
7260.294337249831
 23
7.02053759570299
 33
0.0
  0
SOLID
  5
1B5C
330
175E
100
AcDbEntity
  8
KOTIERUNG
 62
     0
100
AcDbTrace
 10
7524.920922014918
 20
15.35387092903632
 30
0.0
 11
7524.920922014918
 21
-1.312795737630342
 31
0.0
 12
7574.920922014918
 22
7.02053759570299
 32
0.0
 13
7574.920922014918
 23
7.02053759570299
 33
0.0
  0
MTEXT
  5
1B5D
330
175E
100
AcDbEntity
  8
KOTIERUNG
 62
     0
100
AcDbMText
 10
7417.607629632375
 20
47.54918698178758
 30
0.0
 40
50.0
 41
0.0
 46
0.0
 71
     5
 72
     1
  1
\A1;315
  7
VOEST
 73
     1
 44
1.0
  0
POINT
  5
1B5E
330
175E
100
AcDbEntity
  8
DEFPOINTS
 62
     0
100
AcDbPoint
 10
7260.294337249831
 20
387.7931702119299
 30
0.0
  0
POINT
  5
1B5F
330
175E
100
AcDbEntity
  8
DEFPOINTS
 62
     0
100
AcDbPoint
 10
7574.920922014918
 20
130.2446002197894
 30
0.0
  0
POINT
  5
1B60
330
175E
100
AcDbEntity
  8
DEFPOINTS
 62
     0
100
AcDbPoint
 10
7574.920922014918
 20
7.02053759570299
 30
0.0
  0
ENDBLK
  5
1769
330
175E
100
AcDbEntity
  8
0
100
AcDbBlockEnd
  0
BLOCK
  5
1774
330
176A
100
AcDbEntity
  8
0
100
AcDbBlockBegin
  2
*D1
 70
     1
 10
0.0
 20
0.0
 30
0.0
  3
*D1
  1

  0
LINE
  5
1B4F
330
176A
100
AcDbEntity
  8
KOTIERUNG
 62
     0
370
    -2
100
AcDbLine
 10
7229.576530245393
 20
445.2446002197894
 30
0.0
 11
7120.566185576193
 21
445.2446002197894
 31
0.0
  0
LINE
  5
1B50
330
176A
100
AcDbEntity
  8
KOTIERUNG
 62
     0
370
    -2
100
AcDbLine
 10
7180.294337249832
 20
-424.7553997802105
 30
0.0
 11
7120.566185576193
 21
-424.7553997802105
 31
0.0
  0
LINE
  5
1B51
330
176A
100
AcDbEntity
  8
KOTIERUNG
 62
     0
370
    -2
100
AcDbLine
 10
7170.566185576193
 20
395.2446002197894
 30
0.0
 11
7170.566185576193
 21
-374.7553997802106
 31
0.0
  0
SOLID
  5
1B52
330
176A
100
AcDbEntity
  8
KOTIERUNG
 62
     0
100
AcDbTrace
 10
7162.23285224286
 20
395.2446002197894
 30
0.0
 11
7178.899518909528
 21
395.2446002197894
 31
0.0
 12
7170.566185576193
 22
445.2446002197894
 32
0.0
 13
7170.566185576193
 23
445.2446002197894
 33
0.0
  0
SOLID
  5
1B53
330
176A
100
AcDbEntity
  8
KOTIERUNG
 62
     0
100
AcDbTrace
 10
7162.23285224286
 20
-374.7553997802106
 30
0.0
 11
7178.899518909528
 21
-374.7553997802106
 31
0.0
 12
7170.566185576193
 22
-424.7553997802105
 32
0.0
 13
7170.566185576193
 23
-424.7553997802105
 33
0.0
  0
MTEXT
  5
1B54
330
176A
100
AcDbEntity
  8
KOTIERUNG
 62
     0
100
AcDbMText
 10
7130.037536190108
 20
10.24460021979057
 30
0.0
 40
50.0
 41
0.0
 46
0.0
 71
     5
 72
     1
  1
\A1;870
  7
VOEST
 11
0.0000000000000001
 21
1.0
 31
0.0
 73
     1
 44
1.0
  0
POINT
  5
1B55
330
176A
100
AcDbEntity
  8
DEFPOINTS
 62
     0
100
AcDbPoint
 10
7329.576530245393
 20
445.2446002197894
 30
0.0
  0
POINT
  5
1B56
330
176A
100
AcDbEntity
  8
DEFPOINTS
 62
     0
100
AcDbPoint
 10
7280.294337249832
 20
-424.7553997802105
 30
0.0
  0
POINT
  5
1B57
330
176A
100
AcDbEntity
  8
DEFPOINTS
 62
     0
100
AcDbPoint
 10
7170.566185576193
 20
-424.7553997802105
 30
0.0
  0
ENDBLK
  5
1775
330
176A
100
AcDbEntity
  8
0
100
AcDbBlockEnd
  0
BLOCK
  5
1780
330
1776
100
AcDbEntity
  8
0
100
AcDbBlockBegin
  2
*D2
 70
     1
 10
0.0
 20
0.0
 30
0.0
  3
*D2
  1

  0
LINE
  5
1B46
330
1776
100
AcDbEntity
  8
KOTIERUNG
 62
     0
370
    -2
100
AcDbLine
 10
7398.831685015216
 20
-119.0830465953178
 30
0.0
 11
7210.294337249831
 21
-119.0830465953177
 31
0.0
  0
LINE
  5
1B47
330
1776
100
AcDbEntity
  8
KOTIERUNG
 62
     0
370
    -2
100
AcDbLine
 10
7398.831685015216
 20
-424.7553997802105
 30
0.0
 11
7210.294337249831
 21
-424.7553997802105
 31
0.0
  0
LINE
  5
1B48
330
1776
100
AcDbEntity
  8
KOTIERUNG
 62
     0
370
    -2
100
AcDbLine
 10
7260.294337249831
 20
-169.0830465953177
 30
0.0
 11
7260.294337249831
 21
-374.7553997802106
 31
0.0
  0
SOLID
  5
1B49
330
1776
100
AcDbEntity
  8
KOTIERUNG
 62
     0
100
AcDbTrace
 10
7251.961003916498
 20
-169.0830465953177
 30
0.0
 11
7268.627670583166
 21
-169.0830465953177
 31
0.0
 12
7260.294337249831
 22
-119.0830465953177
 32
0.0
 13
7260.294337249831
 23
-119.0830465953177
 33
0.0
  0
SOLID
  5
1B4A
330
1776
100
AcDbEntity
  8
KOTIERUNG
 62
     0
100
AcDbTrace
 10
7251.961003916498
 20
-374.7553997802106
 30
0.0
 11
7268.627670583166
 21
-374.7553997802106
 31
0.0
 12
7260.294337249831
 22
-424.7553997802105
 32
0.0
 13
7260.294337249831
 23
-424.7553997802105
 33
0.0
  0
MTEXT
  5
1B4B
330
1776
100
AcDbEntity
  8
KOTIERUNG
 62
     0
100
AcDbMText
 10
7219.765687863747
 20
-266.7132394717355
 30
0.0
 40
50.0
 41
0.0
 46
0.0
 71
     5
 72
     1
  1
\A1;290
  7
VOEST
 11
0.0000000000000001
 21
1.0
 31
0.0
 73
     1
 44
1.0
  0
POINT
  5
1B4C
330
1776
100
AcDbEntity
  8
DEFPOINTS
 62
     0
100
AcDbPoint
 10
7498.831685015216
 20
-119.0830465953178
 30
0.0
  0
POINT
  5
1B4D
330
1776
100
AcDbEntity
  8
DEFPOINTS
 62
     0
100
AcDbPoint
 10
7498.831685015216
 20
-424.7553997802105
 30
0.0
  0
POINT
  5
1B4E
330
1776
100
AcDbEntity
  8
DEFPOINTS
 62
     0
100
AcDbPoint
 10
7260.294337249831
 20
-424.7553997802105
 30
0.0
  0
ENDBLK
  5
1781
330
1776
100
AcDbEntity
  8
0
100
AcDbBlockEnd
  0
BLOCK
  5
178C
330
1782
100
AcDbEntity
  8
0
100
AcDbBlockBegin
  2
*D3
 70
     1
 10
0.0
 20
0.0
 30
0.0
  3
*D3
  1

  0
LINE
  5
1B61
330
1782
100
AcDbEntity
  8
KOTIERUNG
 62
     0
370
    -2
100
AcDbLine
 10
7574.920922014918
 20
-19.75539978021061
 30
0.0
 11
7574.920922014918
 21
-42.97946240429701
 31
0.0
  0
LINE
  5
1B62
330
1782
100
AcDbEntity
  8
KOTIERUNG
 62
     0
370
    -2
100
AcDbLine
 10
7714.920922014918
 20
-19.75539978021061
 30
0.0
 11
7714.920922014918
 21
-42.97946240429701
 31
0.0
  0
LINE
  5
1B63
330
1782
100
AcDbEntity
  8
KOTIERUNG
 62
     0
370
    -2
100
AcDbLine
 10
7624.920922014919
 20
7.02053759570299
 30
0.0
 11
7664.920922014919
 21
7.02053759570299
 31
0.0
  0
SOLID
  5
1B64
330
1782
100
AcDbEntity
  8
KOTIERUNG
 62
     0
100
AcDbTrace
 10
7624.920922014919
 20
15.35387092903632
 30
0.0
 11
7624.920922014919
 21
-1.312795737630342
 31
0.0
 12
7574.920922014918
 22
7.02053759570299
 32
0.0
 13
7574.920922014918
 23
7.02053759570299
 33
0.0
  0
SOLID
  5
1B65
330
1782
100
AcDbEntity
  8
KOTIERUNG
 62
     0
100
AcDbTrace
 10
7664.920922014919
 20
15.35387092903632
 30
0.0
 11
7664.920922014919
 21
-1.312795737630342
 31
0.0
 12
7714.920922014918
 22
7.02053759570299
 32
0.0
 13
7714.920922014918
 23
7.02053759570299
 33
0.0
  0
MTEXT
  5
1B66
330
1782
100
AcDbEntity
  8
KOTIERUNG
 62
     0
100
AcDbMText
 10
7644.920922014918
 20
47.54918698178758
 30
0.0
 40
50.0
 41
0.0
 46
0.0
 71
     5
 72
     1
  1
\A1;140
  7
VOEST
 73
     1
 44
1.0
  0
POINT
  5
1B67
330
1782
100
AcDbEntity
  8
DEFPOINTS
 62
     0
100
AcDbPoint
 10
7574.920922014918
 20
80.24460021978939
 30
0.0
  0
POINT
  5
1B68
330
1782
100
AcDbEntity
  8
DEFPOINTS
 62
     0
100
AcDbPoint
 10
7714.920922014918
 20
80.24460021978939
 30
0.0
  0
POINT
  5
1B69
330
1782
100
AcDbEntity
  8
DEFPOINTS
 62
     0
100
AcDbPoint
 10
7714.920922014918
 20
7.02053759570299
 30
0.0
  0
ENDBLK
  5
178D
330
1782
100
AcDbEntity
  8
0
100
AcDbBlockEnd
  0
BLOCK
  5
1799
330
178E
100
AcDbEntity
  8
0
100
AcDbBlockBegin
  2
*D4
 70
     1
 10
0.0
 20
0.0
 30
0.0
  3
*D4
  1

  0
LINE
  5
1B6A
330
178E
100
AcDbEntity
  8
KOTIERUNG
 62
     0
370
    -2
100
AcDbLine
 10
7674.920922014918
 20
395.2446002197894
 30
0.0
 11
7748.586261438621
 21
395.2446002197894
 31
0.0
  0
LINE
  5
1B6B
330
178E
100
AcDbEntity
  8
KOTIERUNG
 62
     0
370
    -2
100
AcDbLine
 10
7724.623069650978
 20
445.2446002197894
 30
0.0
 11
7748.586261438621
 21
445.2446002197894
 31
0.0
  0
LINE
  5
1B6C
330
178E
100
AcDbEntity
  8
KOTIERUNG
 62
     0
370
    -2
100
AcDbLine
 10
7698.58626143862
 20
345.2446002197894
 30
0.0
 11
7698.58626143862
 21
295.2446002197894
 31
0.0
  0
LINE
  5
1B6D
330
178E
100
AcDbEntity
  8
KOTIERUNG
 62
     0
370
    -2
100
AcDbLine
 10
7698.58626143862
 20
495.2446002197894
 30
0.0
 11
7698.58626143862
 21
633.8394160451644
 31
0.0
  0
SOLID
  5
1B6E
330
178E
100
AcDbEntity
  8
KOTIERUNG
 62
     0
100
AcDbTrace
 10
7690.252928105287
 20
345.2446002197894
 30
0.0
 11
7706.919594771953
 21
345.2446002197894
 31
0.0
 12
7698.58626143862
 22
395.2446002197894
 32
0.0
 13
7698.58626143862
 23
395.2446002197894
 33
0.0
  0
SOLID
  5
1B6F
330
178E
100
AcDbEntity
  8
KOTIERUNG
 62
     0
100
AcDbTrace
 10
7690.252928105287
 20
495.2446002197894
 30
0.0
 11
7706.919594771953
 21
495.2446002197894
 31
0.0
 12
7698.58626143862
 22
445.2446002197894
 32
0.0
 13
7698.58626143862
 23
445.2446002197894
 33
0.0
  0
MTEXT
  5
1B70
330
178E
100
AcDbEntity
  8
KOTIERUNG
 62
     0
100
AcDbMText
 10
7658.057612052536
 20
589.5420081324783
 30
0.0
 40
50.0
 41
0.0
 46
0.0
 71
     5
 72
     1
  1
\A1;50
  7
VOEST
 11
0.0000000000000001
 21
1.0
 31
0.0
 73
     1
 44
1.0
  0
POINT
  5
1B71
330
178E
100
AcDbEntity
  8
DEFPOINTS
 62
     0
100
AcDbPoint
 10
7574.920922014918
 20
395.2446002197894
 30
0.0
  0
POINT
  5
1B72
330
178E
100
AcDbEntity
  8
DEFPOINTS
 62
     0
100
AcDbPoint
 10
7624.623069650978
 20
445.2446002197894
 30
0.0
  0
POINT
  5
1B73
330
178E
100
AcDbEntity
  8
DEFPOINTS
 62
     0
100
AcDbPoint
 10
7698.58626143862
 20
445.2446002197894
 30
0.0
  0
ENDBLK
  5
179A
330
178E
100
AcDbEntity
  8
0
100
AcDbBlockEnd
  0
BLOCK
  5
17A5
330
179B
100
AcDbEntity
  8
0
100
AcDbBlockBegin
  2
*D5
 70
     1
 10
0.0
 20
0.0
 30
0.0
  3
*D5
  1

  0
LINE
  5
1B74
330
179B
100
AcDbEntity
  8
KOTIERUNG
 62
     0
370
    -2
100
AcDbLine
 10
7814.920922014919
 20
325.2446002197893
 30
0.0
 11
7886.844410708782
 21
325.2446002197893
 31
0.0
  0
LINE
  5
1B75
330
179B
100
AcDbEntity
  8
KOTIERUNG
 62
     0
370
    -2
100
AcDbLine
 10
7429.576530245393
 20
445.2446002197894
 30
0.0
 11
7886.844410708782
 21
445.2446002197892
 31
0.0
  0
LINE
  5
1B76
330
179B
100
AcDbEntity
  8
KOTIERUNG
 62
     0
370
    -2
100
AcDbLine
 10
7836.844410708782
 20
275.2446002197893
 30
0.0
 11
7836.844410708782
 21
225.2446002197894
 31
0.0
  0
LINE
  5
1B77
330
179B
100
AcDbEntity
  8
KOTIERUNG
 62
     0
370
    -2
100
AcDbLine
 10
7836.844410708782
 20
495.2446002197892
 30
0.0
 11
7836.844410708782
 21
545.2446002197892
 31
0.0
  0
SOLID
  5
1B78
330
179B
100
AcDbEntity
  8
KOTIERUNG
 62
     0
100
AcDbTrace
 10
7828.511077375448
 20
275.2446002197893
 30
0.0
 11
7845.177744042115
 21
275.2446002197893
 31
0.0
 12
7836.844410708782
 22
325.2446002197893
 32
0.0
 13
7836.844410708782
 23
325.2446002197893
 33
0.0
  0
SOLID
  5
1B79
330
179B
100
AcDbEntity
  8
KOTIERUNG
 62
     0
100
AcDbTrace
 10
7828.511077375448
 20
495.2446002197892
 30
0.0
 11
7845.177744042115
 21
495.2446002197892
 31
0.0
 12
7836.844410708782
 22
445.2446002197892
 32
0.0
 13
7836.844410708782
 23
445.2446002197892
 33
0.0
  0
MTEXT
  5
1B7A
330
179B
100
AcDbEntity
  8
KOTIERUNG
 62
     0
100
AcDbMText
 10
7796.315761322697
 20
385.2446002197906
 30
0.0
 40
50.0
 41
0.0
 46
0.0
 71
     5
 72
     1
  1
\A1;120
  7
VOEST
 11
0.0000000000000001
 21
1.0
 31
0.0
 73
     1
 44
1.0
  0
POINT
  5
1B7B
330
179B
100
AcDbEntity
  8
DEFPOINTS
 62
     0
100
AcDbPoint
 10
7714.920922014918
 20
325.2446002197894
 30
0.0
  0
POINT
  5
1B7C
330
179B
100
AcDbEntity
  8
DEFPOINTS
 62
     0
100
AcDbPoint
 10
7329.576530245393
 20
445.2446002197894
 30
0.0
  0
POINT
  5
1B7D
330
179B
100
AcDbEntity
  8
DEFPOINTS
 62
     0
100
AcDbPoint
 10
7836.844410708782
 20
445.2446002197892
 30
0.0
  0
ENDBLK
  5
17A6
330
179B
100
AcDbEntity
  8
0
100
AcDbBlockEnd
  0
BLOCK
  5
1845
330
1841
100
AcDbEntity
  8
0
100
AcDbBlockBegin
  2
VOESTALPINE LOGO
 70
     0
 10
0.0
 20
0.0
 30
0.0
  3
VOESTALPINE LOGO
  1

  0
TEXT
  5
1842
330
1841
100
AcDbEntity
  8
0
 62
   155
100
AcDbText
 10
-2.022376810040597
 20
1.345163130846486
 30
0.0
 40
4.761899999999999
  1
alpine
 41
1.29
  7
LOGO2
100
AcDbText
  0
TEXT
  5
1843
330
1841
100
AcDbEntity
  8
0
 62
     7
100
AcDbText
 10
-24.96332103124969
 20
-3.319987708589252
 30
0.0
 40
2.050802049214244
  1
KREMS FINALTECHNIK GMBH
 41
1.219999999999999
  7
LOGO3
100
AcDbText
  0
TEXT
  5
1844
330
1841
100
AcDbEntity
  8
0
 62
     7
100
AcDbText
 10
-25.59751279130563
 20
1.29203428188444
 30
0.0
 40
4.761899999999999
  1
voest
 41
1.379999999999999
  7
LOGO1
100
AcDbText
  0
ENDBLK
  5
1846
330
1841
100
AcDbEntity
  8
0
100
AcDbBlockEnd
  0
BLOCK
  5
1849
330
1847
100
AcDbEntity
  8
0
100
AcDbBlockBegin
  2
LOGO ACAD
 70
     0
 10
0.0
 20
0.0
 30
0.0
  3
LOGO ACAD
  1

  0
INSERT
  5
1848
330
1847
100
AcDbEntity
  8
0
100
AcDbBlockReference
  2
VOESTALPINE LOGO
 10
25.66052293085149
 20
-5.598002378525222
 30
0.0
  0
ENDBLK
  5
184A
330
1847
100
AcDbEntity
  8
0
100
AcDbBlockEnd
  0
BLOCK
  5
1A3F
330
1A35
100
AcDbEntity
  8
0
100
AcDbBlockBegin
  2
*D8
 70
     1
 10
0.0
 20
0.0
 30
0.0
  3
*D8
  1

  0
LINE
  5
1CED
330
1A35
100
AcDbEntity
  8
KOTIERUNG
 62
     0
370
    -2
100
AcDbLine
 10
5771.286258449497
 20
-2780.791577051828
 30
0.0
 11
5771.286258449497
 21
-2325.219027243894
 31
0.0
  0
LINE
  5
1CEE
330
1A35
100
AcDbEntity
  8
KOTIERUNG
 62
     0
370
    -2
100
AcDbLine
 10
9571.286258449498
 20
-2730.791577051828
 30
0.0
 11
9571.286258449498
 21
-2325.219027243894
 31
0.0
  0
LINE
  5
1CEF
330
1A35
100
AcDbEntity
  8
KOTIERUNG
 62
     0
370
    -2
100
AcDbLine
 10
5896.286258449497
 20
-2450.219027243895
 30
0.0
 11
9446.286258449498
 21
-2450.219027243895
 31
0.0
  0
SOLID
  5
1CF0
330
1A35
100
AcDbEntity
  8
KOTIERUNG
 62
     0
100
AcDbTrace
 10
5896.286258449497
 20
-2429.385693910561
 30
0.0
 11
5896.286258449497
 21
-2471.052360577228
 31
0.0
 12
5771.286258449497
 22
-2450.219027243895
 32
0.0
 13
5771.286258449497
 23
-2450.219027243895
 33
0.0
  0
SOLID
  5
1CF1
330
1A35
100
AcDbEntity
  8
KOTIERUNG
 62
     0
100
AcDbTrace
 10
9446.286258449498
 20
-2429.385693910561
 30
0.0
 11
9446.286258449498
 21
-2471.052360577228
 31
0.0
 12
9571.286258449498
 22
-2450.219027243895
 32
0.0
 13
9571.286258449498
 23
-2450.219027243895
 33
0.0
  0
MTEXT
  5
1CF2
330
1A35
100
AcDbEntity
  8
KOTIERUNG
 62
     0
100
AcDbMText
 10
7671.286258449498
 20
-2348.897403778683
 30
0.0
 40
125.0
 41
0.0
 46
0.0
 71
     5
 72
     1
  1
\A1;3800
  7
VOEST
 73
     1
 44
1.0
  0
POINT
  5
1CF3
330
1A35
100
AcDbEntity
  8
DEFPOINTS
 62
     0
100
AcDbPoint
 10
5771.286258449497
 20
-3030.791577051828
 30
0.0
  0
POINT
  5
1CF4
330
1A35
100
AcDbEntity
  8
DEFPOINTS
 62
     0
100
AcDbPoint
 10
9571.286258449498
 20
-2980.791577051828
 30
0.0
  0
POINT
  5
1CF5
330
1A35
100
AcDbEntity
  8
DEFPOINTS
 62
     0
100
AcDbPoint
 10
9571.286258449498
 20
-2450.219027243895
 30
0.0
  0
ENDBLK
  5
1A40
330
1A35
100
AcDbEntity
  8
0
100
AcDbBlockEnd
  0
BLOCK
  5
1A4A
330
1A41
100
AcDbEntity
  8
0
100
AcDbBlockBegin
  2
*D9
 70
     1
 10
0.0
 20
0.0
 30
0.0
  3
*D9
  1

  0
LINE
  5
1CFF
330
1A41
100
AcDbEntity
  8
KOTIERUNG
 62
     0
370
    -2
100
AcDbLine
 10
7671.286258449498
 20
-2780.791577051828
 30
0.0
 11
7671.286258449498
 21
-2549.836823248324
 31
0.0
  0
LINE
  5
1D00
330
1A41
100
AcDbEntity
  8
KOTIERUNG
 62
     0
370
    -2
100
AcDbLine
 10
9571.286258449498
 20
-2780.791577051828
 30
0.0
 11
9571.286258449498
 21
-2549.836823248324
 31
0.0
  0
LINE
  5
1D01
330
1A41
100
AcDbEntity
  8
KOTIERUNG
 62
     0
370
    -2
100
AcDbLine
 10
7796.286258449498
 20
-2674.836823248324
 30
0.0
 11
9446.286258449498
 21
-2674.836823248324
 31
0.0
  0
SOLID
  5
1D02
330
1A41
100
AcDbEntity
  8
KOTIERUNG
 62
     0
100
AcDbTrace
 10
7796.286258449498
 20
-2654.00348991499
 30
0.0
 11
7796.286258449498
 21
-2695.670156581657
 31
0.0
 12
7671.286258449498
 22
-2674.836823248324
 32
0.0
 13
7671.286258449498
 23
-2674.836823248324
 33
0.0
  0
SOLID
  5
1D03
330
1A41
100
AcDbEntity
  8
KOTIERUNG
 62
     0
100
AcDbTrace
 10
9446.286258449498
 20
-2654.00348991499
 30
0.0
 11
9446.286258449498
 21
-2695.670156581657
 31
0.0
 12
9571.286258449498
 22
-2674.836823248324
 32
0.0
 13
9571.286258449498
 23
-2674.836823248324
 33
0.0
  0
MTEXT
  5
1D04
330
1A41
100
AcDbEntity
  8
KOTIERUNG
 62
     0
100
AcDbMText
 10
8621.286258449499
 20
-2573.515199783112
 30
0.0
 40
125.0
 41
0.0
 46
0.0
 71
     5
 72
     1
  1
\A1;1900
  7
VOEST
 73
     1
 44
1.0
  0
POINT
  5
1D05
330
1A41
100
AcDbEntity
  8
DEFPOINTS
 62
     0
100
AcDbPoint
 10
7671.286258449498
 20
-3030.791577051828
 30
0.0
  0
POINT
  5
1D06
330
1A41
100
AcDbEntity
  8
DEFPOINTS
 62
     0
100
AcDbPoint
 10
9571.286258449498
 20
-3030.791577051828
 30
0.0
  0
POINT
  5
1D07
330
1A41
100
AcDbEntity
  8
DEFPOINTS
 62
     0
100
AcDbPoint
 10
9571.286258449498
 20
-2674.836823248324
 30
0.0
  0
ENDBLK
  5
1A4B
330
1A41
100
AcDbEntity
  8
0
100
AcDbBlockEnd
  0
BLOCK
  5
1A56
330
1A4C
100
AcDbEntity
  8
0
100
AcDbBlockBegin
  2
*D10
 70
     1
 10
0.0
 20
0.0
 30
0.0
  3
*D10
  1

  0
LINE
  5
1D1A
330
1A4C
100
AcDbEntity
  8
KOTIERUNG
 62
     0
370
    -2
100
AcDbLine
 10
5771.286258449497
 20
-2780.791577051828
 30
0.0
 11
5771.286258449497
 21
-2549.836823248324
 31
0.0
  0
LINE
  5
1D1B
330
1A4C
100
AcDbEntity
  8
KOTIERUNG
 62
     0
370
    -2
100
AcDbLine
 10
7671.286258449498
 20
-2780.791577051828
 30
0.0
 11
7671.286258449498
 21
-2549.836823248324
 31
0.0
  0
LINE
  5
1D1C
330
1A4C
100
AcDbEntity
  8
KOTIERUNG
 62
     0
370
    -2
100
AcDbLine
 10
5896.286258449497
 20
-2674.836823248324
 30
0.0
 11
7546.286258449498
 21
-2674.836823248324
 31
0.0
  0
SOLID
  5
1D1D
330
1A4C
100
AcDbEntity
  8
KOTIERUNG
 62
     0
100
AcDbTrace
 10
5896.286258449497
 20
-2654.00348991499
 30
0.0
 11
5896.286258449497
 21
-2695.670156581657
 31
0.0
 12
5771.286258449497
 22
-2674.836823248324
 32
0.0
 13
5771.286258449497
 23
-2674.836823248324
 33
0.0
  0
SOLID
  5
1D1E
330
1A4C
100
AcDbEntity
  8
KOTIERUNG
 62
     0
100
AcDbTrace
 10
7546.286258449498
 20
-2654.00348991499
 30
0.0
 11
7546.286258449498
 21
-2695.670156581657
 31
0.0
 12
7671.286258449498
 22
-2674.836823248324
 32
0.0
 13
7671.286258449498
 23
-2674.836823248324
 33
0.0
  0
MTEXT
  5
1D1F
330
1A4C
100
AcDbEntity
  8
KOTIERUNG
 62
     0
100
AcDbMText
 10
6721.286258449499
 20
-2573.515199783112
 30
0.0
 40
125.0
 41
0.0
 46
0.0
 71
     5
 72
     1
  1
\A1;1900
  7
VOEST
 73
     1
 44
1.0
  0
POINT
  5
1D20
330
1A4C
100
AcDbEntity
  8
DEFPOINTS
 62
     0
100
AcDbPoint
 10
5771.286258449497
 20
-3030.791577051828
 30
0.0
  0
POINT
  5
1D21
330
1A4C
100
AcDbEntity
  8
DEFPOINTS
 62
     0
100
AcDbPoint
 10
7671.286258449498
 20
-3030.791577051828
 30
0.0
  0
POINT
  5
1D22
330
1A4C
100
AcDbEntity
  8
DEFPOINTS
 62
     0
100
AcDbPoint
 10
7671.286258449498
 20
-2674.836823248324
 30
0.0
  0
ENDBLK
  5
1A57
330
1A4C
100
AcDbEntity
  8
0
100
AcDbBlockEnd
  0
BLOCK
  5
2251
330
2246
100
AcDbEntity
  8
0
100
AcDbBlockBegin
  2
*D31
 70
     1
 10
0.0
 20
0.0
 30
0.0
  3
*D31
  1

  0
LINE
  5
2306
330
2246
100
AcDbEntity
  8
KOTIERUNG
 62
     0
370
    -2
100
AcDbLine
 10
7764.920922014919
 20
325.2446002197894
 30
0.0
 11
7886.844410708782
 21
325.2446002197893
 31
0.0
  0
LINE
  5
2307
330
2246
100
AcDbEntity
  8
KOTIERUNG
 62
     0
370
    -2
100
AcDbLine
 10
7764.920922014919
 20
-924.7551033364388
 30
0.0
 11
7886.844410708782
 21
-924.7551033364388
 31
0.0
  0
LINE
  5
2308
330
2246
100
AcDbEntity
  8
KOTIERUNG
 62
     0
370
    -2
100
AcDbLine
 10
7836.844410708782
 20
275.2446002197893
 30
0.0
 11
7836.844410708782
 21
-874.7551033364388
 31
0.0
  0
SOLID
  5
2309
330
2246
100
AcDbEntity
  8
KOTIERUNG
 62
     0
100
AcDbTrace
 10
7828.511077375448
 20
275.2446002197893
 30
0.0
 11
7845.177744042115
 21
275.2446002197893
 31
0.0
 12
7836.844410708782
 22
325.2446002197893
 32
0.0
 13
7836.844410708782
 23
325.2446002197893
 33
0.0
  0
SOLID
  5
230A
330
2246
100
AcDbEntity
  8
KOTIERUNG
 62
     0
100
AcDbTrace
 10
7828.511077375448
 20
-874.7551033364388
 30
0.0
 11
7845.177744042115
 21
-874.7551033364388
 31
0.0
 12
7836.844410708782
 22
-924.7551033364388
 32
0.0
 13
7836.844410708782
 23
-924.7551033364388
 33
0.0
  0
MTEXT
  5
230B
330
2246
100
AcDbEntity
  8
KOTIERUNG
 62
     0
100
AcDbMText
 10
7796.315761322697
 20
-299.7552515583235
 30
0.0
 40
50.0
 41
0.0
 46
0.0
 71
     5
 72
     1
  1
\A1;1250
  7
VOEST
 11
0.0000000000000001
 21
1.0
 31
0.0
 73
     1
 44
1.0
  0
POINT
  5
230C
330
2246
100
AcDbEntity
  8
DEFPOINTS
 62
     0
100
AcDbPoint
 10
7714.920922014918
 20
325.2446002197894
 30
0.0
  0
POINT
  5
230D
330
2246
100
AcDbEntity
  8
DEFPOINTS
 62
     0
100
AcDbPoint
 10
7714.920922014918
 20
-924.7551033364388
 30
0.0
  0
POINT
  5
230E
330
2246
100
AcDbEntity
  8
DEFPOINTS
 62
     0
100
AcDbPoint
 10
7836.844410708782
 20
-924.7551033364388
 30
0.0
  0
ENDBLK
  5
2252
330
2246
100
AcDbEntity
  8
0
100
AcDbBlockEnd
  0
BLOCK
  5
252E
330
2523
100
AcDbEntity
  8
0
100
AcDbBlockBegin
  2
*D35
 70
     1
 10
0.0
 20
0.0
 30
0.0
  3
*D35
  1

  0
LINE
  5
2539
330
2523
100
AcDbEntity
  8
KOTIERUNG
 62
     0
370
    -2
100
AcDbLine
 10
7473.01855960098
 20
-424.7551033364387
 30
0.0
 11
7210.294337249831
 21
-424.7551033364387
 31
0.0
  0
LINE
  5
253A
330
2523
100
AcDbEntity
  8
KOTIERUNG
 62
     0
370
    -2
100
AcDbLine
 10
7473.01855960098
 20
-1181.318693931898
 30
0.0
 11
7210.294337249831
 21
-1181.318693931898
 31
0.0
  0
LINE
  5
253B
330
2523
100
AcDbEntity
  8
KOTIERUNG
 62
     0
370
    -2
100
AcDbLine
 10
7260.294337249831
 20
-474.7551033364387
 30
0.0
 11
7260.294337249831
 21
-1131.318693931898
 31
0.0
  0
SOLID
  5
253C
330
2523
100
AcDbEntity
  8
KOTIERUNG
 62
     0
100
AcDbTrace
 10
7251.961003916498
 20
-474.7551033364387
 30
0.0
 11
7268.627670583166
 21
-474.7551033364387
 31
0.0
 12
7260.294337249831
 22
-424.7551033364387
 32
0.0
 13
7260.294337249831
 23
-424.7551033364387
 33
0.0
  0
SOLID
  5
253D
330
2523
100
AcDbEntity
  8
KOTIERUNG
 62
     0
100
AcDbTrace
 10
7251.961003916498
 20
-1131.318693931898
 30
0.0
 11
7268.627670583166
 21
-1131.318693931898
 31
0.0
 12
7260.294337249831
 22
-1181.318693931898
 32
0.0
 13
7260.294337249831
 23
-1181.318693931898
 33
0.0
  0
MTEXT
  5
253E
330
2523
100
AcDbEntity
  8
KOTIERUNG
 62
     0
100
AcDbMText
 10
7219.765687863747
 20
-803.0368986341674
 30
0.0
 40
50.0
 41
0.0
 46
0.0
 71
     5
 72
     1
  1
\A1;1000
  7
VOEST
 11
0.0000000000000001
 21
1.0
 31
0.0
 73
     1
 44
1.0
  0
POINT
  5
253F
330
2523
100
AcDbEntity
  8
DEFPOINTS
 62
     0
100
AcDbPoint
 10
7573.01855960098
 20
-424.7551033364388
 30
0.0
  0
POINT
  5
2540
330
2523
100
AcDbEntity
  8
DEFPOINTS
 62
     0
100
AcDbPoint
 10
7573.01855960098
 20
-1181.318693931898
 30
0.0
  0
POINT
  5
2541
330
2523
100
AcDbEntity
  8
DEFPOINTS
 62
     0
100
AcDbPoint
 10
7260.294337249831
 20
-1181.318693931898
 30
0.0
  0
ENDBLK
  5
252F
330
2523
100
AcDbEntity
  8
0
100
AcDbBlockEnd
  0
ENDSEC
  0
SECTION
  2
ENTITIES
  0
MTEXT
  5
10E0
330
18
100
AcDbEntity
  8
KOTIERUNG
100
AcDbMText
 10
7495.698312492914
 20
470.9395909145314
 30
0.0
 40
25.0
 41
0.0
 46
0.0
 71
     4
 72
     1
  1
\A1;
  7
VOEST
 73
     1
 44
1.0
  0
TEXT
  5
1609
330
18
100
AcDbEntity
  8
TEXT
100
AcDbText
 10
6970.022479535725
 20
780.1906914907785
 30
0.0
 40
100.0
  1
KREMSBARRIER 1 RH2 MÜF
  7
VOESTB
100
AcDbText
  0
DIMENSION
  5
16E8
330
18
100
AcDbEntity
  8
KOTIERUNG
100
AcDbDimension
  2
*D0
 10
7574.920922014918
 20
7.02053759570299
 30
0.0
 11
7417.607629632375
 21
47.54918698178758
 31
0.0
 70
    32
 71
     5
 42
314.6265847650866
 73
     0
 74
     0
 75
     0
  3
TYPENBLATT_M10
100
AcDbAlignedDimension
 13
7260.294337249831
 23
387.7931702119299
 33
0.0
 14
7574.920922014918
 24
130.2446002197894
 34
0.0
100
AcDbRotatedDimension
1001
ACAD
1000
DSTYLE
1002
{
1070
    40
1040
200.0
1002
}
  0
DIMENSION
  5
16E9
330
18
100
AcDbEntity
  8
KOTIERUNG
100
AcDbDimension
  2
*D1
 10
7170.566185576193
 20
-424.7553997802105
 30
0.0
 11
7130.037536190108
 21
10.24460021979057
 31
0.0
 70
    32
 71
     5
 42
870.0
 73
     0
 74
     0
 75
     0
  3
TYPENBLATT_M10
100
AcDbAlignedDimension
 13
7329.576530245393
 23
445.2446002197894
 33
0.0
 14
7280.294337249832
 24
-424.7553997802105
 34
0.0
 50
90.0
100
AcDbRotatedDimension
1001
ACAD
1000
DSTYLE
1002
{
1070
    40
1040
200.0
1002
}
  0
LINE
  5
16EA
330
18
100
AcDbEntity
  8
50
100
AcDbLine
 10
7574.920922014918
 20
395.2446002197894
 30
0.0
 11
7574.920922014918
 21
130.2446002197894
 31
0.0
  0
LINE
  5
16EC
330
18
100
AcDbEntity
  8
50
100
AcDbLine
 10
7350.420922014919
 20
350.2446002197894
 30
0.0
 11
7367.732713285334
 21
185.5339087176357
 31
0.0
  0
LINE
  5
16EE
330
18
100
AcDbEntity
  8
50
100
AcDbLine
 10
7574.92092201492
 20
-924.7551033364388
 30
0.0
 11
7574.920922014918
 21
325.2446002197894
 31
0.0
  0
LINE
  5
16EF
330
18
100
AcDbEntity
  8
50
100
AcDbLine
 10
7714.920922014917
 20
-924.7551033364388
 30
0.0
 11
7714.920922014918
 21
325.2446002197894
 31
0.0
  0
LINE
  5
16F0
330
18
100
AcDbEntity
  8
18
  6
STRICHLINIE
 48
0.3
100
AcDbLine
 10
7579.920922014919
 20
-924.7551033364388
 30
0.0
 11
7579.920922014919
 21
325.2446002197894
 31
0.0
  0
LINE
  5
16F1
330
18
100
AcDbEntity
  8
18
  6
STRICHLINIE
 48
0.3
100
AcDbLine
 10
7709.920922014919
 20
-924.7551033364388
 30
0.0
 11
7709.920922014919
 21
325.2446002197894
 31
0.0
  0
ARC
  5
16F2
330
18
100
AcDbEntity
  8
70
100
AcDbCircle
 10
7298.174769883981
 20
187.2262488123947
 30
0.0
 40
16.8
100
AcDbArc
 50
125.3725732018817
 51
185.9999999999965
  0
DIMENSION
  5
170A
330
18
100
AcDbEntity
  8
KOTIERUNG
100
AcDbDimension
  2
*D2
 10
7260.294337249831
 20
-424.7553997802105
 30
0.0
 11
7260.294337249831
 21
-266.7132394717355
 31
0.0
 70
   160
  1
290
 71
     5
 42
305.6723531848928
 73
     0
 74
     0
 75
     0
  3
TYPENBLATT_M10
100
AcDbAlignedDimension
 13
7498.831685015216
 23
-119.0830465953178
 33
0.0
 14
7498.831685015216
 24
-424.7553997802105
 34
0.0
 50
90.0
100
AcDbRotatedDimension
1001
ACAD
1000
DSTYLE
1002
{
1070
    40
1040
200.0
1002
}
  0
LINE
  5
1710
330
18
100
AcDbEntity
  8
50
100
AcDbLine
 10
8050.244447459075
 20
-424.7553997802105
 30
0.0
 11
7082.458790143587
 21
-424.7553997802105
 31
0.0
  0
LINE
  5
1711
330
18
100
AcDbEntity
  8
50
100
AcDbLine
 10
7280.294337249833
 20
-424.7553997802107
 30
0.0
 11
7280.294337249832
 21
-424.7553997802105
 31
0.0
  0
LINE
  5
1714
330
18
100
AcDbEntity
  8
50
100
AcDbLine
 10
7574.920922014918
 20
130.2446002197894
 30
0.0
 11
7367.732713285334
 21
185.5339087176357
 31
0.0
  0
ARC
  5
1716
330
18
100
AcDbEntity
  8
70
100
AcDbCircle
 10
7301.208881351482
 20
158.3586065158488
 30
0.0
 40
16.8
100
AcDbArc
 50
185.9999999999965
 51
246.8801387770838
  0
LINE
  5
1717
330
18
100
AcDbEntity
  8
70
100
AcDbLine
 10
7281.466802041794
 20
185.4701706294981
 30
0.0
 11
7284.500913509295
 21
156.6025283329522
 31
0.0
  0
LINE
  5
171B
330
18
100
AcDbEntity
  8
70
100
AcDbLine
 10
7294.612261502644
 20
142.9078911094375
 30
0.0
 11
7364.489036976789
 21
113.0742871667862
 31
0.0
  0
DIMENSION
  5
171C
330
18
100
AcDbEntity
  8
KOTIERUNG
100
AcDbDimension
  2
*D3
 10
7714.920922014918
 20
7.02053759570299
 30
0.0
 11
7644.920922014918
 21
47.54918698178758
 31
0.0
 70
    32
 71
     5
 42
140.0
 73
     0
 74
     0
 75
     0
  3
TYPENBLATT_M10
100
AcDbAlignedDimension
 13
7574.920922014918
 23
80.24460021978939
 33
0.0
 14
7714.920922014918
 24
80.24460021978939
 34
0.0
100
AcDbRotatedDimension
1001
ACAD
1000
DSTYLE
1002
{
1070
    40
1040
200.0
1002
}
  0
DIMENSION
  5
172E
330
18
100
AcDbEntity
  8
KOTIERUNG
100
AcDbDimension
  2
*D4
 10
7698.58626143862
 20
445.2446002197894
 30
0.0
 11
7658.057612052536
 21
589.5420081324783
 31
0.0
 70
    32
 71
     5
 42
50.0
 73
     0
 74
     0
 75
     0
  3
TYPENBLATT_M10
100
AcDbAlignedDimension
 13
7574.920922014918
 23
395.2446002197894
 33
0.0
 14
7624.623069650978
 24
445.2446002197894
 34
0.0
 50
90.0
100
AcDbRotatedDimension
1001
ACAD
1000
DSTYLE
1002
{
1070
    40
1040
200.0
1002
}
  0
DIMENSION
  5
172F
330
18
100
AcDbEntity
  8
KOTIERUNG
100
AcDbDimension
  2
*D5
 10
7836.844410708782
 20
445.2446002197892
 30
0.0
 11
7836.844410708782
 21
385.2446002197906
 31
0.0
 70
   160
 71
     5
 42
119.9999999999999
 73
     0
 74
     0
 75
     0
  3
TYPENBLATT_M10
100
AcDbAlignedDimension
 13
7714.920922014918
 23
325.2446002197894
 33
0.0
 14
7329.576530245393
 24
445.2446002197894
 34
0.0
 50
90.0
100
AcDbRotatedDimension
1001
ACAD
1000
DSTYLE
1002
{
1070
    40
1040
200.0
1002
}
  0
LINE
  5
1730
330
18
100
AcDbEntity
  8
50
100
AcDbLine
 10
7574.920922014918
 20
395.2446002197894
 30
0.0
 11
7345.691231427963
 21
395.2446002197894
 31
0.0
  0
LINE
  5
1731
330
18
100
AcDbEntity
  8
50
100
AcDbLine
 10
7350.420922014919
 20
350.2446002197894
 30
0.0
 11
7345.691231427963
 21
395.2446002197894
 31
0.0
  0
LINE
  5
1734
330
18
100
AcDbEntity
  8
70
100
AcDbLine
 10
7263.420480875146
 20
357.1694472669292
 30
0.0
 11
7260.386369407645
 21
386.0370895634751
 31
0.0
  0
LINE
  5
1736
330
18
100
AcDbEntity
  8
70
100
AcDbLine
 10
7349.817444918122
 20
279.452123390437
 30
0.0
 11
7353.197768117958
 21
247.2904964941254
 31
0.0
  0
LINE
  5
1739
330
18
100
AcDbEntity
  8
70
100
AcDbLine
 10
7344.24812230406
 20
278.8667639961381
 30
0.0
 11
7347.141206533248
 21
251.3409062428705
 31
0.0
  0
LINE
  5
173A
330
18
100
AcDbEntity
  8
70
100
AcDbLine
 10
7288.449402526237
 20
200.9250527659133
 30
0.0
 11
7341.322372796212
 21
238.4618377958582
 31
0.0
  0
LINE
  5
173D
330
18
100
AcDbEntity
  8
70
100
AcDbLine
 10
7293.34219736354
 20
194.2988293277656
 30
0.0
 11
7346.215167633515
 21
231.8356143577103
 31
0.0
  0
ARC
  5
173E
330
18
100
AcDbEntity
  8
70
100
AcDbCircle
 10
7336.489800275773
 20
245.5344183112288
 30
0.0
 40
16.8
100
AcDbArc
 50
305.3725732018817
 51
5.999999999996583
  0
ARC
  5
1742
330
18
100
AcDbEntity
  8
70
100
AcDbCircle
 10
7333.217899998093
 20
249.8775077571236
 30
0.0
 40
14.0
100
AcDbArc
 50
305.3725732018817
 51
5.999999999996583
  0
LINE
  5
1743
330
18
100
AcDbEntity
  8
70
100
AcDbLine
 10
7276.852291156089
 20
351.0112461587169
 30
0.0
 11
7336.374196612773
 21
325.2876385898034
 31
0.0
  0
LINE
  5
1745
330
18
100
AcDbEntity
  8
70
100
AcDbLine
 10
7273.463745462258
 20
343.5040556585966
 30
0.0
 11
7332.985650918944
 21
317.7804480896832
 31
0.0
  0
ARC
  5
1748
330
18
100
AcDbEntity
  8
70
100
AcDbCircle
 10
7280.128448717334
 20
358.9255254498257
 30
0.0
 40
16.8
100
AcDbArc
 50
185.9999999999965
 51
246.6274267980964
  0
LINE
  5
174B
330
18
100
AcDbEntity
  8
50
100
AcDbLine
 10
7349.895400838589
 20
355.2446002197894
 30
0.0
 11
7300.420922014919
 21
355.2446002197894
 31
0.0
  0
LINE
  5
174D
330
18
100
AcDbEntity
  8
70
100
AcDbLine
 10
7349.817444918122
 20
279.452123390437
 30
0.0
 11
7346.417461199886
 21
311.6222469814709
 31
0.0
  0
ARC
  5
174E
330
18
100
AcDbEntity
  8
70
100
AcDbCircle
 10
7329.709493357698
 20
309.8661687985741
 30
0.0
 40
16.8
100
AcDbArc
 50
5.999999999996583
 51
66.62742679809643
  0
ARC
  5
1752
330
18
100
AcDbEntity
  8
70
100
AcDbCircle
 10
7327.431731539715
 20
304.929223263659
 30
0.0
 40
14.0
100
AcDbArc
 50
5.999999999996583
 51
66.62742679809643
  0
LINE
  5
1754
330
18
100
AcDbEntity
  8
70
100
AcDbLine
 10
7344.24812230406
 20
278.8667639961381
 30
0.0
 11
7341.355038074872
 21
306.3926217494061
 31
0.0
  0
LINE
  5
1756
330
18
100
AcDbEntity
  8
70
100
AcDbLine
 10
7267.429485007247
 20
401.53473356432
 30
0.0
 11
7329.576530245393
 21
445.2446002197894
 31
0.0
  0
ARC
  5
1758
330
18
100
AcDbEntity
  8
70
100
AcDbCircle
 10
7277.094337249832
 20
387.7931677463717
 30
0.0
 40
16.8
100
AcDbArc
 50
125.1198612229077
 51
185.9999999999965
  0
LINE
  5
175A
330
18
100
AcDbEntity
  8
50
100
AcDbLine
 10
7714.920922014918
 20
325.2446002197894
 30
0.0
 11
7574.920922014918
 21
325.2446002197894
 31
0.0
  0
LINE
  5
17ED
330
18
100
AcDbEntity
  8
70
100
AcDbLine
 10
7714.920922014918
 20
-1304.434759186213
 30
0.0
 11
7714.920922014918
 21
-1323.537666422897
 31
0.0
  0
LINE
  5
17EE
330
18
100
AcDbEntity
  8
70
100
AcDbLine
 10
7574.920922014918
 20
-1311.961118943293
 30
0.0
 11
7574.920922014918
 21
-1281.934759186213
 31
0.0
  0
LINE
  5
17EF
330
18
100
AcDbEntity
  8
70
100
AcDbLine
 10
7584.846908568042
 20
-1322.90856134396
 30
0.0
 11
7702.846908568041
 21
-1334.485108823564
 31
0.0
  0
ARC
  5
17F0
330
18
100
AcDbEntity
  8
70
100
AcDbCircle
 10
7585.920922014918
 20
-1311.961118943293
 30
0.0
 40
11.0
100
AcDbArc
 50
180.0
 51
264.3968516704556
  0
ARC
  5
17F1
330
18
100
AcDbEntity
  8
70
100
AcDbCircle
 10
7703.920922014919
 20
-1323.537666422896
 30
0.0
 40
11.0
100
AcDbArc
 50
264.3968516704556
 51
0.0
  0
LINE
  5
17F2
330
18
100
AcDbEntity
  8
70
100
AcDbLine
 10
7574.920922014918
 20
-1251.908399429133
 30
0.0
 11
7574.920922014918
 21
-1281.934759186213
 31
0.0
  0
LINE
  5
17F3
330
18
100
AcDbEntity
  8
70
100
AcDbLine
 10
7584.846908568042
 20
-1240.960957028466
 30
0.0
 11
7702.846908568041
 21
-1229.384409548862
 31
0.0
  0
ARC
  5
17F4
330
18
100
AcDbEntity
  8
70
100
AcDbCircle
 10
7585.920922014918
 20
-1251.908399429132
 30
0.0
 40
11.0
100
AcDbArc
 50
95.60314832954443
 51
180.0
  0
ARC
  5
17F5
330
18
100
AcDbEntity
  8
70
100
AcDbCircle
 10
7703.920922014919
 20
-1240.331851949528
 30
0.0
 40
11.0
100
AcDbArc
 50
0.0
 51
95.60314832954443
  0
LINE
  5
17F6
330
18
100
AcDbEntity
  8
70
100
AcDbLine
 10
7714.920922014918
 20
-1259.434759186213
 30
0.0
 11
7714.920922014918
 21
-1240.331851949529
 31
0.0
  0
LINE
  5
1805
330
18
100
AcDbEntity
  8
70
100
AcDbLine
 10
7514.920922014917
 20
-75.00411108617379
 30
0.0
 11
7514.920922014917
 21
-164.506688474246
 31
0.0
  0
LINE
  5
1806
330
18
100
AcDbEntity
  8
70
100
AcDbLine
 10
7561.420922014919
 20
-196.5496284142701
 30
0.0
 11
7519.420922014919
 21
-172.300917108306
 31
0.0
  0
ARC
  5
1807
330
18
100
AcDbEntity
  8
70
100
AcDbCircle
 10
7523.920922014919
 20
-164.506688474246
 30
0.0
 40
9.0
100
AcDbArc
 50
180.0
 51
239.9999999999995
  0
LINE
  5
1808
330
18
100
AcDbEntity
  8
70
100
AcDbLine
 10
7574.920922014918
 20
-188.7553997802101
 30
0.0
 11
7574.920922014918
 21
-150.7553997802101
 31
0.0
  0
ARC
  5
1809
330
18
100
AcDbEntity
  8
70
100
AcDbCircle
 10
7565.920922014919
 20
-188.7553997802101
 30
0.0
 40
9.0
100
AcDbArc
 50
239.9999999999995
 51
0.0
  0
LINE
  5
180A
330
18
100
AcDbEntity
  8
70
100
AcDbLine
 10
7561.420922014919
 20
-42.96117114615026
 30
0.0
 11
7519.420922014919
 21
-67.20988245211379
 31
0.0
  0
ARC
  5
180B
330
18
100
AcDbEntity
  8
70
100
AcDbCircle
 10
7523.920922014919
 20
-75.00411108617379
 30
0.0
 40
9.0
100
AcDbArc
 50
120.0000000000005
 51
180.0
  0
LINE
  5
180C
330
18
100
AcDbEntity
  8
70
100
AcDbLine
 10
7574.920922014918
 20
-88.75539978021015
 30
0.0
 11
7574.920922014918
 21
-50.75539978021016
 31
0.0
  0
ARC
  5
180D
330
18
100
AcDbEntity
  8
70
100
AcDbCircle
 10
7565.920922014919
 20
-50.75539978021016
 30
0.0
 40
9.0
100
AcDbArc
 50
0.0
 51
120.0000000000005
  0
LINE
  5
1966
330
18
100
AcDbEntity
  8
25
100
AcDbLine
 10
9830.694263244854
 20
-3310.791577051828
 30
0.0
 11
5374.151176334196
 21
-3310.791577051828
 31
0.0
  0
LINE
  5
1967
330
18
100
AcDbEntity
  8
25
100
AcDbLine
 10
9830.694263244856
 20
-3250.791577051829
 30
0.0
 11
5374.151176334195
 21
-3250.791577051828
 31
0.0
  0
LINE
  5
1968
330
18
100
AcDbEntity
  8
25
100
AcDbLine
 10
9830.694263244858
 20
-3561.326129659102
 30
0.0
 11
5374.151176334195
 21
-3561.326129659102
 31
0.0
  0
LINE
  5
1969
330
18
100
AcDbEntity
  8
25
100
AcDbLine
 10
9830.694263244858
 20
-3490.525160114257
 30
0.0
 11
5374.151176334195
 21
-3490.525160114256
 31
0.0
  0
DIMENSION
  5
19AF
330
18
100
AcDbEntity
  8
KOTIERUNG
100
AcDbDimension
  2
*D8
 10
9571.286258449498
 20
-2450.219027243895
 30
0.0
 11
7671.286258449498
 21
-2348.897403778683
 31
0.0
 70
    32
 71
     5
 42
3800.000000000001
 73
     0
 74
     0
 75
     0
  3
TYPENBLATT_M10
100
AcDbAlignedDimension
 13
5771.286258449497
 23
-3030.791577051828
 33
0.0
 14
9571.286258449498
 24
-2980.791577051828
 34
0.0
100
AcDbRotatedDimension
1001
ACAD
1000
DSTYLE
1002
{
1070
    40
1040
500.0
1002
}
  0
DIMENSION
  5
19B0
330
18
100
AcDbEntity
  8
KOTIERUNG
100
AcDbDimension
  2
*D9
 10
9571.286258449498
 20
-2674.836823248324
 30
0.0
 11
8621.286258449499
 21
-2573.515199783112
 31
0.0
 70
    32
 71
     5
 42
1900.0
 73
     0
 74
     0
 75
     0
  3
TYPENBLATT_M10
100
AcDbAlignedDimension
 13
7671.286258449498
 23
-3030.791577051828
 33
0.0
 14
9571.286258449498
 24
-3030.791577051828
 34
0.0
100
AcDbRotatedDimension
1001
ACAD
1000
DSTYLE
1002
{
1070
    40
1040
500.0
1002
}
  0
DIMENSION
  5
19B1
330
18
100
AcDbEntity
  8
KOTIERUNG
100
AcDbDimension
  2
*D10
 10
7671.286258449498
 20
-2674.836823248324
 30
0.0
 11
6721.286258449499
 21
-2674.836823248324
 31
0.0
 70
   160
 71
     5
 42
1900.000000000001
 73
     0
 74
     0
 75
     0
  3
TYPENBLATT_M10
100
AcDbAlignedDimension
 13
5771.286258449497
 23
-3030.791577051828
 33
0.0
 14
7671.286258449498
 24
-3030.791577051828
 34
0.0
100
AcDbRotatedDimension
1001
ACAD
1000
DSTYLE
1002
{
1070
    40
1040
500.0
1002
}
  0
LINE
  5
19B8
330
18
100
AcDbEntity
  8
35
 48
0.2
100
AcDbLine
 10
5611.286258449497
 20
-3490.525160114257
 30
0.0
 11
5611.286258449497
 21
-3561.326129659102
 31
0.0
  0
LINE
  5
19BB
330
18
100
AcDbEntity
  8
18
  6
STRICHLINIE
 48
0.05
100
AcDbLine
 10
5931.286258449497
 20
-3490.525160114257
 30
0.0
 11
5931.286258449497
 21
-3561.326129659102
 31
0.0
  0
LINE
  5
19C6
330
18
100
AcDbEntity
  8
35
 48
0.2
100
AcDbLine
 10
5491.286258449497
 20
-3310.791577051828
 30
0.0
 11
5491.286258449497
 21
-3250.791577051828
 31
0.0
  0
LINE
  5
1A0A
330
18
100
AcDbEntity
  8
35
 48
0.2
100
AcDbLine
 10
9291.286258449497
 20
-3310.791577051828
 30
0.0
 11
9291.286258449497
 21
-3250.791577051828
 31
0.0
  0
LINE
  5
1C59
330
18
100
AcDbEntity
  8
18
  6
STRICHPUNKT
 48
0.5
100
AcDbLine
 10
7671.286258449497
 20
-3310.791577051828
 30
0.0
 11
7671.286258449497
 21
-3030.791577051827
 31
0.0
  0
LINE
  5
1C5A
330
18
100
AcDbEntity
  8
70
100
AcDbLine
 10
7712.260060607244
 20
-3240.865590498704
 30
0.0
 11
7723.836608086848
 21
-3122.865590498705
 31
0.0
  0
LINE
  5
1C5B
330
18
100
AcDbEntity
  8
70
100
AcDbLine
 10
7630.312456291751
 20
-3240.865590498704
 30
0.0
 11
7618.735908812145
 21
-3122.865590498705
 31
0.0
  0
ARC
  5
1C5C
330
18
100
AcDbEntity
  8
70
100
AcDbCircle
 10
7629.683351212811
 20
-3121.791577051828
 30
0.0
 40
11.0
100
AcDbArc
 50
90.0
 51
185.6031483295443
  0
ARC
  5
1C5D
330
18
100
AcDbEntity
  8
70
100
AcDbCircle
 10
7712.889165686181
 20
-3121.791577051828
 30
0.0
 40
11.0
100
AcDbArc
 50
354.3968516704556
 51
90.0
  0
ARC
  5
1C5E
330
18
100
AcDbEntity
  8
70
100
AcDbCircle
 10
7671.286258449498
 20
-3362.291577051828
 30
0.0
 40
117.85
100
AcDbArc
 50
108.8942349104337
 51
247.6539647909126
  0
ARC
  5
1C5F
330
18
100
AcDbEntity
  8
70
100
AcDbCircle
 10
7671.286258449498
 20
-3362.291577051828
 30
0.0
 40
117.85
100
AcDbArc
 50
292.3460352090874
 51
71.10576508956625
  0
LINE
  5
1C60
330
18
100
AcDbEntity
  8
70
100
AcDbLine
 10
7626.479757805059
 20
-3471.291577051828
 30
0.0
 11
7716.092759093935
 21
-3471.291577051828
 31
0.0
  0
LINE
  5
1C61
330
18
100
AcDbEntity
  8
70
100
AcDbLine
 10
7639.286258449498
 20
-3471.291577051828
 30
0.0
 11
7639.286258449498
 21
-3490.525160114257
 31
0.0
  0
LINE
  5
1C62
330
18
100
AcDbEntity
  8
70
100
AcDbLine
 10
7671.286258449498
 20
-3471.291577051828
 30
0.0
 11
7671.286258449498
 21
-3490.525160114257
 31
0.0
  0
LINE
  5
1C63
330
18
100
AcDbEntity
  8
70
100
AcDbLine
 10
7703.286258449498
 20
-3471.291577051828
 30
0.0
 11
7703.286258449496
 21
-3490.525160114257
 31
0.0
  0
ARC
  5
1C64
330
18
100
AcDbEntity
  8
70
100
AcDbCircle
 10
7701.312618206576
 20
-3239.791577051828
 30
0.0
 40
11.0
100
AcDbArc
 50
270.0
 51
354.3968516704556
  0
ARC
  5
1C65
330
18
100
AcDbEntity
  8
70
100
AcDbCircle
 10
7641.259898692417
 20
-3239.791577051828
 30
0.0
 40
11.0
100
AcDbArc
 50
185.6031483295443
 51
270.0
  0
LINE
  5
1C68
330
18
100
AcDbEntity
  8
70
100
AcDbLine
 10
7641.259898692417
 20
-3250.791577051828
 30
0.0
 11
7671.286258449497
 21
-3250.791577051828
 31
0.0
  0
LINE
  5
1C6B
330
18
100
AcDbEntity
  8
70
100
AcDbLine
 10
7671.286258449497
 20
-3250.791577051828
 30
0.0
 11
7701.312618206576
 21
-3250.791577051828
 31
0.0
  0
ARC
  5
1C6C
330
18
100
AcDbEntity
  8
70
100
AcDbCircle
 10
5771.286258449498
 20
-3362.291577051828
 30
0.0
 40
117.85
100
AcDbArc
 50
292.3460352090874
 51
71.10576508956625
  0
ARC
  5
1C6D
330
18
100
AcDbEntity
  8
70
100
AcDbCircle
 10
5771.286258449498
 20
-3362.291577051828
 30
0.0
 40
117.85
100
AcDbArc
 50
108.8942349104337
 51
247.6539647909126
  0
LINE
  5
1C6E
330
18
100
AcDbEntity
  8
70
100
AcDbLine
 10
5726.479757805059
 20
-3471.291577051828
 30
0.0
 11
5816.092759093936
 21
-3471.291577051828
 31
0.0
  0
LINE
  5
1C6F
330
18
100
AcDbEntity
  8
70
100
AcDbLine
 10
5739.286258449498
 20
-3471.291577051828
 30
0.0
 11
5739.286258449498
 21
-3490.525160114257
 31
0.0
  0
LINE
  5
1C70
330
18
100
AcDbEntity
  8
70
100
AcDbLine
 10
5803.286258449498
 20
-3471.291577051828
 30
0.0
 11
5803.286258449497
 21
-3490.525160114257
 31
0.0
  0
LINE
  5
1C71
330
18
100
AcDbEntity
  8
70
100
AcDbLine
 10
5771.286258449498
 20
-3471.291577051828
 30
0.0
 11
5771.286258449498
 21
-3490.525160114257
 31
0.0
  0
LINE
  5
1C72
330
18
100
AcDbEntity
  8
18
  6
STRICHPUNKT
 48
0.5
100
AcDbLine
 10
5771.286258449497
 20
-3310.791577051828
 30
0.0
 11
5771.286258449497
 21
-3030.791577051827
 31
0.0
  0
ARC
  5
1C73
330
18
100
AcDbEntity
  8
70
100
AcDbCircle
 10
5741.259898692415
 20
-3239.791577051828
 30
0.0
 40
11.0
100
AcDbArc
 50
185.6031483295443
 51
270.0
  0
ARC
  5
1C74
330
18
100
AcDbEntity
  8
70
100
AcDbCircle
 10
5801.312618206576
 20
-3239.791577051828
 30
0.0
 40
11.0
100
AcDbArc
 50
270.0
 51
354.3968516704556
  0
LINE
  5
1C75
330
18
100
AcDbEntity
  8
70
100
AcDbLine
 10
5741.259898692416
 20
-3250.791577051828
 30
0.0
 11
5771.286258449497
 21
-3250.791577051828
 31
0.0
  0
LINE
  5
1C76
330
18
100
AcDbEntity
  8
70
100
AcDbLine
 10
5771.286258449497
 20
-3250.791577051828
 30
0.0
 11
5801.312618206576
 21
-3250.791577051828
 31
0.0
  0
LINE
  5
1C77
330
18
100
AcDbEntity
  8
70
100
AcDbLine
 10
5730.31245629175
 20
-3240.865590498704
 30
0.0
 11
5718.735908812146
 21
-3122.865590498705
 31
0.0
  0
LINE
  5
1C78
330
18
100
AcDbEntity
  8
70
100
AcDbLine
 10
5812.260060607243
 20
-3240.865590498704
 30
0.0
 11
5823.836608086848
 21
-3122.865590498705
 31
0.0
  0
ARC
  5
1C79
330
18
100
AcDbEntity
  8
70
100
AcDbCircle
 10
5729.683351212812
 20
-3121.791577051828
 30
0.0
 40
11.0
100
AcDbArc
 50
90.0
 51
185.6031483295443
  0
ARC
  5
1C7A
330
18
100
AcDbEntity
  8
70
100
AcDbCircle
 10
5812.889165686181
 20
-3121.791577051828
 30
0.0
 40
11.0
100
AcDbArc
 50
354.3968516704556
 51
90.0
  0
ARC
  5
1C8A
330
18
100
AcDbEntity
  8
70
100
AcDbCircle
 10
9571.286258449498
 20
-3362.291577051828
 30
0.0
 40
117.85
100
AcDbArc
 50
108.8942349104337
 51
247.6539647909126
  0
ARC
  5
1C8B
330
18
100
AcDbEntity
  8
70
100
AcDbCircle
 10
9571.286258449498
 20
-3362.291577051828
 30
0.0
 40
117.85
100
AcDbArc
 50
292.3460352090874
 51
71.10576508956625
  0
LINE
  5
1C8C
330
18
100
AcDbEntity
  8
35
 48
0.2
100
AcDbLine
 10
9411.286258449498
 20
-3490.525160114257
 30
0.0
 11
9411.286258449498
 21
-3561.326129659102
 31
0.0
  0
LINE
  5
1C8D
330
18
100
AcDbEntity
  8
70
100
AcDbLine
 10
9526.479757805061
 20
-3471.291577051828
 30
0.0
 11
9616.092759093936
 21
-3471.291577051828
 31
0.0
  0
LINE
  5
1C8E
330
18
100
AcDbEntity
  8
70
100
AcDbLine
 10
9571.286258449498
 20
-3471.291577051828
 30
0.0
 11
9571.286258449498
 21
-3490.525160114257
 31
0.0
  0
LINE
  5
1C8F
330
18
100
AcDbEntity
  8
70
100
AcDbLine
 10
9539.286258449498
 20
-3471.291577051828
 30
0.0
 11
9539.286258449498
 21
-3490.525160114257
 31
0.0
  0
LINE
  5
1C90
330
18
100
AcDbEntity
  8
70
100
AcDbLine
 10
9603.286258449498
 20
-3471.291577051828
 30
0.0
 11
9603.286258449498
 21
-3490.525160114257
 31
0.0
  0
LINE
  5
1C91
330
18
100
AcDbEntity
  8
18
  6
STRICHLINIE
 48
0.05
100
AcDbLine
 10
9731.286258449499
 20
-3490.525160114257
 30
0.0
 11
9731.286258449499
 21
-3561.326129659102
 31
0.0
  0
LINE
  5
1C92
330
18
100
AcDbEntity
  8
18
  6
STRICHPUNKT
 48
0.5
100
AcDbLine
 10
9571.286258449498
 20
-3310.791577051828
 30
0.0
 11
9571.286258449498
 21
-3030.791577051827
 31
0.0
  0
ARC
  5
1C93
330
18
100
AcDbEntity
  8
70
100
AcDbCircle
 10
9601.312618206577
 20
-3239.791577051828
 30
0.0
 40
11.0
100
AcDbArc
 50
270.0
 51
354.3968516704556
  0
ARC
  5
1C94
330
18
100
AcDbEntity
  8
70
100
AcDbCircle
 10
9541.259898692416
 20
-3239.791577051828
 30
0.0
 40
11.0
100
AcDbArc
 50
185.6031483295443
 51
270.0
  0
LINE
  5
1C95
330
18
100
AcDbEntity
  8
70
100
AcDbLine
 10
9571.286258449498
 20
-3250.791577051828
 30
0.0
 11
9601.312618206577
 21
-3250.791577051828
 31
0.0
  0
LINE
  5
1C96
330
18
100
AcDbEntity
  8
70
100
AcDbLine
 10
9541.259898692416
 20
-3250.791577051828
 30
0.0
 11
9571.286258449498
 21
-3250.791577051828
 31
0.0
  0
LINE
  5
1C97
330
18
100
AcDbEntity
  8
70
100
AcDbLine
 10
9612.260060607246
 20
-3240.865590498704
 30
0.0
 11
9623.836608086847
 21
-3122.865590498705
 31
0.0
  0
LINE
  5
1C98
330
18
100
AcDbEntity
  8
70
100
AcDbLine
 10
9530.312456291751
 20
-3240.865590498704
 30
0.0
 11
9518.735908812145
 21
-3122.865590498705
 31
0.0
  0
ARC
  5
1C99
330
18
100
AcDbEntity
  8
70
100
AcDbCircle
 10
9529.68335121281
 20
-3121.791577051828
 30
0.0
 40
11.0
100
AcDbArc
 50
90.0
 51
185.6031483295443
  0
ARC
  5
1C9A
330
18
100
AcDbEntity
  8
70
100
AcDbCircle
 10
9612.889165686182
 20
-3121.791577051828
 30
0.0
 40
11.0
100
AcDbArc
 50
354.3968516704556
 51
90.0
  0
LWPOLYLINE
  5
216A
330
18
100
AcDbEntity
  8
50
100
AcDbPolyline
 90
        4
 70
   129
 43
0.0
 10
7714.920922014917
 20
-424.7551033364379
 10
7714.920922014917
 20
-409.7551033364388
 10
7567.420922014918
 20
-409.7551033364388
 42
0.9999999999999998
 10
7567.420922014918
 20
-424.7551033364389
  0
LINE
  5
2244
330
18
100
AcDbEntity
  8
50
100
AcDbLine
 10
7574.920922014918
 20
-924.7551033364388
 30
0.0
 11
7714.920922014917
 21
-924.7551033364388
 31
0.0
  0
DIMENSION
  5
2245
330
18
100
AcDbEntity
  8
KOTIERUNG
100
AcDbDimension
  2
*D31
 10
7836.844410708782
 20
-924.7551033364388
 30
0.0
 11
7796.315761322697
 21
-299.7552515583235
 31
0.0
 70
    32
 71
     5
 42
1249.999703556228
 73
     0
 74
     0
 75
     0
  3
TYPENBLATT_M10
100
AcDbAlignedDimension
 13
7714.920922014918
 23
325.2446002197894
 33
0.0
 14
7714.920922014918
 24
-924.7551033364388
 34
0.0
 50
90.0
100
AcDbRotatedDimension
1001
ACAD
1000
DSTYLE
1002
{
1070
    40
1040
200.0
1070
    42
1040
0.25
1002
}
  0
ARC
  5
2413
330
18
100
AcDbEntity
  8
18
  6
STRICHPUNKT
100
AcDbCircle
 10
7671.286258449495
 20
-3178.291577051767
 30
0.0
 40
300.0
100
AcDbArc
 50
346.0150707259331
 51
193.9849292738521
  0
ARC
  5
2414
330
18
100
AcDbEntity
  8
18
  6
STRICHPUNKT
100
AcDbCircle
 10
7671.286258449495
 20
-3178.291577051767
 30
0.0
 40
300.0
100
AcDbArc
 50
206.2102694642487
 51
263.8768011341587
  0
ARC
  5
2415
330
18
100
AcDbEntity
  8
18
  6
STRICHPUNKT
100
AcDbCircle
 10
7671.286258449495
 20
-3178.291577051767
 30
0.0
 40
300.0
100
AcDbArc
 50
276.1231988658413
 51
333.7897305357513
  0
HATCH
  5
243E
330
18
100
AcDbEntity
  8
18
100
AcDbHatch
 10
0.0
 20
0.0
 30
0.0
210
0.0
220
0.0
230
1.0
  2
ANSI31
 70
     0
 71
     0
 91
        5
 92
        7
 72
     0
 73
     1
 93
        4
 10
7571.018559600981
 20
-464.7551033364388
 10
7344.920922014918
 20
-464.7551033364388
 10
7344.920922014889
 20
-1020.224686915649
 10
7571.018559600981
 20
-984.0586869146246
 97
        0
 92
        7
 72
     0
 73
     1
 93
        4
 10
7944.920922014919
 20
-464.7551033364388
 10
7718.823284428797
 20
-464.7551033364388
 10
7718.823284428855
 20
-960.4162210518797
 10
7944.920922014919
 20
-924.2502210508474
 97
        0
 92
        7
 72
     0
 73
     1
 93
        4
 10
7944.920922014919
 20
-932.4924939143057
 10
7718.823284428826
 20
-968.658493915359
 10
7718.823284428826
 20
-1121.318693931898
 10
7944.920922014919
 20
-1121.318693931899
 97
        0
 92
        7
 72
     0
 73
     1
 93
        4
 10
7571.01855960095
 20
-992.3009597781119
 10
7344.920922014918
 20
-1028.466959779159
 10
7344.920922014889
 20
-1121.318693931898
 10
7571.018559601009
 20
-1121.318693931898
 97
        0
 92
        9
 93
        4
 72
     1
 10
-186221.8232043568
 20
-699.0833552418362
 11
-186221.8232043568
 21
-630.4271478748514
 72
     1
 10
-186221.8232043568
 20
-630.4271478748514
 11
-186183.7945549708
 21
-630.4271478748514
 72
     1
 10
-186183.7945549708
 20
-630.4271478748514
 11
-186183.7945549708
 21
-699.0833552418362
 72
     1
 10
-186183.7945549708
 20
-699.0833552418362
 11
-186221.8232043568
 21
-699.0833552418362
 97
        0
 75
     0
 76
     1
 52
0.0
 41
175.0
 77
     0
 78
     1
 53
45.0
 43
0.0
 44
0.0
 45
-15.46796083845572
 46
15.46796083845572
 79
     0
 47
0.9831801410543581
 98
        4
 10
7485.856625129175
 20
-803.6898089372581
 10
7887.181341774817
 20
-810.5722774569903
 10
7863.574198934538
 20
-1038.670092417221
 10
7523.234875322957
 20
-1069.148660955429
1001
ACAD
1010
0.0
1020
0.0
1030
0.0
  0
LINE
  5
243F
330
18
100
AcDbEntity
  8
18
100
AcDbLine
 10
7571.018559600981
 20
-424.7551033364389
 30
0.0
 11
7571.018559600981
 21
-984.0586869146235
 31
0.0
  0
LINE
  5
2440
330
18
100
AcDbEntity
  8
18
100
AcDbLine
 10
7571.018559600981
 20
-992.3009597781119
 30
0.0
 11
7571.018559600981
 21
-1181.318693931898
 31
0.0
  0
LINE
  5
2441
330
18
100
AcDbEntity
  8
18
100
AcDbLine
 10
7573.01855960098
 20
-424.7551033364389
 30
0.0
 11
7573.01855960098
 21
-983.7387720284068
 31
0.0
  0
LINE
  5
2442
330
18
100
AcDbEntity
  8
18
100
AcDbLine
 10
7573.01855960098
 20
-991.981044891896
 30
0.0
 11
7573.01855960098
 21
-1181.318693931898
 31
0.0
  0
LINE
  5
2443
330
18
100
AcDbEntity
  8
18
100
AcDbLine
 10
7718.823284428826
 20
-424.7551033364389
 30
0.0
 11
7718.823284428826
 21
-960.4162210518806
 31
0.0
  0
LINE
  5
2444
330
18
100
AcDbEntity
  8
18
100
AcDbLine
 10
7718.823284428826
 20
-968.658493915359
 30
0.0
 11
7718.823284428826
 21
-1181.318693931898
 31
0.0
  0
LINE
  5
2445
330
18
100
AcDbEntity
  8
18
100
AcDbLine
 10
7717.01855960098
 20
-424.7551033364389
 30
0.0
 11
7717.01855960098
 21
-960.704900220856
 31
0.0
  0
LINE
  5
2446
330
18
100
AcDbEntity
  8
18
100
AcDbLine
 10
7717.01855960098
 20
-968.9471730843324
 30
0.0
 11
7717.01855960098
 21
-1181.318693931898
 31
0.0
  0
LINE
  5
2447
330
18
100
AcDbEntity
  8
18
100
AcDbLine
 10
7718.823284428826
 20
-1181.318693931898
 30
0.0
 11
7571.018559600981
 21
-1181.318693931898
 31
0.0
  0
LWPOLYLINE
  5
2448
330
18
100
AcDbEntity
  8
Hilfslinien
 48
0.3
100
AcDbPolyline
 90
        3
 70
     0
 43
0.0
 10
7344.920922014918
 20
-1028.466959779156
 10
7344.920922014918
 20
-1121.318693931898
 10
7571.018559600981
 20
-1121.318693931898
  0
LWPOLYLINE
  5
2449
330
18
100
AcDbEntity
  8
Hilfslinien
 48
0.3
100
AcDbPolyline
 90
        3
 70
     0
 43
0.0
 10
7718.823284428826
 20
-1121.318693931898
 10
7944.920922014919
 20
-1121.318693931898
 10
7944.920922014919
 20
-932.4924939143119
  0
LWPOLYLINE
  5
244A
330
18
100
AcDbEntity
  8
Hilfslinien
 48
0.3
100
AcDbPolyline
 90
        3
 70
     0
 43
0.0
 10
7944.920922014919
 20
-924.2502210508519
 10
7944.920922014919
 20
-464.7551033364388
 10
7718.823284428826
 20
-464.7551033364388
  0
LWPOLYLINE
  5
244B
330
18
100
AcDbEntity
  8
Hilfslinien
 48
0.3
100
AcDbPolyline
 90
        3
 70
     0
 43
0.0
 10
7571.018559600981
 20
-464.7551033364388
 10
7344.920922014918
 20
-464.7551033364388
 10
7344.920922014918
 20
-1020.224686915651
  0
LINE
  5
244C
330
18
100
AcDbEntity
  8
18
  6
STRICHPUNKT
 48
5.0
100
AcDbLine
 10
7325.171978277559
 20
-1023.38367745996
 30
0.0
 11
7964.669865752248
 21
-921.0912305065422
 31
0.0
  0
LINE
  5
244D
330
18
100
AcDbEntity
  8
18
  6
STRICHPUNKT
 48
5.0
100
AcDbLine
 10
7325.171978277559
 20
-1031.625950323467
 30
0.0
 11
7964.669865752248
 21
-929.3335033700005
 31
0.0
  0
HATCH
  5
244E
330
18
100
AcDbEntity
  8
18
  6
STRICHLINIE
 48
0.3
100
AcDbHatch
 10
0.0
 20
0.0
 30
0.0
210
0.0
220
0.0
230
1.0
  2
EARTH
 70
     0
 71
     0
 91
        4
 92
        1
 93
        4
 72
     1
 10
7782.813455328779
 20
-464.7551033364388
 11
7912.813455328779
 21
-464.7551033364388
 72
     1
 10
7912.813455328779
 20
-464.7551033364388
 11
7912.813455328779
 21
-424.7553997803042
 72
     1
 10
7912.813455328779
 20
-424.7553997803042
 11
7782.813455328779
 21
-424.7553997803042
 72
     1
 10
7782.813455328779
 20
-424.7553997803042
 11
7782.813455328779
 21
-464.7551033364388
 97
        0
 92
        1
 93
        6
 72
     1
 10
7917.813455328809
 20
-464.7551033364388
 11
7944.920922014919
 21
-464.7551033364388
 72
     1
 10
7944.920922014889
 20
-464.7551033364388
 11
7944.920922014889
 21
-493.4757885400476
 72
     1
 10
7944.920922014919
 20
-493.4757885400476
 11
8050.14109893236
 21
-493.4757885400467
 72
     1
 10
8050.141098932332
 20
-493.4757885400467
 11
8050.141098932332
 21
-424.7553997803042
 72
     1
 10
8050.141098932332
 20
-424.7553997803042
 11
7917.813455328779
 21
-424.7553997803042
 72
     1
 10
7917.813455328809
 20
-424.7553997803042
 11
7917.813455328809
 21
-464.7551033364388
 97
        0
 92
        1
 93
        4
 72
     1
 10
7718.823284428826
 20
-424.7553997803042
 11
7718.823284428826
 21
-464.7551033364388
 72
     1
 10
7718.823284428826
 20
-464.7551033364388
 11
7777.813455328808
 21
-464.7551033364388
 72
     1
 10
7777.81345532878
 20
-464.7551033364388
 11
7777.81345532878
 21
-424.7553997803042
 72
     1
 10
7777.813455328808
 20
-424.7553997803042
 11
7718.823284428826
 21
-424.7553997803042
 97
        0
 92
        1
 93
        6
 72
     1
 10
7571.018559600981
 20
-464.7551033364379
 11
7571.018559600981
 21
-424.7553997803042
 72
     1
 10
7571.018559600981
 20
-424.7553997803042
 11
7082.885890290808
 21
-424.7553997803042
 72
     1
 10
7082.885890290808
 20
-424.7553997803042
 11
7082.885890290808
 21
-493.4757885400467
 72
     1
 10
7082.885890290808
 20
-493.4757885400467
 11
7344.920922014918
 21
-493.4757885400476
 72
     1
 10
7344.920922014889
 20
-493.4757885400476
 11
7344.920922014889
 21
-464.7551033364388
 72
     1
 10
7344.920922014918
 20
-464.7551033364388
 11
7571.018559601009
 21
-464.7551033364379
 97
        0
 75
     0
 76
     1
 52
45.0
 41
7.0
 77
     0
 78
     6
 53
45.0
 43
7521.9750161542
 44
6796.165265617762
 45
0.0000000000000071
 46
62.86179284748406
 79
     2
 49
44.44999999999999
 49
-44.44999999999999
 53
45.0
 43
7510.188429995292
 44
6807.951851776663
 45
0.0000000000000071
 46
62.86179284748406
 79
     2
 49
44.44999999999999
 49
-44.44999999999999
 53
45.0
 43
7498.401843836411
 44
6819.738437935564
 45
0.0000000000000071
 46
62.86179284748406
 79
     2
 49
44.44999999999999
 49
-44.44999999999999
 53
135.0
 43
7498.401843836411
 44
6827.596162041503
 45
-62.86179284748406
 46
0.0000000000000071
 79
     2
 49
44.44999999999999
 49
-44.44999999999999
 53
135.0
 43
7510.188429995292
 44
6839.382748200406
 45
-62.86179284748406
 46
0.0000000000000071
 79
     2
 49
44.44999999999999
 49
-44.44999999999999
 53
135.0
 43
7521.9750161542
 44
6851.169334359306
 45
-62.86179284748406
 46
0.0000000000000071
 79
     2
 49
44.44999999999999
 49
-44.44999999999999
 98
        3
 10
7638.523796377613
 20
-455.7757854213851
 10
7869.343610036738
 20
-469.8082955546124
 10
7970.717320655731
 20
-468.2492565310822
  0
LINE
  5
2486
330
18
100
AcDbEntity
  8
70
100
AcDbLine
 10
7727.236557751176
 20
-3107.791577051767
 30
0.0
 11
7621.972598544127
 21
-3107.791577051767
 31
0.0
  0
ARC
  5
2489
330
18
100
AcDbEntity
  8
70
100
AcDbCircle
 10
7621.972598544127
 20
-3114.791577051767
 30
0.0
 40
7.0
100
AcDbArc
 50
90.0
 51
185.6031483294401
  0
LINE
  5
248A
330
18
100
AcDbEntity
  8
70
100
AcDbLine
 10
7615.006044289152
 20
-3115.475040154324
 30
0.0
 11
7628.271874865572
 21
-3250.693939465751
 31
0.0
  0
LINE
  5
248B
330
18
100
AcDbEntity
  8
70
100
AcDbLine
 10
7714.635632422425
 20
-3247.475040154324
 30
0.0
 11
7728.339464987844
 21
-3107.791577051767
 31
0.0
  0
ARC
  5
248C
330
18
100
AcDbEntity
  8
70
100
AcDbCircle
 10
7707.66907816745
 20
-3246.791577051766
 30
0.0
 40
7.0
100
AcDbArc
 50
330.0000000001345
 51
354.3968516705598
  0
LINE
  5
248D
330
18
100
AcDbEntity
  8
70
100
AcDbLine
 10
9627.236557751178
 20
-3107.791577051767
 30
0.0
 11
9521.972598544129
 21
-3107.791577051767
 31
0.0
  0
ARC
  5
248E
330
18
100
AcDbEntity
  8
70
100
AcDbCircle
 10
9521.972598544129
 20
-3114.791577051767
 30
0.0
 40
7.0
100
AcDbArc
 50
90.0
 51
185.6031483294406
  0
LINE
  5
248F
330
18
100
AcDbEntity
  8
70
100
AcDbLine
 10
9515.006044289155
 20
-3115.475040154324
 30
0.0
 11
9528.271874865573
 21
-3250.693939465751
 31
0.0
  0
LINE
  5
2490
330
18
100
AcDbEntity
  8
70
100
AcDbLine
 10
9614.635632422427
 20
-3247.475040154324
 30
0.0
 11
9628.339464987845
 21
-3107.791577051767
 31
0.0
  0
ARC
  5
2491
330
18
100
AcDbEntity
  8
70
100
AcDbCircle
 10
9607.669078167452
 20
-3246.791577051766
 30
0.0
 40
7.0
100
AcDbArc
 50
330.0000000001361
 51
354.3968516705594
  0
ARC
  5
2492
330
18
100
AcDbEntity
  8
18
  6
STRICHPUNKT
100
AcDbCircle
 10
9571.286258449498
 20
-3178.291577051767
 30
0.0
 40
300.0
100
AcDbArc
 50
346.0150707259328
 51
193.9849292738523
  0
ARC
  5
2493
330
18
100
AcDbEntity
  8
18
  6
STRICHPUNKT
100
AcDbCircle
 10
9571.286258449498
 20
-3178.291577051767
 30
0.0
 40
300.0
100
AcDbArc
 50
206.2102694642464
 51
263.8768011341555
  0
ARC
  5
2494
330
18
100
AcDbEntity
  8
18
  6
STRICHPUNKT
100
AcDbCircle
 10
9571.286258449498
 20
-3178.291577051767
 30
0.0
 40
300.0
100
AcDbArc
 50
276.1231988658445
 51
333.7897305357536
  0
LINE
  5
2495
330
18
100
AcDbEntity
  8
70
100
AcDbLine
 10
5827.236557751175
 20
-3107.791577051767
 30
0.0
 11
5721.972598544127
 21
-3107.791577051767
 31
0.0
  0
ARC
  5
2496
330
18
100
AcDbEntity
  8
70
100
AcDbCircle
 10
5721.972598544127
 20
-3114.791577051767
 30
0.0
 40
7.0
100
AcDbArc
 50
90.0
 51
185.6031483294406
  0
LINE
  5
2497
330
18
100
AcDbEntity
  8
70
100
AcDbLine
 10
5715.006044289153
 20
-3115.475040154323
 30
0.0
 11
5728.271874865573
 21
-3250.69393946575
 31
0.0
  0
LINE
  5
2498
330
18
100
AcDbEntity
  8
70
100
AcDbLine
 10
5814.635632422424
 20
-3247.475040154323
 30
0.0
 11
5828.339464987844
 21
-3107.791577051767
 31
0.0
  0
ARC
  5
2499
330
18
100
AcDbEntity
  8
70
100
AcDbCircle
 10
5807.66907816745
 20
-3246.791577051766
 30
0.0
 40
7.0
100
AcDbArc
 50
330.0000000001361
 51
354.3968516705594
  0
ARC
  5
249A
330
18
100
AcDbEntity
  8
18
  6
STRICHPUNKT
100
AcDbCircle
 10
5771.286258449496
 20
-3178.291577051766
 30
0.0
 40
300.0
100
AcDbArc
 50
346.0150707259328
 51
193.9849292738523
  0
ARC
  5
249B
330
18
100
AcDbEntity
  8
18
  6
STRICHPUNKT
100
AcDbCircle
 10
5771.286258449496
 20
-3178.291577051766
 30
0.0
 40
300.0
100
AcDbArc
 50
206.2102694642464
 51
263.8768011341555
  0
ARC
  5
249C
330
18
100
AcDbEntity
  8
18
  6
STRICHPUNKT
100
AcDbCircle
 10
5771.286258449496
 20
-3178.291577051766
 30
0.0
 40
300.0
100
AcDbArc
 50
276.1231988658445
 51
333.7897305357536
  0
DIMENSION
  5
2522
330
18
100
AcDbEntity
  8
KOTIERUNG
100
AcDbDimension
  2
*D35
 10
7260.294337249831
 20
-1181.318693931898
 30
0.0
 11
7219.765687863747
 21
-803.0368986341674
 31
0.0
 70
    32
  1
1000
 71
     5
 42
756.5635905954597
 73
     0
 74
     0
 75
     0
  3
TYPENBLATT_M10
100
AcDbAlignedDimension
 13
7573.01855960098
 23
-424.7551033364388
 33
0.0
 14
7573.01855960098
 24
-1181.318693931898
 34
0.0
 50
90.0
100
AcDbRotatedDimension
1001
ACAD
1000
DSTYLE
1002
{
1070
    40
1040
200.0
1002
}
  0
VIEWPORT
  5
1DF
330
15
100
AcDbEntity
 67
     1
  8
0
100
AcDbViewport
 10
3.858423839051638
 20
5.608714589893257
 30
0.0
 40
20.72289939374052
 41
11.78335940911768
 68
     1
 69
     1
 12
3.858423839051638
 22
5.608714589893257
 13
0.0
 23
0.0
 14
0.5
 24
0.5
 15
0.5
 25
0.5
 16
0.0
 26
0.0
 36
1.0
 17
0.0
 27
0.0
 37
0.0
 42
50.0
 43
0.0
 44
0.0
 45
11.78335940911768
 50
0.0
 51
0.0
 72
   100
 90
    32800
  1

281
     0
 71
     1
 74
     0
110
0.0
120
0.0
130
0.0
111
1.0
121
0.0
131
0.0
112
0.0
122
1.0
132
0.0
 79
     0
146
0.0
170
     0
 61
     5
348
1E5B
292
     1
282
     1
141
0.0
142
0.0
 63
   250
421
  3355443
  0
MTEXT
  5
13A5
330
15
100
AcDbEntity
 67
     1
  8
KOTIERUNG
100
AcDbMText
 10
334.574239722046
 20
33.70865160095127
 30
0.0
 40
2.5
 41
0.0
 46
0.0
 71
     4
 72
     1
  1
\A1;
  7
VOEST
 73
     1
 44
1.0
  0
MTEXT
  5
1505
330
15
100
AcDbEntity
 67
     1
  8
TEXT
100
AcDbMText
 10
170.1309310268098
 20
188.4899274501241
 30
0.0
 40
125.0
 41
0.0
 46
0.0
 71
     4
 72
     1
  1
\A1;
  7
VOEST
 73
     1
 44
1.0
  0
MTEXT
  5
1509
330
15
100
AcDbEntity
 67
     1
  8
TEXT
100
AcDbMText
 10
122.2170016261258
 20
214.8213238210264
 30
0.0
 40
2.5
 41
0.0
 46
0.0
 71
     4
 72
     1
  1
\A1;
  7
VOEST
 73
     1
 44
1.0
  0
MTEXT
  5
150D
330
15
100
AcDbEntity
 67
     1
  8
TEXT
100
AcDbMText
 10
122.2170016261258
 20
214.9995195096872
 30
0.0
 40
2.5
 41
0.0
 46
0.0
 71
     4
 72
     1
  1
\A1;
  7
VOEST
 73
     1
 44
1.0
  0
MTEXT
  5
150F
330
15
100
AcDbEntity
 67
     1
  8
TEXT
100
AcDbMText
 10
122.2170016261258
 20
214.9995195096872
 30
0.0
 40
2.5
 41
0.0
 46
0.0
 71
     4
 72
     1
  1
\A1;
  7
VOEST
 73
     1
 44
1.0
  0
MTEXT
  5
1513
330
15
100
AcDbEntity
 67
     1
  8
TEXT
100
AcDbMText
 10
130.9001099666395
 20
219.6788439368279
 30
0.0
 40
2.5
 41
0.0
 46
0.0
 71
     4
 72
     1
  1
\A1;
  7
VOEST
 73
     1
 44
1.0
  0
ENDSEC
  0
SECTION
  2
OBJECTS
  0
DICTIONARY
  5
C
330
0
100
AcDbDictionary
281
     1
  3
ACAD_COLOR
350
1D26
  3
ACAD_GROUP
350
D
  3
ACAD_LAYOUT
350
1612
  3
ACAD_MATERIAL
350
1D25
  3
ACAD_MLEADERSTYLE
350
25DD
  3
ACAD_MLINESTYLE
350
1B
  3
ACAD_PLOTSETTINGS
350
1613
  3
ACAD_PLOTSTYLENAME
350
1610
  3
ACAD_SCALELIST
350
25BB
  3
ACAD_TABLESTYLE
350
1E66
  3
ACAD_VISUALSTYLE
350
1E55
  3
ACDB_RECOMPOSE_DATA
350
2604
  3
ACDBVARIABLEDICTIONARY
350
1109
  3
CONTENTDICTIONARY
350
23
  0
DICTIONARY
  5
2592
330
8
100
AcDbDictionary
280
     1
281
     1
  0
DICTIONARY
  5
1F18
330
2
100
AcDbDictionary
280
     1
281
     1
  3
ACAD_LAYERSTATES
360
1F19
  0
DICTIONARY
  5
25EA
330
E
100
AcDbDictionary
280
     1
281
     1
  3
ADSK_XREC_LAYER_RECONCILED
360
25EB
  0
DICTIONARY
  5
25EC
330
12F
100
AcDbDictionary
280
     1
281
     1
  3
ADSK_XREC_LAYER_RECONCILED
360
25ED
  0
DICTIONARY
  5
25EE
330
1DA
100
AcDbDictionary
280
     1
281
     1
  3
ADSK_XREC_LAYER_RECONCILED
360
25EF
  0
DICTIONARY
  5
25F0
330
224
100
AcDbDictionary
280
     1
281
     1
  3
ADSK_XREC_LAYER_RECONCILED
360
25F1
  0
DICTIONARY
  5
25F2
330
226
100
AcDbDictionary
280
     1
281
     1
  3
ADSK_XREC_LAYER_RECONCILED
360
25F3
  0
DICTIONARY
  5
25F4
330
425
100
AcDbDictionary
280
     1
281
     1
  3
ADSK_XREC_LAYER_RECONCILED
360
25F5
  0
DICTIONARY
  5
25F6
330
14EF
100
AcDbDictionary
280
     1
281
     1
  3
ADSK_XREC_LAYER_RECONCILED
360
25F7
  0
DICTIONARY
  5
25F8
330
17DE
100
AcDbDictionary
280
     1
281
     1
  3
ADSK_XREC_LAYER_RECONCILED
360
25F9
  0
DICTIONARY
  5
25FA
330
184B
100
AcDbDictionary
280
     1
281
     1
  3
ADSK_XREC_LAYER_RECONCILED
360
25FB
  0
DICTIONARY
  5
1F11
330
1F10
100
AcDbDictionary
280
     1
281
     1
  3
ADSK_XREC_LAYER_RECONCILED
360
1F12
  0
DICTIONARY
  5
2487
330
18
100
AcDbDictionary
280
     1
281
     1
  3
ACAD_SORTENTS
360
2488
  0
DICTIONARY
  5
1D26
102
{ACAD_REACTORS
330
C
102
}
330
C
100
AcDbDictionary
281
     1
  0
DICTIONARY
  5
D
102
{ACAD_REACTORS
330
C
102
}
330
C
100
AcDbDictionary
281
     1
  3
*A1
350
1B1
  3
*A10
350
95B
  3
*A2
350
95C
  3
*A3
350
95D
  3
*A4
350
1B2
  3
*A5
350
1C3
  3
*A6
350
1D2
  3
*A7
350
46A
  3
*A8
350
46B
  3
*A9
350
95A
  0
DICTIONARY
  5
1612
102
{ACAD_REACTORS
330
C
102
}
330
C
100
AcDbDictionary
281
     1
  3
Layout1
350
1615
  3
Model
350
1614
  0
DICTIONARY
  5
1D25
102
{ACAD_REACTORS
330
C
102
}
330
C
100
AcDbDictionary
281
     1
  3
ByBlock
350
1E53
  3
ByLayer
350
1E52
  3
Global
350
1E54
  0
DICTIONARY
  5
25DD
102
{ACAD_REACTORS
330
C
102
}
330
C
100
AcDbDictionary
281
     1
  3
Standard
350
25DE
  0
DICTIONARY
  5
1B
102
{ACAD_REACTORS
330
C
102
}
330
C
100
AcDbDictionary
281
     1
  3
STANDARD
350
1C
  0
DICTIONARY
  5
1613
102
{ACAD_REACTORS
330
C
102
}
330
C
100
AcDbDictionary
281
     1
  0
ACDBDICTIONARYWDFLT
  5
1610
102
{ACAD_REACTORS
330
C
102
}
330
C
100
AcDbDictionary
281
     1
  3
Normal
350
1611
100
AcDbDictionaryWithDefault
340
1611
  0
DICTIONARY
  5
25BB
102
{ACAD_REACTORS
330
C
102
}
330
C
100
AcDbDictionary
281
     1
  3
A0
350
25BC
  3
A1
350
25BD
  3
A2
350
25BE
  3
A3
350
25BF
  3
A4
350
25C0
  3
A5
350
25C1
  3
A6
350
25C2
  3
A7
350
25C3
  3
A8
350
25C4
  3
A9
350
25C5
  3
B0
350
25C6
  3
B1
350
25C7
  3
B2
350
25C8
  3
B3
350
25C9
  3
B4
350
25CA
  3
B5
350
25CB
  3
B6
350
25CC
  3
B7
350
25CD
  3
B8
350
25CE
  3
B9
350
25CF
  3
C0
350
25D0
  3
C1
350
25D1
  3
C2
350
25D2
  3
C3
350
25D3
  3
C4
350
25D4
  3
C5
350
25D5
  3
C6
350
25D6
  3
C7
350
25D7
  3
C8
350
25D8
  3
C9
350
25D9
  3
D0
350
25DA
  3
D1
350
25DB
  3
D2
350
25DC
  0
DICTIONARY
  5
1E66
102
{ACAD_REACTORS
330
C
102
}
330
C
100
AcDbDictionary
281
     1
  3
Standard
350
1E67
  0
DICTIONARY
  5
1E55
102
{ACAD_REACTORS
330
C
102
}
330
C
100
AcDbDictionary
281
     1
  3
2dWireframe
350
1E5B
  3
3D Hidden
350
1E5D
  3
3dWireframe
350
1E5C
  3
Basic
350
1E5A
  3
Brighten
350
1E61
  3
ColorChange
350
1E65
  3
Conceptual
350
1E5E
  3
Dim
350
1E60
  3
Facepattern
350
1E64
  3
Flat
350
1E56
  3
FlatWithEdges
350
1E57
  3
Gouraud
350
1E58
  3
GouraudWithEdges
350
1E59
  3
Linepattern
350
1E63
  3
Realistic
350
1E5F
  3
Thicken
350
1E62
  0
XRECORD
  5
2604
102
{ACAD_REACTORS
330
C
102
}
330
C
100
AcDbXrecord
280
     1
 90
        1
330
1E67
  0
DICTIONARY
  5
1109
102
{ACAD_REACTORS
330
C
102
}
330
C
100
AcDbDictionary
281
     1
  3
CANNOSCALE
350
25FE
  3
CMLEADERSTYLE
350
25FC
  3
CTABLESTYLE
350
230F
  3
DIMASSOC
350
1E1B
  3
LAYEREVAL
350
2600
  3
LAYERNOTIFY
350
2601
  3
LIGHTINGUNITS
350
25FF
  3
MSLTSCALE
350
25FD
  3
PROJECTNAME
350
1E1C
  3
SORTENTS
350
110A
  0
DICTIONARY
  5
23
102
{ACAD_REACTORS
330
C
102
}
330
C
100
AcDbDictionary
281
     1
  0
DICTIONARY
  5
1F19
102
{ACAD_REACTORS
330
1F18
102
}
330
1F18
100
AcDbDictionary
281
     1
  0
XRECORD
  5
25EB
102
{ACAD_REACTORS
330
25EA
102
}
330
25EA
100
AcDbXrecord
280
     1
290
     1
  0
XRECORD
  5
25ED
102
{ACAD_REACTORS
330
25EC
102
}
330
25EC
100
AcDbXrecord
280
     1
290
     1
  0
XRECORD
  5
25EF
102
{ACAD_REACTORS
330
25EE
102
}
330
25EE
100
AcDbXrecord
280
     1
290
     1
  0
XRECORD
  5
25F1
102
{ACAD_REACTORS
330
25F0
102
}
330
25F0
100
AcDbXrecord
280
     1
290
     1
  0
XRECORD
  5
25F3
102
{ACAD_REACTORS
330
25F2
102
}
330
25F2
100
AcDbXrecord
280
     1
290
     1
  0
XRECORD
  5
25F5
102
{ACAD_REACTORS
330
25F4
102
}
330
25F4
100
AcDbXrecord
280
     1
290
     1
  0
XRECORD
  5
25F7
102
{ACAD_REACTORS
330
25F6
102
}
330
25F6
100
AcDbXrecord
280
     1
290
     1
  0
XRECORD
  5
25F9
102
{ACAD_REACTORS
330
25F8
102
}
330
25F8
100
AcDbXrecord
280
     1
290
     1
  0
XRECORD
  5
25FB
102
{ACAD_REACTORS
330
25FA
102
}
330
25FA
100
AcDbXrecord
280
     1
290
     1
  0
XRECORD
  5
1F12
102
{ACAD_REACTORS
330
1F11
102
}
330
1F11
100
AcDbXrecord
280
     1
290
     1
  0
SORTENTSTABLE
  5
2488
102
{ACAD_REACTORS
330
2487
102
}
330
2487
100
AcDbSortentsTable
330
18
331
1C8E
  5
1C8E
331
180A
  5
180A
331
1C96
  5
1C96
331
2415
  5
2442
331
1C5F
  5
1C5F
331
1754
  5
1754
331
248C
  5
2415
331
1C6F
  5
1C6F
331
2445
  5
244A
331
244D
  5
248A
331
1C77
  5
1C77
331
17F3
  5
17F3
331
1C8F
  5
1C8F
331
180B
  5
180B
331
16EE
  5
16EE
331
173D
  5
173D
331
1C97
  5
1C97
331
1745
  5
1745
331
174D
  5
174D
331
1A0A
  5
1A0A
331
1C60
  5
1C60
331
243E
  5
2443
331
1716
  5
1716
331
1C68
  5
1C68
331
1C70
  5
1C70
331
2446
  5
244B
331
244E
  5
248B
331
10E0
  5
10E0
331
1C78
  5
1C78
331
17F4
  5
17F4
331
172E
  5
172E
331
1736
  5
1736
331
19BB
  5
19BB
331
1C90
  5
1C90
331
16EF
  5
16EF
331
173E
  5
173E
331
180C
  5
180C
331
1C98
  5
1C98
331
174E
  5
174E
331
1C59
  5
1C59
331
1C61
  5
1C61
331
1756
  5
1756
331
2486
  5
22CA
331
243F
  5
2444
331
1717
  5
1717
331
2447
  5
244C
331
1C71
  5
1C71
331
17ED
  5
17ED
331
17F5
  5
17F5
331
172F
  5
172F
331
1C79
  5
1C79
331
1805
  5
1805
331
16E8
  5
16E8
331
1C91
  5
1C91
331
180D
  5
180D
331
1C99
  5
1C99
331
16F0
  5
16F0
331
1C5A
  5
1C5A
331
1710
  5
1710
331
1C62
  5
1C62
331
2440
  5
2445
331
1C72
  5
1C72
331
17EE
  5
17EE
331
2448
  5
244D
331
1609
  5
1609
331
1C7A
  5
1C7A
331
17F6
  5
17F6
331
1730
  5
1730
331
1C8A
  5
1C8A
331
1806
  5
1806
331
16E9
  5
16E9
331
216A
  5
216A
331
1C92
  5
1C92
331
1C9A
  5
1C9A
331
16F1
  5
16F1
331
1748
  5
1748
331
1C5B
  5
1C5B
331
1758
  5
1758
331
1C63
  5
1C63
331
1711
  5
1711
331
1C6B
  5
1C6B
331
2441
  5
2446
331
1966
  5
1966
331
2449
  5
244E
331
1C73
  5
1C73
331
17EF
  5
17EF
331
1731
  5
1731
331
1C8B
  5
1C8B
331
1807
  5
1807
331
16EA
  5
16EA
331
1739
  5
1739
331
1C93
  5
1C93
331
16F2
  5
16F2
331
19C6
  5
19C6
331
1C5C
  5
1C5C
331
170A
  5
170A
331
1C64
  5
1C64
331
2442
  5
2447
331
1967
  5
1967
331
1C6C
  5
1C6C
331
2489
  5
22CD
331
1C74
  5
1C74
331
244A
  5
244F
331
17F0
  5
17F0
331
19AF
  5
19AF
331
1C8C
  5
1C8C
331
173A
  5
173A
331
1808
  5
1808
331
1742
  5
1742
331
1C94
  5
1C94
331
2413
  5
2440
331
2244
  5
2244
331
1752
  5
1752
331
1C5D
  5
1C5D
331
175A
  5
175A
331
1C65
  5
1C65
331
248A
  5
22D0
331
1968
  5
1968
331
1C6D
  5
1C6D
331
2443
  5
2448
331
171B
  5
171B
331
244B
  5
2486
331
1C75
  5
1C75
331
17F1
  5
17F1
331
19B0
  5
19B0
331
1C8D
  5
1C8D
331
1809
  5
1809
331
16EC
  5
16EC
331
19B8
  5
19B8
331
1C95
  5
1C95
331
1743
  5
1743
331
2414
  5
2441
331
2245
  5
2245
331
174B
  5
174B
331
1C5E
  5
1C5E
331
1714
  5
1714
331
248B
  5
22D3
331
2444
  5
2449
331
171C
  5
171C
331
1969
  5
1969
331
1C6E
  5
1C6E
331
1C76
  5
1C76
331
244C
  5
2489
331
17F2
  5
17F2
331
19B1
  5
19B1
331
1734
  5
1734
  0
GROUP
  5
1B1
102
{ACAD_REACTORS
330
D
102
}
330
D
100
AcDbGroup
300

 70
     1
 71
     1
  0
GROUP
  5
95B
102
{ACAD_REACTORS
330
D
102
}
330
D
100
AcDbGroup
300

 70
     1
 71
     1
  0
GROUP
  5
95C
102
{ACAD_REACTORS
330
D
102
}
330
D
100
AcDbGroup
300

 70
     1
 71
     1
  0
GROUP
  5
95D
102
{ACAD_REACTORS
330
D
102
}
330
D
100
AcDbGroup
300

 70
     1
 71
     1
  0
GROUP
  5
1B2
102
{ACAD_REACTORS
330
D
102
}
330
D
100
AcDbGroup
300

 70
     1
 71
     1
  0
GROUP
  5
1C3
102
{ACAD_REACTORS
330
D
102
}
330
D
100
AcDbGroup
300

 70
     1
 71
     1
  0
GROUP
  5
1D2
102
{ACAD_REACTORS
330
D
102
}
330
D
100
AcDbGroup
300

 70
     1
 71
     1
  0
GROUP
  5
46A
102
{ACAD_REACTORS
330
D
102
}
330
D
100
AcDbGroup
300

 70
     1
 71
     1
  0
GROUP
  5
46B
102
{ACAD_REACTORS
330
D
102
}
330
D
100
AcDbGroup
300

 70
     1
 71
     1
  0
GROUP
  5
95A
102
{ACAD_REACTORS
330
D
102
}
330
D
100
AcDbGroup
300

 70
     1
 71
     1
  0
LAYOUT
  5
1615
102
{ACAD_XDICTIONARY
360
2218
102
}
102
{ACAD_REACTORS
330
1612
102
}
330
1612
100
AcDbPlotSettings
  1

  2
\\VAKF11\Lexmark Optra E312 lex15
  4
A4
  6

 40
6.805083274841308
 41
5.535083293914794
 42
6.974411010742187
 43
7.14373779296875
 44
209.9733276367187
 45
296.9259948730469
 46
0.0
 47
0.0
 48
-0.0127526823210005
 49
-0.0267537170402008
140
7.71916396974359
141
11.18075566848852
142
1.0
143
0.0394287451876656
 70
   690
 72
     1
 73
     0
 74
     4
  7
monochrome.ctb
 75
     0
147
25.36220707101854
 76
     1
 77
     2
 78
   150
148
0.0127526823210005
149
0.0267537170402008
100
AcDbLayout
  1
Layout1
 70
     1
 71
     1
 10
-0.2810685767455632
 20
-0.2449951058284719
 11
7.997916254848838
 21
11.46242428561498
 12
0.0
 22
0.0
 32
0.0
 14
1.000000000000000E+20
 24
1.000000000000000E+20
 34
1.000000000000000E+20
 15
-1.000000000000000E+20
 25
-1.000000000000000E+20
 35
-1.000000000000000E+20
146
0.0
 13
0.0
 23
0.0
 33
0.0
 16
1.0
 26
0.0
 36
0.0
 17
0.0
 27
1.0
 37
0.0
 76
     0
330
15
331
1DF
  0
LAYOUT
  5
1614
102
{ACAD_REACTORS
330
1612
102
}
330
1612
100
AcDbPlotSettings
  1

  2
\\VAKF11\Lexmark Optra E312 lex15
  4

  6

 40
0.0
 41
0.0
 42
0.0
 43
0.0
 44
0.0
 45
0.0
 46
0.0
 47
0.0
 48
0.0
 49
0.0
140
0.0
141
0.0
142
1.0
143
1.0
 70
  1712
 72
     0
 73
     0
 74
     0
  7

 75
     0
147
1.0
 76
     0
 77
     2
 78
   300
148
0.0
149
0.0
100
AcDbLayout
  1
Model
 70
     1
 71
     0
 10
0.0
 20
0.0
 11
12.0
 21
9.0
 12
0.0
 22
0.0
 32
0.0
 14
0.0
 24
0.0
 34
0.0
 15
0.0
 25
0.0
 35
0.0
146
0.0
 13
0.0
 23
0.0
 33
0.0
 16
1.0
 26
0.0
 36
0.0
 17
0.0
 27
1.0
 37
0.0
 76
     0
330
18
331
1E47
  0
MATERIAL
  5
1E53
102
{ACAD_REACTORS
330
1D25
102
}
330
1D25
100
AcDbMaterial
  1
ByBlock
 73
     1
 78
     1
172
     1
176
     1
270
     1
274
     1
 94
       63
  0
MATERIAL
  5
1E52
102
{ACAD_REACTORS
330
1D25
102
}
330
1D25
100
AcDbMaterial
  1
ByLayer
 73
     1
 78
     1
172
     1
176
     1
270
     1
274
     1
 94
       63
  0
MATERIAL
  5
1E54
102
{ACAD_REACTORS
330
1D25
102
}
330
1D25
100
AcDbMaterial
  1
Global
 73
     1
 78
     1
172
     1
176
     1
270
     1
274
     1
 94
       63
  0
MLEADERSTYLE
  5
25DE
102
{ACAD_REACTORS
330
25DD
102
}
330
25DD
100
AcDbMLeaderStyle
170
     2
171
     1
172
     0
 90
        2
 40
0.0
 41
0.0
173
     1
 91
-1056964608
340
12
 92
       -2
290
     1
 42
0.09
291
     1
 43
0.36
  3
Standard
 44
0.18
300

342
F
174
     1
178
     6
175
     1
176
     0
 93
-1056964608
 45
0.18
292
     0
297
     0
 46
0.18
 94
-1056964608
 47
1.0
 49
1.0
140
1.0
293
     1
141
0.0
294
     1
177
     0
142
1.0
295
     1
296
     0
143
0.125
1001
ACAD_MLEADERVER
1070
     2
  0
MLINESTYLE
  5
1C
102
{ACAD_REACTORS
330
1B
102
}
330
1B
100
AcDbMlineStyle
  2
STANDARD
 70
     0
  3

 62
   256
 51
90.0
 52
90.0
 71
     2
 49
0.5
 62
   256
  6
BYLAYER
 49
-0.5
 62
   256
  6
BYLAYER
  0
ACDBPLACEHOLDER
  5
1611
102
{ACAD_REACTORS
330
1610
102
}
330
1610
  0
SCALE
  5
25BC
102
{ACAD_REACTORS
330
25BB
102
}
330
25BB
100
AcDbScale
 70
     0
300
1:1
140
1.0
141
1.0
290
     1
  0
SCALE
  5
25BD
102
{ACAD_REACTORS
330
25BB
102
}
330
25BB
100
AcDbScale
 70
     0
300
1:2
140
1.0
141
2.0
290
     0
  0
SCALE
  5
25BE
102
{ACAD_REACTORS
330
25BB
102
}
330
25BB
100
AcDbScale
 70
     0
300
1:4
140
1.0
141
4.0
290
     0
  0
SCALE
  5
25BF
102
{ACAD_REACTORS
330
25BB
102
}
330
25BB
100
AcDbScale
 70
     0
300
1:5
140
1.0
141
5.0
290
     0
  0
SCALE
  5
25C0
102
{ACAD_REACTORS
330
25BB
102
}
330
25BB
100
AcDbScale
 70
     0
300
1:8
140
1.0
141
8.0
290
     0
  0
SCALE
  5
25C1
102
{ACAD_REACTORS
330
25BB
102
}
330
25BB
100
AcDbScale
 70
     0
300
1:10
140
1.0
141
10.0
290
     0
  0
SCALE
  5
25C2
102
{ACAD_REACTORS
330
25BB
102
}
330
25BB
100
AcDbScale
 70
     0
300
1:16
140
1.0
141
16.0
290
     0
  0
SCALE
  5
25C3
102
{ACAD_REACTORS
330
25BB
102
}
330
25BB
100
AcDbScale
 70
     0
300
1:20
140
1.0
141
20.0
290
     0
  0
SCALE
  5
25C4
102
{ACAD_REACTORS
330
25BB
102
}
330
25BB
100
AcDbScale
 70
     0
300
1:30
140
1.0
141
30.0
290
     0
  0
SCALE
  5
25C5
102
{ACAD_REACTORS
330
25BB
102
}
330
25BB
100
AcDbScale
 70
     0
300
1:40
140
1.0
141
40.0
290
     0
  0
SCALE
  5
25C6
102
{ACAD_REACTORS
330
25BB
102
}
330
25BB
100
AcDbScale
 70
     0
300
1:50
140
1.0
141
50.0
290
     0
  0
SCALE
  5
25C7
102
{ACAD_REACTORS
330
25BB
102
}
330
25BB
100
AcDbScale
 70
     0
300
1:100
140
1.0
141
100.0
290
     0
  0
SCALE
  5
25C8
102
{ACAD_REACTORS
330
25BB
102
}
330
25BB
100
AcDbScale
 70
     0
300
2:1
140
2.0
141
1.0
290
     0
  0
SCALE
  5
25C9
102
{ACAD_REACTORS
330
25BB
102
}
330
25BB
100
AcDbScale
 70
     0
300
4:1
140
4.0
141
1.0
290
     0
  0
SCALE
  5
25CA
102
{ACAD_REACTORS
330
25BB
102
}
330
25BB
100
AcDbScale
 70
     0
300
8:1
140
8.0
141
1.0
290
     0
  0
SCALE
  5
25CB
102
{ACAD_REACTORS
330
25BB
102
}
330
25BB
100
AcDbScale
 70
     0
300
10:1
140
10.0
141
1.0
290
     0
  0
SCALE
  5
25CC
102
{ACAD_REACTORS
330
25BB
102
}
330
25BB
100
AcDbScale
 70
     0
300
100:1
140
100.0
141
1.0
290
     0
  0
SCALE
  5
25CD
102
{ACAD_REACTORS
330
25BB
102
}
330
25BB
100
AcDbScale
 70
     0
300
1/128" = 1'-0"
140
0.0078125
141
12.0
290
     0
  0
SCALE
  5
25CE
102
{ACAD_REACTORS
330
25BB
102
}
330
25BB
100
AcDbScale
 70
     0
300
1/64" = 1'-0"
140
0.015625
141
12.0
290
     0
  0
SCALE
  5
25CF
102
{ACAD_REACTORS
330
25BB
102
}
330
25BB
100
AcDbScale
 70
     0
300
1/32" = 1'-0"
140
0.03125
141
12.0
290
     0
  0
SCALE
  5
25D0
102
{ACAD_REACTORS
330
25BB
102
}
330
25BB
100
AcDbScale
 70
     0
300
1/16" = 1'-0"
140
0.0625
141
12.0
290
     0
  0
SCALE
  5
25D1
102
{ACAD_REACTORS
330
25BB
102
}
330
25BB
100
AcDbScale
 70
     0
300
3/32" = 1'-0"
140
0.09375
141
12.0
290
     0
  0
SCALE
  5
25D2
102
{ACAD_REACTORS
330
25BB
102
}
330
25BB
100
AcDbScale
 70
     0
300
1/8" = 1'-0"
140
0.125
141
12.0
290
     0
  0
SCALE
  5
25D3
102
{ACAD_REACTORS
330
25BB
102
}
330
25BB
100
AcDbScale
 70
     0
300
3/16" = 1'-0"
140
0.1875
141
12.0
290
     0
  0
SCALE
  5
25D4
102
{ACAD_REACTORS
330
25BB
102
}
330
25BB
100
AcDbScale
 70
     0
300
1/4" = 1'-0"
140
0.25
141
12.0
290
     0
  0
SCALE
  5
25D5
102
{ACAD_REACTORS
330
25BB
102
}
330
25BB
100
AcDbScale
 70
     0
300
3/8" = 1'-0"
140
0.375
141
12.0
290
     0
  0
SCALE
  5
25D6
102
{ACAD_REACTORS
330
25BB
102
}
330
25BB
100
AcDbScale
 70
     0
300
1/2" = 1'-0"
140
0.5
141
12.0
290
     0
  0
SCALE
  5
25D7
102
{ACAD_REACTORS
330
25BB
102
}
330
25BB
100
AcDbScale
 70
     0
300
3/4" = 1'-0"
140
0.75
141
12.0
290
     0
  0
SCALE
  5
25D8
102
{ACAD_REACTORS
330
25BB
102
}
330
25BB
100
AcDbScale
 70
     0
300
1" = 1'-0"
140
1.0
141
12.0
290
     0
  0
SCALE
  5
25D9
102
{ACAD_REACTORS
330
25BB
102
}
330
25BB
100
AcDbScale
 70
     0
300
1-1/2" = 1'-0"
140
1.5
141
12.0
290
     0
  0
SCALE
  5
25DA
102
{ACAD_REACTORS
330
25BB
102
}
330
25BB
100
AcDbScale
 70
     0
300
3" = 1'-0"
140
3.0
141
12.0
290
     0
  0
SCALE
  5
25DB
102
{ACAD_REACTORS
330
25BB
102
}
330
25BB
100
AcDbScale
 70
     0
300
6" = 1'-0"
140
6.0
141
12.0
290
     0
  0
SCALE
  5
25DC
102
{ACAD_REACTORS
330
25BB
102
}
330
25BB
100
AcDbScale
 70
     0
300
1'-0" = 1'-0"
140
12.0
141
12.0
290
     0
  0
TABLESTYLE
  5
1E67
102
{ACAD_XDICTIONARY
360
2602
102
}
102
{ACAD_REACTORS
330
1E66
102
}
330
1E66
100
AcDbTableStyle
  3
Standard
 70
     0
 71
     0
 40
0.06
 41
0.06
280
     0
281
     0
  7
STANDARD
140
0.18
170
     2
 62
     0
 63
     7
283
     0
 90
      512
 91
        0
  1

274
    -2
284
     1
 64
     0
275
    -2
285
     1
 65
     0
276
    -2
286
     1
 66
     0
277
    -2
287
     1
 67
     0
278
    -2
288
     1
 68
     0
279
    -2
289
     1
 69
     0
  7
STANDARD
140
0.25
170
     5
 62
     0
 63
     7
283
     0
 90
      512
 91
        0
  1

274
    -2
284
     1
 64
     0
275
    -2
285
     1
 65
     0
276
    -2
286
     1
 66
     0
277
    -2
287
     1
 67
     0
278
    -2
288
     1
 68
     0
279
    -2
289
     1
 69
     0
  7
STANDARD
140
0.18
170
     5
 62
     0
 63
     7
283
     0
 90
      512
 91
        0
  1

274
    -2
284
     1
 64
     0
275
    -2
285
     1
 65
     0
276
    -2
286
     1
 66
     0
277
    -2
287
     1
 67
     0
278
    -2
288
     1
 68
     0
279
    -2
289
     1
 69
     0
  0
VISUALSTYLE
  5
1E5B
102
{ACAD_REACTORS
330
1E55
102
}
330
1E55
100
AcDbVisualStyle
  2
2dWireframe
 70
     4
 71
     0
 72
     2
 73
     0
 90
        0
 40
-0.6
 41
-30.0
 62
     5
 63
     7
421
 16777215
 74
     1
 91
        4
 64
     7
 65
   257
 75
     1
175
     1
 42
1.0
 92
        0
 66
   257
 43
1.0
 76
     1
 77
     6
 78
     2
 67
     7
 79
     5
170
     0
171
     0
290
     0
174
     0
 93
        1
 44
0.0
173
     0
291
     0
 45
0.0
  0
VISUALSTYLE
  5
1E5D
102
{ACAD_REACTORS
330
1E55
102
}
330
1E55
100
AcDbVisualStyle
  2
3D Hidden
 70
     6
 71
     1
 72
     2
 73
     2
 90
        0
 40
-0.6
 41
-30.0
 62
     5
 63
     7
421
 16777215
 74
     2
 91
        2
 64
     7
 65
   257
 75
     2
175
     1
 42
40.0
 92
        0
 66
   257
 43
1.0
 76
     1
 77
     6
 78
     2
 67
     7
 79
     3
170
     0
171
     0
290
     0
174
     0
 93
        1
 44
0.0
173
     0
291
     0
 45
0.0
  0
VISUALSTYLE
  5
1E5C
102
{ACAD_REACTORS
330
1E55
102
}
330
1E55
100
AcDbVisualStyle
  2
3dWireframe
 70
     5
 71
     0
 72
     2
 73
     0
 90
        0
 40
-0.6
 41
-30.0
 62
     5
 63
     7
421
 16777215
 74
     1
 91
        4
 64
     7
 65
   257
 75
     1
175
     1
 42
1.0
 92
        0
 66
   257
 43
1.0
 76
     1
 77
     6
 78
     2
 67
     7
 79
     5
170
     0
171
     0
290
     0
174
     0
 93
        1
 44
0.0
173
     0
291
     0
 45
0.0
  0
VISUALSTYLE
  5
1E5A
102
{ACAD_REACTORS
330
1E55
102
}
330
1E55
100
AcDbVisualStyle
  2
Basic
 70
     7
 71
     1
 72
     0
 73
     1
 90
        0
 40
-0.6
 41
-30.0
 62
     5
 63
     7
421
 16777215
 74
     0
 91
        4
 64
     7
 65
   257
 75
     1
175
     1
 42
1.0
 92
        8
 66
     7
 43
1.0
 76
     1
 77
     6
 78
     2
 67
     7
 79
     5
170
     0
171
     0
290
     0
174
     0
 93
        1
 44
0.0
173
     0
291
     1
 45
0.0
  0
VISUALSTYLE
  5
1E61
102
{ACAD_REACTORS
330
1E55
102
}
330
1E55
100
AcDbVisualStyle
  2
Brighten
 70
    12
 71
     2
 72
     2
 73
     0
 90
        0
 40
-0.6
 41
-30.0
 62
     5
 63
     7
421
 16777215
 74
     1
 91
        4
 64
     7
 65
   257
 75
     1
175
     1
 42
1.0
 92
        8
 66
     7
 43
1.0
 76
     1
 77
     6
 78
     2
 67
     7
 79
     5
170
     0
171
     0
290
     0
174
     0
 93
        1
 44
50.0
173
     0
291
     1
 45
0.0
  0
VISUALSTYLE
  5
1E65
102
{ACAD_REACTORS
330
1E55
102
}
330
1E55
100
AcDbVisualStyle
  2
ColorChange
 70
    16
 71
     2
 72
     2
 73
     3
 90
        0
 40
-0.6
 41
-30.0
 62
     5
 63
     8
421
  8421504
 74
     1
 91
        4
 64
     7
 65
   257
 75
     1
175
     1
 42
1.0
 92
        8
 66
     8
424
  8421504
 43
1.0
 76
     1
 77
     6
 78
     2
 67
     7
 79
     5
170
     0
171
     0
290
     0
174
     0
 93
        1
 44
0.0
173
     0
291
     1
 45
0.0
  0
VISUALSTYLE
  5
1E5E
102
{ACAD_REACTORS
330
1E55
102
}
330
1E55
100
AcDbVisualStyle
  2
Conceptual
 70
     9
 71
     3
 72
     2
 73
     0
 90
        0
 40
-0.6
 41
-30.0
 62
     5
 63
     7
421
 16777215
 74
     2
 91
        2
 64
     7
 65
   257
 75
     1
175
     1
 42
40.0
 92
        8
 66
     7
 43
1.0
 76
     1
 77
     6
 78
     2
 67
     7
 79
     3
170
     0
171
     0
290
     0
174
     0
 93
        1
 44
0.0
173
     0
291
     0
 45
0.0
  0
VISUALSTYLE
  5
1E60
102
{ACAD_REACTORS
330
1E55
102
}
330
1E55
100
AcDbVisualStyle
  2
Dim
 70
    11
 71
     2
 72
     2
 73
     0
 90
        0
 40
-0.6
 41
-30.0
 62
     5
 63
     7
421
 16777215
 74
     1
 91
        4
 64
     7
 65
   257
 75
     1
175
     1
 42
1.0
 92
        8
 66
     7
 43
1.0
 76
     1
 77
     6
 78
     2
 67
     7
 79
     5
170
     0
171
     0
290
     0
174
     0
 93
        1
 44
-50.0
173
     0
291
     1
 45
0.0
  0
VISUALSTYLE
  5
1E64
102
{ACAD_REACTORS
330
1E55
102
}
330
1E55
100
AcDbVisualStyle
  2
Facepattern
 70
    15
 71
     2
 72
     2
 73
     0
 90
        0
 40
-0.6
 41
-30.0
 62
     5
 63
     7
421
 16777215
 74
     1
 91
        4
 64
     7
 65
   257
 75
     1
175
     1
 42
1.0
 92
        8
 66
     7
 43
1.0
 76
     1
 77
     6
 78
     2
 67
     7
 79
     5
170
     0
171
     0
290
     0
174
     0
 93
        1
 44
0.0
173
     0
291
     1
 45
0.0
  0
VISUALSTYLE
  5
1E56
102
{ACAD_REACTORS
330
1E55
102
}
330
1E55
100
AcDbVisualStyle
  2
Flat
 70
     0
 71
     2
 72
     1
 73
     1
 90
        2
 40
-0.6
 41
30.0
 62
     5
 63
     7
421
 16777215
 74
     0
 91
        4
 64
     7
 65
   257
 75
     1
175
     1
 42
1.0
 92
        8
 66
     7
 43
1.0
 76
     1
 77
     6
 78
     2
 67
     7
 79
     5
170
     0
171
     0
290
     0
174
     0
 93
       13
 44
0.0
173
     0
291
     1
 45
0.0
  0
VISUALSTYLE
  5
1E57
102
{ACAD_REACTORS
330
1E55
102
}
330
1E55
100
AcDbVisualStyle
  2
FlatWithEdges
 70
     1
 71
     2
 72
     1
 73
     1
 90
        2
 40
-0.6
 41
30.0
 62
     5
 63
     7
421
 16777215
 74
     1
 91
        4
 64
     7
 65
   257
 75
     1
175
     1
 42
1.0
 92
        0
 66
   257
 43
1.0
 76
     1
 77
     6
 78
     2
 67
     7
 79
     5
170
     0
171
     0
290
     0
174
     0
 93
       13
 44
0.0
173
     0
291
     1
 45
0.0
  0
VISUALSTYLE
  5
1E58
102
{ACAD_REACTORS
330
1E55
102
}
330
1E55
100
AcDbVisualStyle
  2
Gouraud
 70
     2
 71
     2
 72
     2
 73
     1
 90
        2
 40
-0.6
 41
30.0
 62
     5
 63
     7
421
 16777215
 74
     0
 91
        4
 64
     7
 65
   257
 75
     1
175
     1
 42
1.0
 92
        0
 66
     7
 43
1.0
 76
     1
 77
     6
 78
     2
 67
     7
 79
     5
170
     0
171
     0
290
     0
174
     0
 93
       13
 44
0.0
173
     0
291
     1
 45
0.0
  0
VISUALSTYLE
  5
1E59
102
{ACAD_REACTORS
330
1E55
102
}
330
1E55
100
AcDbVisualStyle
  2
GouraudWithEdges
 70
     3
 71
     2
 72
     2
 73
     1
 90
        2
 40
-0.6
 41
30.0
 62
     5
 63
     7
421
 16777215
 74
     1
 91
        4
 64
     7
 65
   257
 75
     1
175
     1
 42
1.0
 92
        0
 66
   257
 43
1.0
 76
     1
 77
     6
 78
     2
 67
     7
 79
     5
170
     0
171
     0
290
     0
174
     0
 93
       13
 44
0.0
173
     0
291
     1
 45
0.0
  0
VISUALSTYLE
  5
1E63
102
{ACAD_REACTORS
330
1E55
102
}
330
1E55
100
AcDbVisualStyle
  2
Linepattern
 70
    14
 71
     2
 72
     2
 73
     0
 90
        0
 40
-0.6
 41
-30.0
 62
     5
 63
     7
421
 16777215
 74
     1
 91
        4
 64
     7
 65
   257
 75
     7
175
     7
 42
1.0
 92
        8
 66
     7
 43
1.0
 76
     1
 77
     6
 78
     2
 67
     7
 79
     5
170
     0
171
     0
290
     0
174
     0
 93
        1
 44
0.0
173
     0
291
     1
 45
0.0
  0
VISUALSTYLE
  5
1E5F
102
{ACAD_REACTORS
330
1E55
102
}
330
1E55
100
AcDbVisualStyle
  2
Realistic
 70
     8
 71
     2
 72
     2
 73
     0
 90
        0
 40
-0.6
 41
-30.0
 62
     5
 63
     7
421
 16777215
 74
     1
 91
        0
 64
     7
 65
   257
 75
     1
175
     1
 42
1.0
 92
        8
 66
     8
424
  7895160
 43
1.0
 76
     1
 77
     6
 78
     2
 67
     7
 79
     5
170
     0
171
     0
290
     0
174
     0
 93
       13
 44
0.0
173
     0
291
     0
 45
0.0
  0
VISUALSTYLE
  5
1E62
102
{ACAD_REACTORS
330
1E55
102
}
330
1E55
100
AcDbVisualStyle
  2
Thicken
 70
    13
 71
     2
 72
     2
 73
     0
 90
        0
 40
-0.6
 41
-30.0
 62
     5
 63
     7
421
 16777215
 74
     1
 91
        4
 64
     7
 65
   257
 75
     1
175
     1
 42
1.0
 92
       12
 66
     7
 43
1.0
 76
     1
 77
     6
 78
     2
 67
     7
 79
     5
170
     0
171
     0
290
     0
174
     0
 93
        1
 44
0.0
173
     0
291
     1
 45
0.0
  0
DICTIONARYVAR
  5
25FE
102
{ACAD_REACTORS
330
1109
102
}
330
1109
100
DictionaryVariables
280
     0
  1
1:1
  0
DICTIONARYVAR
  5
25FC
102
{ACAD_REACTORS
330
1109
102
}
330
1109
100
DictionaryVariables
280
     0
  1
STANDARD
  0
DICTIONARYVAR
  5
230F
102
{ACAD_REACTORS
330
1109
102
}
330
1109
100
DictionaryVariables
280
     0
  1
STANDARD
  0
DICTIONARYVAR
  5
1E1B
102
{ACAD_REACTORS
330
1109
102
}
330
1109
100
DictionaryVariables
280
     0
  1
1
  0
DICTIONARYVAR
  5
2600
102
{ACAD_REACTORS
330
1109
102
}
330
1109
100
DictionaryVariables
280
     0
  1
1
  0
DICTIONARYVAR
  5
2601
102
{ACAD_REACTORS
330
1109
102
}
330
1109
100
DictionaryVariables
280
     0
  1
15
  0
DICTIONARYVAR
  5
25FF
102
{ACAD_REACTORS
330
1109
102
}
330
1109
100
DictionaryVariables
280
     0
  1
0
  0
DICTIONARYVAR
  5
25FD
102
{ACAD_REACTORS
330
1109
102
}
330
1109
100
DictionaryVariables
280
     0
  1
0
  0
DICTIONARYVAR
  5
1E1C
102
{ACAD_REACTORS
330
1109
102
}
330
1109
100
DictionaryVariables
280
     0
  1

  0
DICTIONARYVAR
  5
110A
102
{ACAD_REACTORS
330
1109
102
}
330
1109
100
DictionaryVariables
280
     0
  1
96
  0
DICTIONARY
  5
2218
330
1615
100
AcDbDictionary
280
     1
281
     1
  3
ADSK_XREC_LAYOUTTHUMBNAIL
360
2219
  0
DICTIONARY
  5
2602
330
1E67
100
AcDbDictionary
280
     1
281
     1
  3
ACAD_ROUNDTRIP_2008_TABLESTYLE_CELLSTYLEMAP
360
2603
  0
XRECORD
  5
2219
102
{ACAD_REACTORS
330
2218
102
}
330
2218
100
AcDbXrecord
280
     1
310
28000000620000008C0000000100080000000000B036000000000000000000000001000000000000FFFFFF0000000000FFFFFF000000000000000000000000000000000000000000000000000000000000000000330000006600000099000000CC000000FF00000000330000333300006633000099330000CC330000FF3300
310
0000660000336600006666000099660000CC660000FF66000000990000339900006699000099990000CC990000FF99000000CC000033CC000066CC000099CC0000CCCC0000FFCC000000FF000033FF000066FF000099FF0000CCFF0000FFFF000000003300330033006600330099003300CC003300FF003300003333003333
310
33006633330099333300CC333300FF33330000663300336633006666330099663300CC663300FF66330000993300339933006699330099993300CC993300FF99330000CC330033CC330066CC330099CC3300CCCC3300FFCC330000FF330033FF330066FF330099FF3300CCFF3300FFFF330000006600330066006600660099
310
006600CC006600FF00660000336600333366006633660099336600CC336600FF33660000666600336666006666660099666600CC666600FF66660000996600339966006699660099996600CC996600FF99660000CC660033CC660066CC660099CC6600CCCC6600FFCC660000FF660033FF660066FF660099FF6600CCFF6600
310
FFFF660000009900330099006600990099009900CC009900FF00990000339900333399006633990099339900CC339900FF33990000669900336699006666990099669900CC669900FF66990000999900339999006699990099999900CC999900FF99990000CC990033CC990066CC990099CC9900CCCC9900FFCC990000FF99
310
0033FF990066FF990099FF9900CCFF9900FFFF99000000CC003300CC006600CC009900CC00CC00CC00FF00CC000033CC003333CC006633CC009933CC00CC33CC00FF33CC000066CC003366CC006666CC009966CC00CC66CC00FF66CC000099CC003399CC006699CC009999CC00CC99CC00FF99CC0000CCCC0033CCCC0066CC
310
CC0099CCCC00CCCCCC00FFCCCC0000FFCC0033FFCC0066FFCC0099FFCC00CCFFCC00FFFFCC000000FF003300FF006600FF009900FF00CC00FF00FF00FF000033FF003333FF006633FF009933FF00CC33FF00FF33FF000066FF003366FF006666FF009966FF00CC66FF00FF66FF000099FF003399FF006699FF009999FF00CC
310
99FF00FF99FF0000CCFF0033CCFF0066CCFF0099CCFF00CCCCFF00FFCCFF0000FFFF0033FFFF0066FFFF0099FFFF00CCFFFF00FFFFFF00000000000D0D0D001A1A1A00282828003535350043434300505050005D5D5D006B6B6B00787878008686860093939300A1A1A100AEAEAE00BBBBBB00C9C9C900D6D6D600E4E4E400
310
F1F1F100FFFFFF0000000000000000000000000000000000000000000000000000000000000000000000000000000000E2E2E2E2E2E2E2E2E2E2E2E2E2E2E2E2E2E2E2E2E2E2E2E2E2E2E2E2E2E2E2E2E2E2E2E2E2E2E2E2E2E2E2E2E2E2E2E2E2E2E2E2E2E2E2E2E2E2E2E2E2E2E2E2E2E2E2E2E2E2E2E2E2E2E2E2E2E2E2
310
E2E2E2E2E2E2E2E2E2E2E2E2E2E2E2E2E2E2E20533E2F5F5F5F5F5F5F5F5F5F5F5F5F5F5F5F5F5F5F5F5F5F5F5F5F5F5F5F5F5F5F5F5F5F5F5F5F5F5F5F5F5F5F5F5F5F5F5F5F5F5F5F5F5F5F5F5F5F5F5F5F5F5F5F5F5F5F5F5F5F5F5F5F5F5F5F5F5F5F5F5F5F5F5F5F5F5F5F5F5F5F5F5F5F5F5F5E20000E2F5F5F5F5F5
310
F5F5F5F5F5F5F5F5F5F5F5F5F5F5F5F5F5F5F5F5F5F5F5F5F5F5F5F5F5F5F5F5F5F5F5F5F5F5F5F5F5F5F5F5F5F5F5F5F5F5F5F5F5F5F5F5F5F5F5F5F5F5F5F5F5F5F5F5F5F5F5F5F5F5F5F5F5F5F5F5F5F5F5F5F5F5F5F5F5F5F5E20000E2F5F5E2E2E2E2E2E2E2E2F5F5F5F5F5F5F5F5E2E2E2E2E2E2E2E2E2E2E2E2E2E2
310
E2F5F5F5F5F5F5F5F5E2E2E2E2E2E2E2E2E2E2E2E2E2E2F5F5F5F5F5F5F5F5E2E2E2E2E2E2E2E2E2E2E2E2E2E2E2F5F5F5F5F5F5F5F5E2E2E2E2E2E2E2E2F5F5E24701E2F5F5E2F5F5F5F5F5F5F5F5F5F5F5F5F5F5F5F5F5F5F5F5F5F5F5F5F5F5F5F5F5F5F5F5F5F5F5F5F5F5F5F5F5F5F5F5F5F5F5F5F5F5F5F5F5F5F5F5
310
F5F5F5F5F5F5F5F5F5F5F5F5F5F5F5F5F5F5F5F5F5F5F5F5F5F5F5F5F5F5F5F5F5F5E2F5F5E20833E2F5F5E2F5F5F5F5F5F5F5F5F5F5F5F5F5F5F5F5F5F5F5F5F5F5F5F5F5F5F5F5F5F5F5F5F5F5F5F5F5F5F5F5F5F5F5F5F5F5F5F5F5F5F5F5F5F5F5F5F5F5F5F5F5F5F5F5F5F5F5F5F5F5F5F5F5F5F5F5F5F5F5F5F5F5F5
310
F5F5F5F5F5F5F5E2F5F5E20000E2F5F5E2F5F5F5F5F5F5F5F5F5F5F5F5F5F5F5F5F5F5F5F5F5F5F5F5F5F5F5F5F5F5F5F5F5F5F5F5F5F5F5F5F5F5F5F5F5F5F5F5F5F5F5F5F5F5F5F5F5F5F5F5F5F5F5F5F5F5F5F5F5F5F5F5F5F5F5F5F5F5F5F5F5F5F5F5F5F5F5F5F5F5E2F5F5E20000E2F5F5E2F5F5F5F5F5F5F5F5F5F5
310
F5F5F5F5F5F5F5F5F5F5F5F5F5F5F5F5F5F5F5F5F5F5F5F5F5F5F5F5F5F5F5F5F5F5F5F5F5F5F5F5F5F5F5F5F5F5F5F5F5F5F5F5F5F5F5F5F5F5F5F5F5F5F5F5F5F5F5F5F5F5F5F5F5F5F5F5F5F5F5F5E2F5F5E24701E2F5F5E2F5F5F5F5F5F5F5F5F5F5F5F5F5F5F5F5F5F5F5F5F5F5F5F5F5F5F5F5F5F5F5F5F5F5F5F5F5
310
F5F5F5F5F5F5F5F5F5F5F5F5F5F5F5F5F5F5F5F5F5F5F5F5F5F5F5F5F5F5F5F5F5F5F5F5F5F5F5F5F5F5F5F5F5F5F5F5F5F5F5F5F5E2F5F5E20000E2F5F5E2F5F5F5F5F5F5F5F5F5F5F5F5F5F5F5F5F5F5F5F5F5F5F5F5F5F5F5F5F5F5F5F5F5F5F5F5F5F5F5F5F5F5F5F5F5F5F5F5F5F5F5F5F5F5F5F5F5F5F5F5F5F5F5F5
310
F5F5F5F5F5F5F5F5F5F5F5F5F5F5F5F5F5F5F5F5F5F5F5F5F5F5E2F5F5E2907EE2F5F5E2F5F5F5F5F5F5F5F5F5F5F5F5F5F5F5F5F5F5F5F5F5F5F5F5F5F5F5F5F5F5F5F5F5F5F5F5F5F5F5F5F5F5F5F5F5F5F5F5F5F5F5F5F5F5F5F5F5F5F5F5F5F5F5F5F5F5F5F5F5F5F5F5F5F5F5F5F5F5F5F5F5F5F5F5F5F5F5F5F5F5E2
310
F5F5E20000E2F5F5E2F5F5F5F5F5F5F5F5F5F5F5F5F5F5F5F5F5F5F5F5F5F5F5F5F5F5F5F5F5F5F5F5F5F5F5F5F5F5F5F5F5F5F5F5F5F5F5F5F5F5F5F5F5F5F5F5F5F5F5F5F5F5F5F5F5F5F5F5F5F5F5F5F5F5F5F5F5F5F5F5F5F5F5F5F5F5F5F5F5F5E2F5F5E26033E2F5F5F5F5F5F5F5F5F5F5F5F5F5F5F5F5F5F5F5F5F5
310
F5F5F5F5F5F5F5F5F5F5F5F5F5F5F5F5F5F5F5F5F5F5F5F5F5F5F5F5F5F5F5F5F5F5F5F5F5F5F5F5F5F5F5F5F5F5F5F5F5F5F5F5F5F5F5F5F5F5F5F5F5F5F5F5F5F5F5F5F5F5F5F5F5F5F5E2FF00E2F5F5F5F5F5F5F5F5F5F5F5F5F5F5F5F5F5F5F5F5F5F5F5F5F5F5F5F5F5F5F5F5F5F5F5F5F5F5F5F5F5F5F5F5F5F5F5F5
310
F5F5F5F5F5F5F5F5F5F5F5F5F5F5F5F5F5F5F5F5F5F5F5F5F5F5F5F5F5F5F5F5F5F5F5F5F5F5F5F5F5F5F5F5F5F5F5F5E20000E2F5F5F5F5F5F5F5F5F5F5F5F5F5F5F5F5F5F5F5F5F5F5F5F5F5F5F5F5F5F5F5F5F5F5F5F5F5F5F5F5F5F5F5F5F5F5F5F5F5F5F5F5F5F5F5F5F5F5F5F5F5F5F5F5F5F5F5F5F5F5F5F5F5F5F5
310
F5F5F5F5F5F5F5F5F5F5F5F5F5F5F5F5F5F5F5F5F5E23300E2F5F5F5F5F5F5F5F5F5F5F5F5F5F5F5F5F5F5F5F5F5F5F5F5F5F5F5F5F5F5F5F5F5F5F5F5F5F5F5F5F5F5F5F5F5F5F5F5F5F5F5F5F5F5F5F5F5F5F5F5F5F5F5F5F5F5F5F5F5F5F5F5F5F5F5F5F5F5F5F5F5F5F5F5F5F5F5F5F5F5F5F5F5F5F5F5E23300E2F5F5
310
F5F5F5F5F5F5F5F5F5F5F5F5F5F5F5F5F5F5F5F5F5F5F5F5F5F5F5F5F5F5F5F5F5F5F5F5F5F5F5F5F5F5F5F5F5F5F5F5F5F5F5F5F5F5F5F5F5F5F5F5F5F5F5F5F5F5F5F5F5F5F5F5F5F5F5F5F5F5F5F5F5F5F5F5F5F5F5F5F5F5F5F5F5F5E26600E2F5F5F5F5F5F5F5F5F5F5F5F5F5F5F5F5F5F5F5F5F5F5F5F5F5F5F5F5F5
310
F5F5F5F5F5F5F5F5F5F5F5F5F5F5F5F5F5F5F5F5F5F5F5F5F5F5F5F5F5F5F5F5F5F5F5F5F5F5F5F5F5F5F5F5F5F5F5F5F5F5F5F5F5F5F5F5F5F5F5F5F5F5F5F5F5F5F5E29900E2F5F5F5F5F5F5F5F5F5F5F5F5F5F5F5F5F5F5F5F5F5F5F5F5F5F5F5F5F5F5F5F5F5F5F5F5F5F5F5F5F5F5F5F5F5F5F5F5F5F5F5F5F5F5F5F5
310
F5F5F5F5F5F5F5F5F5F5F5F5F5F5F5F5F5F5F5F5F5F5F5F5F5F5F5F5F5F5F5F5F5F5F5F5F5F5F5F5E29900E2F5F5F5F5F5F5F5F5F5F5F5F5F5F5F5F5F5F5F5F5F5F5F5F5F5F5F5F5F5F5F5F5F5F5F5F5F5F5F5F5F5F5F5F5F5F5F5F5F5F5F5F5F5F5F5F5F5F5F5F5F5F5F5F5F5F5F5F5F5F5F5F5F5F5F5F5F5F5F5F5F5F5F5
310
F5F5F5F5F5F5F5F5F5F5F5F5F5E2CC00E2F5F5F5F5F5F5F5F5F5F5F5F5F5F5F5F5F5F5F5F5F5F5F5F5F5F5F5F5F5F5F5F5F5F5F5F5F5F5F5F5F5F5F5F5F5F5F5F5F5F5F5F5F5F5F5F5F5F5F5F5F5F5F5F5F5F5F5F5F5F5F5F5F5F5F5F5F5F5F5F5F5F5F5F5F5F5F5F5F5F5F5F5F5F5F5F5E2FF00E2F5F5E2F5F5F5F5F5F5F5
310
F5F5F5F5F5F5F5F5F5F5F5F5F5F5F5F5F5F5F5F5F5F5F5F5F5F5F5F5F5F5F5F5F5F5F5F5F5F5F5F5F5F5F5F5F5F5F5F5F5F5F5F5F5F5F5F5F5F5F5F5F5F5F5F5F5F5F5F5F5F5F5F5F5F5F5F5F5F5F5F5F5F5F5E2F5F5E2FF00E2F5F5E2F5F5F5F5F5F5F5F5F5F5F5F5F5F5F5F5F5F5F5F5F5F5F5F5F5F5F5F5F5F5F5F5F5F5
310
F5F5F5F5F5F5F5F5F5F5F5F5F5F5F5F5F5F5F5F5F5F5F5F5F5F5F5F5F5F5F5F5F5F5F5F5F5F5F5F5F5F5F5F5F5F5F5F5F5F5F5F5F5F5F5F5E2F5F5E20000E2F5F5E2F5F5F5F5F5F5F5F5F5F5F5F5F5F5F5F5F5F5F5F5F5F5F5F5F5F5F5F5F5F5F5F5F5F5F5F5F5F5F5F5F5F5F5F5F5F5F5F5F5F5F5F5F5F5F5F5F5F5F5F5F5
310
F5F5F5F5F5F5F5F5F5F5F5F5F5F5F5F5F5F5F5F5F5F5F5F5F5F5F5F5F5E2F5F5E20101E2F5F5E2F5F5F5F5F5F5F5F5F5F5F5F5F5F5F5F5F5F5F5F5F5F5F5F5F5F5F5F5F5F5F5F5F5F5F5F5F5F5F5F5F5F5F5F5F5F5F5F5F5F5F5F5F5F5F5F5F5F5F5F5F5F5F5F5F5F5F5F5F5F5F5F5F5F5F5F5F5F5F5F5F5F5F5F5F5F5F5F5
310
F5F5E2F5F5E20000E2F5F5E2F5F5F5F5F5F5F5F5F5F5F5F5F5F5F5F5F5F5F5F5F5F5F5F5F5F5F5F5F5F5F5F5F5F5F5F5F5F5F5F5F5F5F5F5F5F5F5F5F5F5F5F5F5F5F5F5F5F5F5F5F5F5F5F5F5F5F5F5F5F5F5F5F5F5F5F5F5F5F5F5F5F5F5F5F5F5F5F5F5F5E2F5F5E24701E2F5F5E2F5F5F5F5F5F5F5F5F5F5F5F5F5F5F5
310
F5F5F5F5F5F5F5F5F5F5F5F5F5F5F5F5F5F5F5F5F5F5F5F5F5F5F5F5F5F5F5F5F5F5F5F5F5F5F5F5F5F5F5F5F5F5F5F5F5F5F5F5F5F5F5F5F5F5F5F5F5F5F5F5F5F5F5F5F5F5F5F5F5F5F5E2F5F5E20933E2F5F5E2F5F5F5F5F5F5F5F5F5F5F5F5F5F5F5F5F5F5F5F5F5F5F5F5F5F5F5F5F5F5F5F5F5F5F5F5F5F5F5F5F5F5
310
F5F5F5F5F5F5F5F5F5F5F5F5F5F5F5F5F5F5F5F5F5F5F5F5F5F5F5F5F5F5F5F5F5F5F5F5F5F5F5F5F5F5F5F5F5F5F5F5E2F5F5E20000E2F5F5E2F5F5F5F5F5F5F5F5F5F5F5F5F5F5F5F5F5F5F5F5F5F5F5F5F5F5F5F5F5F5F5F5F5F5F5F5F5F5F5F5F5F5F5F5F5F5F5F5F5F5F5F5F5F5F5F5F5F5F5F5F5F5F5F5F5F5F5F5F5
310
F5F5F5F5F5F5F5F5F5F5F5F5F5F5F5F5F5F5F5F5F5E2F5F5E20000E2F5F5E2F5F5F5F5F5F5F5F5F5F5F5F5F5F5F5F5F5F5F5F5F5F5F5F5F5F5F5F5F5F5F5F5F5F5F5F5F5F5F5F5F5F5F5F5F5F5F5F5F5F5F5F5F5F5F5F5F5F5F5F5F5F5F5F5F5F5F5F5F5F5F5F5F5F5F5F5F5F5F5F5F5F5F5F5F5F5F5F5F5F5E2F5F5E24701
310
E2F5F5E2F5F5F5F5F5F5F5F5F5F5F5F5F5F5F5F5F5F5F5F5F5F5F5F5F5F5F5F5F5F5F5F5F5F5F5F5F5F5F5F5F5F5F5F5F5F5F5F5F5F5F5F5F5F5F5F5F5F5F5F5F5F5F5F5F5F5F5F5F5F5F5F5F5F5F5F5F5F5F5F5F5F5F5F5F5F5F5F5F5F5E2F5F5E20E33E2F5F5E2F5F5F5F5F5F5F5F5F5F5F5F5F5F5F5F5F5F5F5F5F5F5F5
310
F5F5F5F5F5F5F5F5F5F5F5F5F5F5F5F5F5F5F5F5F5F5F5F5F5F5F5F5F5F5F5F5F5F5F5F5F5F5F5F5F5F5F5F5F5F5F5F5F5F5F5F5F5F5F5F5F5F5F5F5F5F5F5F5F5F5F5E2F5F5E20000E2F5F5E2F5F5F5F5F5F5F5F5F5F5F5F5F5F5F5F5F5F5F5F5F5F5F5F5F5F5F5F5F5F5F5F5F5F5F5F5F5F5F5F5F5F5F5F5F5F5F5F5F5F5
310
F5F5F5F5F5F5F5F5F5F5F5F5F5F5F5F5F5F5F5F5F5F5F5F5F5F5F5F5F5F5F5F5F5F5F5F5F5F5F5F5E2F5F5E20000E2F5F5E2F5F5F5F5F5F5F5F5F5F5F5F5F5F5F5F5F5F5F5F5F5F5F5F5F5F5F5F5F5F5F5F5F5F5F5F5F5F5F5F5F5F5F5F5F5F5F5F5F5F5F5F5F5F5F5F5F5F5F5F5F5F5F5F5F5F5F5F5F5F5F5F5F5F5F5F5F5
310
F5F5F5F5F5F5F5F5F5F5F5F5F5E2F5F5E24701E2F5F5E2F5F5F5F5F5F5F5F5F5F5F5F5F5F5F5F5F5F5F5F5F5F5F5F5F5F5F5F5F5F5F5F5F5F5F5F5F5F5F5F5F5F5F5F5F5F5F5F5F5F5F5F5F5F5F5F5F5F5F5F5F5F5F5F5F5F5F5F5F5F5F5F5F5F5F5F5F5F5F5F5F5F5F5F5F5F5F5F5F5F5E2F5F5E20533E2F5F5E2F5F5F5F5
310
F5F5F5F5F5F5F5F5F5F5F5F5F5F5F5F5F5F5F5F5F5F5F5F5F5F5F5F5F5F5F5F5F5F5F5F5F5F5F5F5F5F5F5F5F5F5F5F5F5F5F5F5F5F5F5F5F5F5F5F5F5F5F5F5F5F5F5F5F5F5F5F5F5F5F5F5F5F5F5F5F5F5F5F5F5F5E2F5F5E20000E2F5F5E2F5F5F5F5F5F5F5F5F5F5F5F5F5F5F5F5F5F5F5F5F5F5F5F5F5F5F5F5F5F5F5
310
F5F5F5F5F5F5F5F5F5F5F5F5F5F5F5F5F5F5F5F5F5F5F5F5F5F5F5F5F5F5F5F5F5F5F5F5F5F5F5F5F5F5F5F5F5F5F5F5F5F5F5F5F5F5F5F5F5F5F5E2F5F5E20000E2F5F5E2F5F5F5F5F5F5F5F5F5F5F5F5F5F5F5F5F5F5F5F5F5F5F5F5F5F5F5F5F5F5F5F5F5F5F5F5F5F5F5F5F5F5F5F5F5F5F5F5F5F5F5F5F5F5F5F5F5F5
310
F5F5F5F5F5F5F5F5F5F5F5F5F5F5F5F5F5F5F5F5F5F5F5F5F5F5F5F5F5F5F5F5E2F5F5E24701E2F5F5F5F5F5F5F5F5F5F5F5F5F5F5F5F5F5F5F5F5F5F5F5F5F5F5F5F5F5F5F5F5F5F5F5F5F5F5F5F5F5F5F5F5F5F5F5F5F5F5F5F5F5F5F5F5F5F5F5F5F5F5F5F5F5F5F5F5F5F5F5F5F5F5F5F5F5F5F5F5F5F5F5F5F5F5F5F5
310
F5F5F5F5F5F5F5F5E20133E2F5F5F5F5F5F5F5F5F5F5F5F5F5F5F5F5F5F5F5F5F5F5F5F5F5F5F5F5F5F5F5F5F5F5F5F5F5F5F5F5F5F5F5F5F5F5F5F5F5F5F5F5F5F5F5F5F5F5F5F5F5F5F5F5F5F5F5F5F5F5F5F5F5F5F5F5F5F5F5F5F5F5F5F5F5F5F5F5F5F5F5F5F5F5F5F5E20000E2F5F5F5F5F5F5F5F5F5F5F5F5F5F5F5
310
F5F5F5F5F5F5F5F5F5F5F5F5F5F5F5F5F5F5F5F5F5F5F5F5F5F5F5F5F5F5F5F5F5F5F5F5F5F5F5F5F5F5F5F5F5F5F5F5F5F5F5F5F5F5F5F5F5F5F5F5F5F5F5F5F5F5F5F5F5F5F5F5F5F5F5F5F5F5F5F5F5E20000E2F5F5F5F5F5F5F5F5F5F5F5F5F5F5F5F5F5F5F5F5F5F5F5F5F5F5F5F5F5F5F5F5F5F5F5F5F5F5F5F5F5F5
310
F5F5F5F5F5F5F5F5F5F5F5F5F5F5F5F5F5F5F5F5F5F5F5F5F5F5F5F5F5F5F5F5F5F5F5F5F5F5F5F5F5F5F5F5F5F5F5F5F5F5F5F5F5F5E24701E2F5F5F5F5F5F5F5F5F5F5F5F5F5F5F5F5F5F5F5F5F5F5F5F5F5F5F5F5F5F5F5F5F5F5F5F5F5F5F5F5F5F5F5F5F5F5F5F5F5F5F5F5F5F5F5F5F5F5F5F5F5F5F5F5F5F5F5F5F5
310
F5F5F5F5F5F5F5F5F5F5F5F5F5F5F5F5F5F5F5F5F5F5F5F5F5F5F5E20C33E2F5F5F5F5F5F5F5F5F5F5F5F5F5F5F5F5F5F5F5F5F5F5F5F5F5F5F5F5F5F5F5F5F5F5F5F5F5F5F5F5F5F5F5F5F5F5F5F5F5F5F5F5F5F5F5F5F5F5F5F5F5F5F5F5F5F5F5F5F5F5F5F5F5F5F5F5F5F5F5F5F5F5F5F5F5F5F5F5F5F5F5F5F5F5F5F5
310
E20000E2F5F5F5F5F5F5F5F5F5F5F5F5F5F5F5F5F5F5F5F5F5F5F5F5F5F5F5F5F5F5F5F5F5F5F5F5F5F5F5F5F5F5F5F5F5F5F5F5F5F5F5F5F5F5F5F5F5F5F5F5F5F5F5F5F5F5F5F5F5F5F5F5F5F5F5F5F5F5F5F5F5F5F5F5F5F5F5F5F5F5F5F5F5F5F5F5E2957EE2F5F5F5F5F5F5F5F5F5F5F5F5F5F5F5F5F5F5F5F5F5F5F5
310
F5F5F5F5F5F5F5F5F5F5F5F5F5F5F5F5F5F5F5F5F5F5F5F5F5F5F5F5F5F5F5F5F5F5F5F5F5F5F5F5F5F5F5F5F5F5F5F5F5F5F5F5F5F5F5F5F5F5F5F5F5F5F5F5F5F5F5F5F5F5F5F5F5E2907EE2F5F5F5F5F5F5F5F5F5F5F5F5F5F5F5F5F5F5F5F5F5F5F5F5F5F5F5F5F5F5F5F5F5F5F5F5F5F5F5F5F5F5F5F5F5F5F5F5F5F5
310
F5F5F5F5F5F5F5F5F5F5F5F5F5F5F5F5F5F5F5F5F5F5F5F5F5F5F5F5F5F5F5F5F5F5F5F5F5F5F5F5F5F5F5F5F5F5E2FFFFE2F5F5F5F5F5F5F5F5F5F5F5F5F5F5F5F5F5F5F5F5F5F5F5F5F5F5F5F5F5F5F5F5F5F5F5F5F5F5F5F5F5F5F5F5F5F5F5F5F5F5F5F5F5F5F5F5F5F5F5F5F5F5F5F5F5F5F5F5F5F5F5F5F5F5F5F5F5
310
F5F5F5F5F5F5F5F5F5F5F5F5F5F5F5F5F5F5F5E20000E2F5F5E2F5F5F5F5F5F5F5F5F5F5F5F5F5F5F5F5F5F5F5F5F5F5F5F5F5F5F5F5F5F5F5F5F5F5F5F5F5F5F5F5F5F5F5F5F5F5F5F5F5F5F5F5F5F5F5F5F5F5F5F5F5F5F5F5F5F5F5F5F5F5F5F5F5F5F5F5F5F5F5F5F5F5F5F5F5F5F5F5F5F5E2F5F5E20000E2F5F5E2F5
310
F5F5F5F5F5F5F5F5F5F5F5F5F5F5F5F5F5F5F5F5F5F5F5F5F5F5F5F5F5F5F5F5F5F5F5F5F5F5F5F5F5F5F5F5F5F5F5F5F5F5F5F5F5F5F5F5F5F5F5F5F5F5F5F5F5F5F5F5F5F5F5F5F5F5F5F5F5F5F5F5F5F5F5F5F5F5F5F5F5E2F5F5E23300E2F5F5E2F5F5F5F5F5F5F5F5F5F5F5F5F5F5F5F5F5F5F5F5F5F5F5F5F5F5F5F5
310
F5F5F5F5F5F5F5F5F5F5F5F5F5F5F5F5F5F5F5F5F5F5F5F5F5F5F5F5F5F5F5F5F5F5F5F5F5F5F5F5F5F5F5F5F5F5F5F5F5F5F5F5F5F5F5F5F5F5F5F5F5F5E2F5F5E26600E2F5F5E2F5F5F5F5F5F5F5F5F5F5F5F5F5F5F5F5F5F5F5F5F5F5F5F5F5F5F5F5F5F5F5F5F5F5F5F5F5F5F5F5F5F5F5F5F5F5F5F5F5F5F5F5F5F5F5
310
F5F5F5F5F5F5F5F5F5F5F5F5F5F5F5F5F5F5F5F5F5F5F5F5F5F5F5F5F5F5F5F5F5F5F5E2F5F5E26600E2F5F5E2F5F5F5F5F5F5F5F5F5F5F5F5F5F5F5F5F5F5F5F5F5F5F5F5F5F5F5F5F5F5F5F5F5F5F5F5F5F5F5F5F5F5F5F5F5F5F5F5F5F5F5F5F5F5F5F5F5F5F5F5F5F5F5F5F5F5F5F5F5F5F5F5F5F5F5F5F5F5F5F5F5F5
310
F5F5F5F5F5F5F5F5E2F5F5E29900E2F5F5E2F5F5F5F5F5F5F5F5F5F5F5F5F5F5F5F5F5F5F5F5F5F5F5F5F5F5F5F5F5F5F5F5F5F5F5F5F5F5F5F5F5F5F5F5F5F5F5F5F5F5F5F5F5F5F5F5F5F5F5F5F5F5F5F5F5F5F5F5F5F5F5F5F5F5F5F5F5F5F5F5F5F5F5F5F5F5F5F5F5F5E2F5F5E2CC00E2F5F5E2F5F5F5F5F5F5F5F5F5
310
F5F5F5F5F5F5F5F5F5F5F5F5F5F5F5F5F5F5F5F5F5F5F5F5F5F5F5F5F5F5F5F5F5F5F5F5F5F5F5F5F5F5F5F5F5F5F5F5F5F5F5F5F5F5F5F5F5F5F5F5F5F5F5F5F5F5F5F5F5F5F5F5F5F5F5F5F5F5F5F5F5E2F5F5E2CC00E2F5F5E2F5F5F5F5F5F5F5F5F5F5F5F5F5F5F5F5F5F5F5F5F5F5F5F5F5F5F5F5F5F5F5F5F5F5F5F5
310
F5F5F5F5F5F5F5F5F5F5F5F5F5F5F5F5F5F5F5F5F5F5F5F5F5F5F5F5F5F5F5F5F5F5F5F5F5F5F5F5F5F5F5F5F5F5F5F5F5F5F5F5F5F5E2F5F5E2FF00E2F5F5E2F5F5F5F5F5F5F5F5F5F5F5F5F5F5F5F5F5F5F5F5F5F5F5F5F5F5F5F5F5F5F5F5F5F5F5F5F5F5F5F5F5F5F5F5F5F5F5F5F5F5F5F5F5F5F5F5F5F5F5F5F5F5F5
310
F5F5F5F5F5F5F5F5F5F5F5F5F5F5F5F5F5F5F5F5F5F5F5F5F5F5F5E2F5F5E25000E2F5F5E2F5F5F5F5F5F5F5F5F5F5F5F5F5F5F5F5F5F5F5F5F5F5F5F5F5F5F5F5F5F5F5F5F5F5F5F5F5F5F5F5F5F5F5F5F5F5F5F5F5F5F5F5F5F5F5F5F5F5F5F5F5F5F5F5F5F5F5F5F5F5F5F5F5F5F5F5F5F5F5F5F5F5F5F5F5F5F5F5F5F5
310
E2F5F5E20000E2F5F5E2F5F5F5F5F5F5F5F5F5F5F5F5F5F5F5F5F5F5F5F5F5F5F5F5F5F5F5F5F5F5F5F5F5F5F5F5F5F5F5F5F5F5F5F5F5F5F5F5F5F5F5F5F5F5F5F5F5F5F5F5F5F5F5F5F5F5F5F5F5F5F5F5F5F5F5F5F5F5F5F5F5F5F5F5F5F5F5F5F5F5E2F5F5E20000E2F5F5E2F5F5F5F5F5F5F5F5F5F5F5F5F5F5F5F5F5
310
F5F5F5F5F5F5F5F5F5F5F5F5F5F5F5F5F5F5F5F5F5F5F5F5F5F5F5F5F5F5F5F5F5F5F5F5F5F5F5F5F5F5F5F5F5F5F5F5F5F5F5F5F5F5F5F5F5F5F5F5F5F5F5F5F5F5F5F5F5F5F5F5F5E2F5F5E20000E2F5F5E2F5F5F5F5F5F5F5F5F5F5F5F5F5F5F5F5F5F5F5F5F5F5F5F5F5F5F5F5F5F5F5F5F5F5F5F5F5F5F5F5F5F5F5F5
310
F5F5F5F5F5F5F5F5F5F5F5F5F5F5F5F5F5F5F5F5F5F5F5F5F5F5F5F5F5F5F5F5F5F5F5F5F5F5F5F5F5F5F5F5F5F5E2F5F5E20000E2F5F5E2F5F5F5F5F5F5F5F5F5F5F5F5F5F5F5F5F5F5F5F5F5F5F5F5F5F5F5F5F5F5F5F5F5F5F5F5F5F5F5F5F5F5F5F5F5F5F5F5F5F5F5F5F5F5F5F5F5F5F5F5F5F5F5F5F5F5F5F5F5F5F5
310
F5F5F5F5F5F5F5F5F5F5F5F5F5F5F5F5F5F5F5E2F5F5E20000E2F5F5E2F5F5F5F5F5F5F5F5F5F5F5F5F5F5F5F5F5F5F5F5F5F5F5F5F5F5F5F5F5F5F5F5F5F5F5F5F5F5F5F5F5F5F5F5F5F5F5F5F5F5F5F5F5F5F5F5F5F5F5F5F5F5F5F5F5F5F5F5F5F5F5F5F5F5F5F5F5F5F5F5F5F5F5F5F5F5F5F5F5F5E2F5F5E20000E2F5
310
F5E2F5F5F5F5F5F5F5F5F5F5F5F5F5F5F5F5F5F5F5F5F5F5F5F5F5F5F5F5F5F5F5F5F5F5F5F5F5F5F5F5F5F5F5F5F5F5F5F5F5F5F5F5F5F5F5F5F5F5F5F5F5F5F5F5F5F5F5F5F5F5F5F5F5F5F5F5F5F5F5F5F5F5F5F5F5F5F5F5F5F5E2F5F5E20000E2F5F5F5F5F5F5F5F5F5F5F5F5F5F5F5F5F5F5F5F5F5F5F5F5F5F5F5F5
310
F5F5F5F5F5F5F5F5F5F5F5F5F5F5F5F5F5F5F5F5F5F5F5F5F5F5F5F5F5F5F5F5F5F5F5F5F5F5F5F5F5F5F5F5F5F5F5F5F5F5F5F5F5F5F5F5F5F5F5F5F5F5F5F5F5F5F5F5E20000E2F5F5F5F5F5F5F5F5F5F5F5F5F5F5F5F5F5F5F5F5F5F5F5F5F5F5F5F5F5F5F5F5F5F5F5F5F5F5F5F5F5F5F5F5F5F5F5F5F5F5F5F5F5F5F5
310
F5F5F5F5F5F5F5F5F5F5F5F5F5F5F5F5F5F5F5F5F5F5F5F5F5F5F5F5F5F5F5F5F5F5F5F5F5F5F5F5F5E20000E2F5F5F5F5F5F5F5F5F5F5F5F5F5F5F5F5F5F5F5F5F5F5F5F5F5F5F5F5F5F5F5F5F5F5F5F5F5F5F5F5F5F5F5F5F5F5F5F5F5F5F5F5F5F5F5F5F5F5F5F5F5F5F5F5F5F5F5F5F5F5F5F5F5F5F5F5F5F5F5F5F5F5
310
F5F5F5F5F5F5F5F5F5F5F5F5F5F5E20000E2F5F5F5F5F5F5F5F5F5F5F5F5F5F5F5F5F5F5F5F5F5F5F5F5F5F5F5F5F5F5F5F5F5F5F5F5F5F5F5F5F5F5F5F5F5F5F5F5F5F5F5F5F5F5F5F5F5F5F5F5F5F5F5F5F5F5F5F5F5F5F5F5F5F5F5F5F5F5F5F5F5F5F5F5F5F5F5F5F5F5F5F5F5F5F5F5E20000E2F5F5F5F5F5F5F5F5F5
310
F5F5F5F5F5F5F5F5F5F5F5F5F5F5F5F5F5F5F5F5F5F5F5F5F5F5F5F5F5F5F5F5F5F5F5F5F5F5F5F5F5F5F5F5F5F5F5F5F5F5F5F5F5F5F5F5F5F5F5F5F5F5F5F5F5F5F5F5F5F5F5F5F5F5F5F5F5F5F5F5F5F5F5F5F5F5F5E20000E2F5F5F5F5F5F5F5F5F5F5F5F5F5F5F5F5F5F5F5F5F5F5F5F5F5F5F5F5F5F5F5F5F5F5F5F5
310
F5F5F5F5F5F5F5F5F5F5F5F5F5F5F5F5F5F5F5F5F5F5F5F5F5F5F5F5F5F5F5F5F5F5F5F5F5F5F5F5F5F5F5F5F5F5F5F5F5F5F5F5F5F5F5F5F5F5F5F5E20000E2F5F5F5F5F5F5F5F5F5F5F5F5F5F5F5F5F5F5F5F5F5F5F5F5F5F5F5F5F5F5F5F5F5F5F5F5F5F5F5F5F5F5F5F5F5F5F5F5F5F5F5F5F5F5F5F5F5F5F5F5F5F5F5
310
F5F5F5F5F5F5F5F5F5F5F5F5F5F5F5F5F5F5F5F5F5F5F5F5F5F5F5F5F5F5F5F5F5E20000E2F5F5F5F5F5F5F5F5F5F5F5F5F5F5F5F5F5F5F5F5F5F5F5F5F5F5F5F5F5F5F5F5F5F5F5F5F5F5F5F5F5F5F5F5F5F5F5F5F5F5F5F5F5F5F5F5F5F5F5F5F5F5F5F5F5F5F5F5F5F5F5F5F5F5F5F5F5F5F5F5F5F5F5F5F5F5F5F5F5F5
310
F5F5F5F5F5F5E20000E2F5F5F5F5F5F5F5F5F5F5F5F5F5F5F5F5F5F5F5F5F5F5F5F5F5F5F5F5F5F5F5F5F5F5F5F5F5F5F5F5F5F5F5F5F5F5F5F5F5F5F5F5F5F5F5F5F5F5F5F5F5F5F5F5F5F5F5F5F5F5F5F5F5F5F5F5F5F5F5F5F5F5F5F5F5F5F5F5F5F5F5F5F5F5F5F5E20000E2F5F5F5F5F5F5F5F5F5F5F5F5F5F5F5F5F5
310
F5F5F5F5F5F5F5F5F5F5F5F5F5F5F5F5F5F5F5F5F5F5F5F5F5F5F5F5F5F5F5F5F5F5F5F5F5F5F5F5F5F5F5F5F5F5F5F5F5F5F5F5F5F5F5F5F5F5F5F5F5F5F5F5F5F5F5F5F5F5F5F5F5F5F5F5F5F5F5E20000E2F5F5E2F5F5F5F5F5F5F5F5F5F5F5F5F5F5F5F5F5F5F5F5F5F5F5F5F5F5F5F5F5F5F5F5F5F5F5F5F5F5F5F5F5
310
F5F5F5F5F5F5F5F5F5F5F5F5F5F5F5F5F5F5F5F5F5F5F5F5F5F5F5F5F5F5F5F5F5F5F5F5F5F5F5F5F5F5F5F5F5F5F5F5F5E2F5F5E20000E2F5F5E2F5F5F5F5F5F5F5F5F5F5F5F5F5F5F5F5F5F5F5F5F5F5F5F5F5F5F5F5F5F5F5F5F5F5F5F5F5F5F5F5F5F5F5F5F5F5F5F5F5F5F5F5F5F5F5F5F5F5F5F5F5F5F5F5F5F5F5F5
310
F5F5F5F5F5F5F5F5F5F5F5F5F5F5F5F5F5F5F5F5F5F5E2F5F5E20000E2F5F5E2F5F5F5F5F5F5F5F5F5F5F5F5F5F5F5F5F5F5F5F5F5F5F5F5F5F5F5F5F5F5F5F5F5F5F5F5F5F5F5F5F5F5F5F5F5F5F5F5F5F5F5F5F5F5F5F5F5F5F5F5F5F5F5F5F5F5F5F5F5F5F5F5F5F5F5F5F5F5F5F5F5F5F5F5F5F5F5F5F5F5E2F5F5E200
310
00E2F5F5E2F5F5F5F5F5F5F5F5F5F5F5F5F5F5F5F5F5F5F5F5F5F5F5F5F5F5F5F5F5F5F5F5F5F5F5F5F5F5F5F5F5F5F5F5F5F5F5F5F5F5F5F5F5F5F5F5F5F5F5F5F5F5F5F5F5F5F5F5F5F5F5F5F5F5F5F5F5F5F5F5F5F5F5F5F5F5F5F5F5F5E2F5F5E20000E2F5F5E2F5F5F5F5F5F5F5F5F5F5F5F5F5F5F5F5F5F5F5F5F5F5
310
F5F5F5F5F5F5F5F5F5F5F5F5F5F5F5F5F5F5F5F5F5F5F5F5F5F5F5F5F5F5F5F5F5F5F5F5F5F5F5F5F5F5F5F5F5F5F5F5F5F5F5F5F5F5F5F5F5F5F5F5F5F5F5F5F5F5F5F5E2F5F5E20000E2F5F5E2F5F5F5F5F5F5F5F5F5F5F5F5F5F5F5F5F5F5F5F5F5F5F5F5F5F5F5F5F5F5F5F5F5F5F5F5F5F5F5F5F5F5F5F5F5F5F5F5F5
310
F5F5F5F5F5F5F5F5F5F5F5F5F5F5F5F5F5F5F5F5F5F5F5F5F5F5F5F5F5F5F5F5F5F5F5F5F5F5F5F5F5E2F5F5E20000E2F5F5E2F5F5F5F5F5F5F5F5F5F5F5F5F5F5F5F5F5F5F5F5F5F5F5F5F5F5F5F5F5F5F5F5F5F5F5F5F5F5F5F5F5F5F5F5F5F5F5F5F5F5F5F5F5F5F5F5F5F5F5F5F5F5F5F5F5F5F5F5F5F5F5F5F5F5F5F5
310
F5F5F5F5F5F5F5F5F5F5F5F5F5F5E2F5F5E20000E2F5F5E2F5F5F5F5F5F5F5F5F5F5F5F5F5F5F5F5F5F5F5F5F5F5F5F5F5F5F5F5F5F5F5F5F5F5F5F5F5F5F5F5F5F5F5F5F5F5F5F5F5F5F5F5F5F5F5F5F5F5F5F5F5F5F5F5F5F5F5F5F5F5F5F5F5F5F5F5F5F5F5F5F5F5F5F5F5F5F5F5F5F5E2F5F5E20000E2F5F5E2F5F5F5
310
F5F5F5F5F5F5F5F5F5F5F5F5F5F5F5F5F5F5F5F5F5F5F5F5F5F5F5F5F5F5F5F5F5F5F5F5F5F5F5F5F5F5F5F5F5F5F5F5F5F5F5F5F5F5F5F5F5F5F5F5F5F5F5F5F5F5F5F5F5F5F5F5F5F5F5F5F5F5F5F5F5F5F5F5F5F5F5E2F5F5E20000E2F5F5E2F5F5F5F5F5F5F5F5F5F5F5F5F5F5F5F5F5F5F5F5F5F5F5F5F5F5F5F5F5F5
310
F5F5F5F5F5F5F5F5F5F5F5F5F5F5F5F5F5F5F5F5F5F5F5F5F5F5F5F5F5F5F5F5F5F5F5F5F5F5F5F5F5F5F5F5F5F5F5F5F5F5F5F5F5F5F5F5F5F5F5F5E2F5F5E20000E2F5F5E2F5F5F5F5F5F5F5F5F5F5F5F5F5F5F5F5F5F5F5F5F5F5F5F5F5F5F5F5F5F5F5F5F5F5F5F5F5F5F5F5F5F5F5F5F5F5F5F5F5F5F5F5F5F5F5F5F5
310
F5F5F5F5F5F5F5F5F5F5F5F5F5F5F5F5F5F5F5F5F5F5F5F5F5F5F5F5F5F5F5F5F5E2F5F5E20000E2F5F5E2F5F5F5F5F5F5F5F5F5F5F5F5F5F5F5F5F5F5F5F5F5F5F5F5F5F5F5F5F5F5F5F5F5F5F5F5F5F5F5F5F5F5F5F5F5F5F5F5F5F5F5F5F5F5F5F5F5F5F5F5F5F5F5F5F5F5F5F5F5F5F5F5F5F5F5F5F5F5F5F5F5F5F5F5
310
F5F5F5F5F5F5E2F5F5E20000E2F5F5E2F5F5F5F5F5F5F5F5F5F5F5F5F5F5F5F5F5F5F5F5F5F5F5F5F5F5F5F5F5F5F5F5F5F5F5F5F5F5F5F5F5F5F5F5F5F5F5F5F5F5F5F5F5F5F5F5F5F5F5F5F5F5F5F5F5F5F5F5F5F5F5F5F5F5F5F5F5F5F5F5F5F5F5F5F5F5F5F5F5F5E2F5F5E20000E2F5F5E2F5F5F5F5F5F5F5F5F5F5F5
310
F5F5F5F5F5F5F5F5F5F5F5F5F5F5F5F5F5F5F5F5F5F5F5F5F5F5F5F5F5F5F5F5F5F5F5F5F5F5F5F5F5F5F5F5F5F5F5F5F5F5F5F5F5F5F5F5F5F5F5F5F5F5F5F5F5F5F5F5F5F5F5F5F5F5F5F5F5F5F5E2F5F5E20000E2F5F5E2F5F5F5F5F5F5F5F5F5F5F5F5F5F5F5F5F5F5F5F5F5F5F5F5F5F5F5F5F5F5F5F5F5F5F5F5F5F5
310
F5F5F5F5F5F5F5F5F5F5F5F5F5F5F5F5F5F5F5F5F5F5F5F5F5F5F5F5F5F5F5F5F5F5F5F5F5F5F5F5F5F5F5F5F5F5F5F5F5F5F5F5E2F5F5E20000E2F5F5E2F5F5F5F5F5F5F5F5F5F5F5F5F5F5F5F5F5F5F5F5F5F5F5F5F5F5F5F5F5F5F5F5F5F5F5F5F5F5F5F5F5F5F5F5F5F5F5F5F5F5F5F5F5F5F5F5F5F5F5F5F5F5F5F5F5
310
F5F5F5F5F5F5F5F5F5F5F5F5F5F5F5F5F5F5F5F5F5F5F5F5F5E2F5F5E20000E2F5F5F5F5F5F5F5F5F5F5F5F5F5F5F5F5F5F5F5F5F5F5F5F5F5F5F5F5F5F5F5F5F5F5F5F5F5F5F5F5F5F5F5F5F5F5F5F5F5F5F5F5F5F5F5F5F5F5F5F5F5F5F5F5F5F5F5F5F5F5F5F5F5F5F5F5F5F5F5F5F5F5F5F5F5F5F5F5F5F5F5F5F5F5F5
310
F5E20000E2F5F5F5F5F5F5F5F5F5F5F5F5F5F5F5F5F5F5F5F5F5F5F5F5F5F5F5F5F5F5F5F5F5F5F5F5F5F5F5F5F5F5F5F5F5F5F5F5F5F5F5F5F5F5F5F5F5F5F5F5F5F5F5F5F5F5F5F5F5F5F5F5F5F5F5F5F5F5F5F5F5F5F5F5F5F5F5F5F5F5F5F5F5F5F5F5E20000E2F5F5F5F5F5F5F5F5F5F5F5F5F5F5F5F5F5F5F5F5F5F5
310
F5F5F5F5F5F5F5F5F5F5F5F5F5F5F5F5F5F5F5F5F5F5F5F5F5F5F5F5F5F5F5F5F5F5F5F5F5F5F5F5F5F5F5F5F5F5F5F5F5F5F5F5F5F5F5F5F5F5F5F5F5F5F5F5F5F5F5F5F5F5F5F5F5F5E20000E2F5F5F5F5F5F5F5F5F5F5F5F5F5F5F5F5F5F5F5F5F5F5F5F5F5F5F5F5F5F5F5F5F5F5F5F5F5F5F5F5F5F5F5F5F5F5F5F5F5
310
F5F5F5F5F5F5F5F5F5F5F5F5F5F5F5F5F5F5F5F5F5F5F5F5F5F5F5F5F5F5F5F5F5F5F5F5F5F5F5F5F5F5F5F5F5F5F5E20000E2F5F5F5F5F5F5F5F5F5F5F5F5F5F5F5F5F5F5F5F5F5F5F5F5F5F5F5F5F5F5F5F5F5F5F5F5F5F5F5F5F5F5F5F5F5F5F5F5F5F5F5F5F5F5F5F5F5F5F5F5F5F5F5F5F5F5F5F5F5F5F5F5F5F5F5F5
310
F5F5F5F5F5F5F5F5F5F5F5F5F5F5F5F5F5F5F5F5E20000E2F5F5F5F5F5F5F5F5F5F5F5F5F5F5F5F5F5F5F5F5F5F5F5F5F5F5F5F5F5F5F5F5F5F5F5F5F5F5F5F5F5F5F5F5F5F5F5F5F5F5F5F5F5F5F5F5F5F5F5F5F5F5F5F5F5F5F5F5F5F5F5F5F5F5F5F5F5F5F5F5F5F5F5F5F5F5F5F5F5F5F5F5F5F5F5F5E20000E2F5F5F5
310
F5F5F5F5F5F5F5F5F5F5F5F5F5F5F5F5F5F5F5F5F5F5F5F5F5F5F5F5F5F5F5F5F5F5F5F5F5F5F5F5F5F5F5F5F5F5F5F5F5F5F5F5F5F5F5F5F5F5F5F5F5F5F5F5F5F5F5F5F5F5F5F5F5F5F5F5F5F5F5F5F5F5F5F5F5F5F5F5F5F5F5F5F5E20000E2F5F5F5F5F5F5F5F5F5F5F5F5F5F5F5F5F5F5F5F5F5F5F5F5F5F5F5F5F5F5
310
F5F5F5F5F5F5F5F5F5F5F5F5F5F5F5F5F5F5F5F5F5F5F5F5F5F5F5F5F5F5F5F5F5F5F5F5F5F5F5F5F5F5F5F5F5F5F5F5F5F5F5F5F5F5F5F5F5F5F5F5F5F5F5F5F5F5E20000E2F5F5F5F5F5F5F5F5F5F5F5F5F5F5F5F5F5F5F5F5F5F5F5F5F5F5F5F5F5F5F5F5F5F5F5F5F5F5F5F5F5F5F5F5F5F5F5F5F5F5F5F5F5F5F5F5F5
310
F5F5F5F5F5F5F5F5F5F5F5F5F5F5F5F5F5F5F5F5F5F5F5F5F5F5F5F5F5F5F5F5F5F5F5F5F5F5F5E20000E2F5F5F5F5F5F5F5F5F5F5F5F5F5F5F5F5F5F5F5F5F5F5F5F5F5F5F5F5F5F5F5F5F5F5F5F5F5F5F5F5F5F5F5F5F5F5F5F5F5F5F5F5F5F5F5F5F5F5F5F5F5F5F5F5F5F5F5F5F5F5F5F5F5F5F5F5F5F5F5F5F5F5F5F5
310
F5F5F5F5F5F5F5F5F5F5F5F5E20000E2F5F5E2F5F5F5F5F5F5F5F5F5F5F5F5F5F5F5F5F5F5F5F5F5F5F5F5F5F5F5F5F5F5F5F5F5F5F5F5F5F5F5F5F5F5F5F5F5F5F5F5F5F5F5F5F5F5F5F5F5F5F5F5F5F5F5F5F5F5F5F5F5F5F5F5F5F5F5F5F5F5F5F5F5F5F5F5F5F5F5F5F5F5E2F5F5E2CDCDE2F5F5E2F5F5F5F5F5F5F5F5
310
F5F5F5F5F5F5F5F5F5F5F5F5F5F5F5F5F5F5F5F5F5F5F5F5F5F5F5F5F5F5F5F5F5F5F5F5F5F5F5F5F5F5F5F5F5F5F5F5F5F5F5F5F5F5F5F5F5F5F5F5F5F5F5F5F5F5F5F5F5F5F5F5F5F5F5F5F5F5F5F5F5F5E2F5F5E20000E2F5F5E2F5F5F5F5F5F5F5F5F5F5F5F5F5F5F5F5F5F5F5F5F5F5F5F5F5F5F5F5F5F5F5F5F5F5F5
310
F5F5F5F5F5F5F5F5F5F5F5F5F5F5F5F5F5F5F5F5F5F5F5F5F5F5F5F5F5F5F5F5F5F5F5F5F5F5F5F5F5F5F5F5F5F5F5F5F5F5F5F5F5F5F5E2F5F5E2CDCDE2F5F5E2F5F5F5F5F5F5F5F5F5F5F5F5F5F5F5F5F5F5F5F5F5F5F5F5F5F5F5F5F5F5F5F5F5F5F5F5F5F5F5F5F5F5F5F5F5F5F5F5F5F5F5F5F5F5F5F5F5F5F5F5F5F5
310
F5F5F5F5F5F5F5F5F5F5F5F5F5F5F5F5F5F5F5F5F5F5F5F5F5F5F5F5E2F5F5E20000E2F5F5E2F5F5F5F5F5F5F5F5F5F5F5F5F5F5F5F5F5F5F5F5F5F5F5F5F5F5F5F5F5F5F5F5F5F5F5F5F5F5F5F5F5F5F5F5F5F5F5F5F5F5F5F5F5F5F5F5F5F5F5F5F5F5F5F5F5F5F5F5F5F5F5F5F5F5F5F5F5F5F5F5F5F5F5F5F5F5F5F5F5
310
F5E2F5F5E2CDCDE2F5F5E2F5F5F5F5F5F5F5F5F5F5F5F5F5F5F5F5F5F5F5F5F5F5F5F5F5F5F5F5F5F5F5F5F5F5F5F5F5F5F5F5F5F5F5F5F5F5F5F5F5F5F5F5F5F5F5F5F5F5F5F5F5F5F5F5F5F5F5F5F5F5F5F5F5F5F5F5F5F5F5F5F5F5F5F5F5F5F5F5F5F5E2F5F5E20000E2F5F5E2F5F5F5F5F5F5F5F5F5F5F5F5F5F5F5F5
310
F5F5F5F5F5F5F5F5F5F5F5F5F5F5F5F5F5F5F5F5F5F5F5F5F5F5F5F5F5F5F5F5F5F5F5F5F5F5F5F5F5F5F5F5F5F5F5F5F5F5F5F5F5F5F5F5F5F5F5F5F5F5F5F5F5F5F5F5F5F5F5F5F5F5E2F5F5E2CDCDE2F5F5E2F5F5F5F5F5F5F5F5F5F5F5F5F5F5F5F5F5F5F5F5F5F5F5F5F5F5F5F5F5F5F5F5F5F5F5F5F5F5F5F5F5F5F5
310
F5F5F5F5F5F5F5F5F5F5F5F5F5F5F5F5F5F5F5F5F5F5F5F5F5F5F5F5F5F5F5F5F5F5F5F5F5F5F5F5F5F5F5F5F5F5F5E2F5F5E20000E2F5F5E2F5F5F5F5F5F5F5F5F5F5F5F5F5F5F5F5F5F5F5F5F5F5F5F5F5F5F5F5F5F5F5F5F5F5F5F5F5F5F5F5F5F5F5F5F5F5F5F5F5F5F5F5F5F5F5F5F5F5F5F5F5F5F5F5F5F5F5F5F5F5
310
F5F5F5F5F5F5F5F5F5F5F5F5F5F5F5F5F5F5F5F5E2F5F5E2CDCDE2F5F5E2F5F5F5F5F5F5F5F5F5F5F5F5F5F5F5F5F5F5F5F5F5F5F5F5F5F5F5F5F5F5F5F5F5F5F5F5F5F5F5F5F5F5F5F5F5F5F5F5F5F5F5F5F5F5F5F5F5F5F5F5F5F5F5F5F5F5F5F5F5F5F5F5F5F5F5F5F5F5F5F5F5F5F5F5F5F5F5F5F5F5E2F5F5E20000E2
310
F5F5E2F5F5F5F5F5F5F5F5F5F5F5F5F5F5F5F5F5F5F5F5F5F5F5F5F5F5F5F5F5F5F5F5F5F5F5F5F5F5F5F5F5F5F5F5F5F5F5F5F5F5F5F5F5F5F5F5F5F5F5F5F5F5F5F5F5F5F5F5F5F5F5F5F5F5F5F5F5F5F5F5F5F5F5F5F5F5F5F5F5F5E2F5F5E2CDCDE2F5F5E2F5F5F5F5F5F5F5F5F5F5F5F5F5F5F5F5F5F5F5F5F5F5F5F5
310
F5F5F5F5F5F5F5F5F5F5F5F5F5F5F5F5F5F5F5F5F5F5F5F5F5F5F5F5F5F5F5F5F5F5F5F5F5F5F5F5F5F5F5F5F5F5F5F5F5F5F5F5F5F5F5F5F5F5F5F5F5F5F5F5F5F5E2F5F5E20000E2F5F5E2F5F5F5F5F5F5F5F5F5F5F5F5F5F5F5F5F5F5F5F5F5F5F5F5F5F5F5F5F5F5F5F5F5F5F5F5F5F5F5F5F5F5F5F5F5F5F5F5F5F5F5
310
F5F5F5F5F5F5F5F5F5F5F5F5F5F5F5F5F5F5F5F5F5F5F5F5F5F5F5F5F5F5F5F5F5F5F5F5F5F5F5E2F5F5E2CDCDE2F5F5E2F5F5F5F5F5F5F5F5F5F5F5F5F5F5F5F5F5F5F5F5F5F5F5F5F5F5F5F5F5F5F5F5F5F5F5F5F5F5F5F5F5F5F5F5F5F5F5F5F5F5F5F5F5F5F5F5F5F5F5F5F5F5F5F5F5F5F5F5F5F5F5F5F5F5F5F5F5F5
310
F5F5F5F5F5F5F5F5F5F5F5F5E2F5F5E20000E2F5F5E2F5F5F5F5F5F5F5F5F5F5F5F5F5F5F5F5F5F5F5F5F5F5F5F5F5F5F5F5F5F5F5F5F5F5F5F5F5F5F5F5F5F5F5F5F5F5F5F5F5F5F5F5F5F5F5F5F5F5F5F5F5F5F5F5F5F5F5F5F5F5F5F5F5F5F5F5F5F5F5F5F5F5F5F5F5F5F5F5F5F5E2F5F5E2CDCDE2F5F5E2F5F5F5F5F5
310
F5F5F5F5F5F5F5F5F5F5F5F5F5F5F5F5F5F5F5F5F5F5F5F5F5F5F5F5F5F5F5F5F5F5F5F5F5F5F5F5F5F5F5F5F5F5F5F5F5F5F5F5F5F5F5F5F5F5F5F5F5F5F5F5F5F5F5F5F5F5F5F5F5F5F5F5F5F5F5F5F5F5F5F5F5E2F5F5E20000E2F5F5E2F5F5F5F5F5F5F5F5F5F5F5F5F5F5F5F5F5F5F5F5F5F5F5F5F5F5F5F5F5F5F5F5
310
F5F5F5F5F5F5F5F5F5F5F5F5F5F5F5F5F5F5F5F5F5F5F5F5F5F5F5F5F5F5F5F5F5F5F5F5F5F5F5F5F5F5F5F5F5F5F5F5F5F5F5F5F5F5F5F5F5F5E2F5F5E2CDCDE2F5F5F5F5F5F5F5F5F5F5F5F5F5F5F5F5F5F5F5F5F5F5F5F5F5F5F5F5F5F5F5F5F5F5F5F5F5F5F5F5F5F5F5F5F5F5F5F5F5F5F5F5F5F5F5F5F5F5F5F5F5F5
310
F5F5F5F5F5F5F5F5F5F5F5F5F5F5F5F5F5F5F5F5F5F5F5F5F5F5F5F5F5F5F5F5F5F5E20000E2F5F5F5F5F5F5F5F5F5F5F5F5F5F5F5F5F5F5F5F5F5F5F5F5F5F5F5F5F5F5F5F5F5F5F5F5F5F5F5F5F5F5F5F5F5F5F5F5F5F5F5F5F5F5F5F5F5F5F5F5F5F5F5F5F5F5F5F5F5F5F5F5F5F5F5F5F5F5F5F5F5F5F5F5F5F5F5F5F5
310
F5F5F5F5F5F5F5E2CDCDE2F5F5F5F5F5F5F5F5F5F5F5F5F5F5F5F5F5F5F5F5F5F5F5F5F5F5F5F5F5F5F5F5F5F5F5F5F5F5F5F5F5F5F5F5F5F5F5F5F5F5F5F5F5F5F5F5F5F5F5F5F5F5F5F5F5F5F5F5F5F5F5F5F5F5F5F5F5F5F5F5F5F5F5F5F5F5F5F5F5F5F5F5F5F5F5F5E20000E2F5F5F5F5F5F5F5F5F5F5F5F5F5F5F5F5
310
F5F5F5F5F5F5F5F5F5F5F5F5F5F5F5F5F5F5F5F5F5F5F5F5F5F5F5F5F5F5F5F5F5F5F5F5F5F5F5F5F5F5F5F5F5F5F5F5F5F5F5F5F5F5F5F5F5F5F5F5F5F5F5F5F5F5F5F5F5F5F5F5F5F5F5F5F5F5F5F5E20000E2F5F5F5F5F5F5F5F5F5F5F5F5F5F5F5F5F5F5F5F5F5F5F5F5F5F5F5F5F5F5F5F5F5F5F5F5F5F5F5F5F5F5F5
310
F5F5F5F5F5F5F5F5F5F5F5F5F5F5F5F5F5F5F5F5F5F5F5F5F5F5F5F5F5F5F5F5F5F5F5F5F5F5F5F5F5F5F5F5F5F5F5F5F5F5F5F5F5E20000E2F5F5F5F5F5F5F5F5F5F5F5F5F5F5F5F5F5F5F5F5F5F5F5F5F5F5F5F5F5F5F5F5F5F5F5F5F5F5F5F5F5F5F5F5F5F5F5F5F5F5F5F5F5F5F5F5F5F5F5F5F5F5F5F5F5F5F5F5F5F5
310
F5F5F5F5F5F5F5F5F5F5F5F5F5F5F5F5F5F5F5F5F5F5F5F5F5F5E2CDCDE2F5F5F5F5F5F5F5F5F5F5F5F5F5F5F5F5F5F5F5F5F5F5F5F5F5F5F5F5F5F5F5F5F5F5F5F5F5F5F5F5F5F5F5F5F5F5F5F5F5F5F5F5F5F5F5F5F5F5F5F5F5F5F5F5F5F5F5F5F5F5F5F5F5F5F5F5F5F5F5F5F5F5F5F5F5F5F5F5F5F5F5F5F5F5F5F5E2
310
0000E2F5F5F5F5F5F5F5F5F5F5F5F5F5F5F5F5F5F5F5F5F5F5F5F5F5F5F5F5F5F5F5F5F5F5F5F5F5F5F5F5F5F5F5F5F5F5F5F5F5F5F5F5F5F5F5F5F5F5F5F5F5F5F5F5F5F5F5F5F5F5F5F5F5F5F5F5F5F5F5F5F5F5F5F5F5F5F5F5F5F5F5F5F5F5F5F5E2CDCDE2F5F5F5F5F5F5F5F5F5F5F5F5F5F5F5F5F5F5F5F5F5F5F5F5
310
F5F5F5F5F5F5F5F5F5F5F5F5F5F5F5F5F5F5F5F5F5F5F5F5F5F5F5F5F5F5F5F5F5F5F5F5F5F5F5F5F5F5F5F5F5F5F5F5F5F5F5F5F5F5F5F5F5F5F5F5F5F5F5F5F5F5F5F5F5F5F5F5E20000E2F5F5E2F5F5F5F5F5F5F5F5F5F5F5F5F5F5F5F5F5F5F5F5F5F5F5F5F5F5F5F5F5F5F5F5F5F5F5F5F5F5F5F5F5F5F5F5F5F5F5F5
310
F5F5F5F5F5F5F5F5F5F5F5F5F5F5F5F5F5F5F5F5F5F5F5F5F5F5F5F5F5F5F5F5F5F5F5F5F5F5F5F5F5F5E2F5F5E2CDCDE2F5F5E2F5F5F5F5F5F5F5F5F5F5F5F5F5F5F5F5F5F5F5F5F5F5F5F5F5F5F5F5F5F5F5F5F5F5F5F5F5F5F5F5F5F5F5F5F5F5F5F5F5F5F5F5F5F5F5F5F5F5F5F5F5F5F5F5F5F5F5F5F5F5F5F5F5F5F5
310
F5F5F5F5F5F5F5F5F5F5F5F5F5F5F5E2F5F5E20000E2F5F5E2F5F5F5F5F5F5F5F5F5F5F5F5F5F5F5F5F5F5F5F5F5F5F5F5F5F5F5F5F5F5F5F5F5F5F5F5F5F5F5F5F5F5F5F5F5F5F5F5F5F5F5F5F5F5F5F5F5F5F5F5F5F5F5F5F5F5F5F5F5F5F5F5F5F5F5F5F5F5F5F5F5F5F5F5F5F5F5F5F5F5E2F5F5E2CDCDE2F5F5E2F5F5
310
F5F5F5F5F5F5F5F5F5F5F5F5F5F5F5F5F5F5F5F5F5F5F5F5F5F5F5F5F5F5F5F5F5F5F5F5F5F5F5F5F5F5F5F5F5F5F5F5F5F5F5F5F5F5F5F5F5F5F5F5F5F5F5F5F5F5F5F5F5F5F5F5F5F5F5F5F5F5F5F5F5F5F5F5F5F5F5F5E2F5F5E20000E2F5F5E2F5F5F5F5F5F5F5F5F5F5F5F5F5F5F5F5F5F5F5F5F5F5F5F5F5F5F5F5F5
310
F5F5F5F5F5F5F5F5F5F5F5F5F5F5F5F5F5F5F5F5F5F5F5F5F5F5F5F5F5F5F5F5F5F5F5F5F5F5F5F5F5F5F5F5F5F5F5F5F5F5F5F5F5F5F5F5F5F5F5F5F5E2F5F5E2CDCDE2F5F5E2F5F5F5F5F5F5F5F5F5F5F5F5F5F5F5F5F5F5F5F5F5F5F5F5F5F5F5F5F5F5F5F5F5F5F5F5F5F5F5F5F5F5F5F5F5F5F5F5F5F5F5F5F5F5F5F5
310
F5F5F5F5F5F5F5F5F5F5F5F5F5F5F5F5F5F5F5F5F5F5F5F5F5F5F5F5F5F5F5F5F5F5E2F5F5E20000E2F5F5E2F5F5F5F5F5F5F5F5F5F5F5F5F5F5F5F5F5F5F5F5F5F5F5F5F5F5F5F5F5F5F5F5F5F5F5F5F5F5F5F5F5F5F5F5F5F5F5F5F5F5F5F5F5F5F5F5F5F5F5F5F5F5F5F5F5F5F5F5F5F5F5F5F5F5F5F5F5F5F5F5F5F5F5
310
F5F5F5F5F5F5F5E2F5F5E2CDCDE2F5F5E2F5F5F5F5F5F5F5F5F5F5F5F5F5F5F5F5F5F5F5F5F5F5F5F5F5F5F5F5F5F5F5F5F5F5F5F5F5F5F5F5F5F5F5F5F5F5F5F5F5F5F5F5F5F5F5F5F5F5F5F5F5F5F5F5F5F5F5F5F5F5F5F5F5F5F5F5F5F5F5F5F5F5F5F5F5F5F5F5F5F5E2F5F5E20000E2F5F5E2E2E2E2E2E2E2E2F5F5F5
310
F5F5F5F5F5E2E2E2E2E2E2E2E2E2E2E2E2E2E2E2F5F5F5F5F5F5F5F5E2E2E2E2E2E2E2E2E2E2E2E2E2E2F5F5F5F5F5F5F5F5E2E2E2E2E2E2E2E2E2E2E2E2E2E2E2F5F5F5F5F5F5F5F5E2E2E2E2E2E2E2E2F5F5E2CDCDE2F5F5F5F5F5F5F5F5F5F5F5F5F5F5F5F5F5F5F5F5F5F5F5F5F5F5F5F5F5F5F5F5F5F5F5F5F5F5F5F5
310
F5F5F5F5F5F5F5F5F5F5F5F5F5F5F5F5F5F5F5F5F5F5F5F5F5F5F5F5F5F5F5F5F5F5F5F5F5F5F5F5F5F5F5F5F5F5F5F5F5F5F5F5F5F5F5F5E20000E2F5F5F5F5F5F5F5F5F5F5F5F5F5F5F5F5F5F5F5F5F5F5F5F5F5F5F5F5F5F5F5F5F5F5F5F5F5F5F5F5F5F5F5F5F5F5F5F5F5F5F5F5F5F5F5F5F5F5F5F5F5F5F5F5F5F5F5
310
F5F5F5F5F5F5F5F5F5F5F5F5F5F5F5F5F5F5F5F5F5F5F5F5F5F5F5F5F5E2CDCDE2F5F5F5F5F5F5F5F5F5F5F5F5F5F5F5F5F5F5F5F5F5F5F5F5F5F5F5F5F5F5F5F5F5F5F5F5F5F5F5F5F5F5F5F5F5F5F5F5F5F5F5F5F5F5F5F5F5F5F5F5F5F5F5F5F5F5F5F5F5F5F5F5F5F5F5F5F5F5F5F5F5F5F5F5F5F5F5F5F5F5F5F5F5F5
310
F5F5E20000E2E2E2E2E2E2E2E2E2E2E2E2E2E2E2E2E2E2E2E2E2E2E2E2E2E2E2E2E2E2E2E2E2E2E2E2E2E2E2E2E2E2E2E2E2E2E2E2E2E2E2E2E2E2E2E2E2E2E2E2E2E2E2E2E2E2E2E2E2E2E2E2E2E2E2E2E2E2E2E2E2E2E2E2E2E2E2E2E2E2E2E2E2E2E2E2E2E2CDCDEFEFEFEFEFEFEFEFEFEFEFEFEFEFEFEFEFEFEFEFEFEF
310
EFEFEFEFEFEFEFEFEFEFEFEFEFEFEFEFEFEFEFEFEFEFEFEFEFEFEFEFEFEFEFEFEFEFEFEFEFEFEFEFEFEFEFEFEFEFEFEFEFEFEFEFEFEFEFEFEFEFEFEFEFEFEFEFEFEFEFEFEFEFEFEFEFEFEFEF0000
  0
CELLSTYLEMAP
  5
2603
102
{ACAD_REACTORS
330
2602
102
}
330
2602
100
AcDbCellStyleMap
 90
        3
300
CELLSTYLE
  1
TABLEFORMAT_BEGIN
 90
        5
170
     1
 91
        0
 92
    32768
 62
   257
 93
        1
300
CONTENTFORMAT
  1
CONTENTFORMAT_BEGIN
 90
        0
 91
        0
 92
      512
 93
        0
300

 40
0.0
140
1.0
 94
        5
 62
     0
340
F
144
0.25
309
CONTENTFORMAT_END
171
     0
 94
        6
 95
        1
302
GRIDFORMAT
  1
GRIDFORMAT_BEGIN
 90
        0
 91
        1
 62
     0
 92
       -2
340
0
 93
        0
 40
0.045
309
GRIDFORMAT_END
 95
        2
302
GRIDFORMAT
  1
GRIDFORMAT_BEGIN
 90
        0
 91
        1
 62
     0
 92
       -2
340
0
 93
        0
 40
0.045
309
GRIDFORMAT_END
 95
        4
302
GRIDFORMAT
  1
GRIDFORMAT_BEGIN
 90
        0
 91
        1
 62
     0
 92
       -2
340
0
 93
        0
 40
0.045
309
GRIDFORMAT_END
 95
        8
302
GRIDFORMAT
  1
GRIDFORMAT_BEGIN
 90
        0
 91
        1
 62
     0
 92
       -2
340
0
 93
        0
 40
0.045
309
GRIDFORMAT_END
 95
       16
302
GRIDFORMAT
  1
GRIDFORMAT_BEGIN
 90
        0
 91
        1
 62
     0
 92
       -2
340
0
 93
        0
 40
0.045
309
GRIDFORMAT_END
 95
       32
302
GRIDFORMAT
  1
GRIDFORMAT_BEGIN
 90
        0
 91
        1
 62
     0
 92
       -2
340
0
 93
        0
 40
0.045
309
GRIDFORMAT_END
309
TABLEFORMAT_END
  1
CELLSTYLE_BEGIN
 90
        1
 91
        1
300
_TITLE
309
CELLSTYLE_END
300
CELLSTYLE
  1
TABLEFORMAT_BEGIN
 90
        5
170
     1
 91
        0
 92
        0
 62
   257
 93
        1
300
CONTENTFORMAT
  1
CONTENTFORMAT_BEGIN
 90
        0
 91
        0
 92
      512
 93
        0
300

 40
0.0
140
1.0
 94
        5
 62
     0
340
F
144
0.18
309
CONTENTFORMAT_END
171
     0
 94
        6
 95
        1
302
GRIDFORMAT
  1
GRIDFORMAT_BEGIN
 90
        0
 91
        1
 62
     0
 92
       -2
340
0
 93
        0
 40
0.045
309
GRIDFORMAT_END
 95
        2
302
GRIDFORMAT
  1
GRIDFORMAT_BEGIN
 90
        0
 91
        1
 62
     0
 92
       -2
340
0
 93
        0
 40
0.045
309
GRIDFORMAT_END
 95
        4
302
GRIDFORMAT
  1
GRIDFORMAT_BEGIN
 90
        0
 91
        1
 62
     0
 92
       -2
340
0
 93
        0
 40
0.045
309
GRIDFORMAT_END
 95
        8
302
GRIDFORMAT
  1
GRIDFORMAT_BEGIN
 90
        0
 91
        1
 62
     0
 92
       -2
340
0
 93
        0
 40
0.045
309
GRIDFORMAT_END
 95
       16
302
GRIDFORMAT
  1
GRIDFORMAT_BEGIN
 90
        0
 91
        1
 62
     0
 92
       -2
340
0
 93
        0
 40
0.045
309
GRIDFORMAT_END
 95
       32
302
GRIDFORMAT
  1
GRIDFORMAT_BEGIN
 90
        0
 91
        1
 62
     0
 92
       -2
340
0
 93
        0
 40
0.045
309
GRIDFORMAT_END
309
TABLEFORMAT_END
  1
CELLSTYLE_BEGIN
 90
        2
 91
        1
300
_HEADER
309
CELLSTYLE_END
300
CELLSTYLE
  1
TABLEFORMAT_BEGIN
 90
        5
170
     1
 91
        0
 92
        0
 62
   257
 93
        1
300
CONTENTFORMAT
  1
CONTENTFORMAT_BEGIN
 90
        0
 91
        0
 92
      512
 93
        0
300

 40
0.0
140
1.0
 94
        2
 62
     0
340
F
144
0.18
309
CONTENTFORMAT_END
171
     0
 94
        6
 95
        1
302
GRIDFORMAT
  1
GRIDFORMAT_BEGIN
 90
        0
 91
        1
 62
     0
 92
       -2
340
0
 93
        0
 40
0.045
309
GRIDFORMAT_END
 95
        2
302
GRIDFORMAT
  1
GRIDFORMAT_BEGIN
 90
        0
 91
        1
 62
     0
 92
       -2
340
0
 93
        0
 40
0.045
309
GRIDFORMAT_END
 95
        4
302
GRIDFORMAT
  1
GRIDFORMAT_BEGIN
 90
        0
 91
        1
 62
     0
 92
       -2
340
0
 93
        0
 40
0.045
309
GRIDFORMAT_END
 95
        8
302
GRIDFORMAT
  1
GRIDFORMAT_BEGIN
 90
        0
 91
        1
 62
     0
 92
       -2
340
0
 93
        0
 40
0.045
309
GRIDFORMAT_END
 95
       16
302
GRIDFORMAT
  1
GRIDFORMAT_BEGIN
 90
        0
 91
        1
 62
     0
 92
       -2
340
0
 93
        0
 40
0.045
309
GRIDFORMAT_END
 95
       32
302
GRIDFORMAT
  1
GRIDFORMAT_BEGIN
 90
        0
 91
        1
 62
     0
 92
       -2
340
0
 93
        0
 40
0.045
309
GRIDFORMAT_END
309
TABLEFORMAT_END
  1
CELLSTYLE_BEGIN
 90
        3
 91
        2
300
_DATA
309
CELLSTYLE_END
  0
ENDSEC
  0
EOF
